  0
SECTION
  2
HEADER
  9
$ACADVER
  1
AC1012
  9
$DWGCODEPAGE
  3
dos932
  9
$INSBASE
 10
0.0
 20
0.0
 30
0.0
  9
$EXTMIN
 10
-281.25
 20
-195.0
 30
0.0
  9
$EXTMAX
 10
285.6319057062413
 20
195.5
 30
0.0
  9
$LIMMIN
 10
-281.25
 20
-195.0
  9
$LIMMAX
 10
285.6319057062413
 20
195.5
  9
$ORTHOMODE
 70
               0
  9
$REGENMODE
 70
               1
  9
$FILLMODE
 70
               1
  9
$QTEXTMODE
 70
               0
  9
$MIRRTEXT
 70
               1
  9
$DRAGMODE
 70
               2
  9
$LTSCALE
 40
1.0
  9
$OSMODE
 70
               0
  9
$ATTMODE
 70
               1
  9
$TEXTSIZE
 40
3.2000000476837158
  9
$TRACEWID
 40
0.05
  9
$TEXTSTYLE
  7
MX_NOTE_STANDARD
  9
$CLAYER
  8
0
  9
$CELTYPE
  6
CONTINUOUS
  9
$CECOLOR
 62
             256
  9
$CELTSCALE
 40
1.0
  9
$DELOBJ
 70
               1
  9
$DISPSILH
 70
               0
  9
$DIMSCALE
 40
1.0
  9
$DIMASZ
 40
2.5
  9
$DIMEXO
 40
1.5
  9
$DIMDLI
 40
3.75
  9
$DIMRND
 40
0.0
  9
$DIMDLE
 40
0.0
  9
$DIMEXE
 40
1.5
  9
$DIMTP
 40
0.0
  9
$DIMTM
 40
0.0
  9
$DIMTXT
 40
3.2000000476837158
  9
$DIMCEN
 40
2.5
  9
$DIMTSZ
 40
0.0
  9
$DIMTOL
 70
               0
  9
$DIMLIM
 70
               0
  9
$DIMTIH
 70
               0
  9
$DIMTOH
 70
               0
  9
$DIMSE1
 70
               0
  9
$DIMSE2
 70
               0
  9
$DIMTAD
 70
               1
  9
$DIMZIN
 70
               8
  9
$DIMBLK
  1

  9
$DIMASO
 70
               1
  9
$DIMSHO
 70
               1
  9
$DIMPOST
  1

  9
$DIMAPOST
  1

  9
$DIMALT
 70
               0
  9
$DIMALTD
 70
               4
  9
$DIMALTF
 40
0.03937007874016
  9
$DIMLFAC
 40
1.0
  9
$DIMTOFL
 70
               1
  9
$DIMTVP
 40
0.0
  9
$DIMTIX
 70
               0
  9
$DIMSOXD
 70
               0
  9
$DIMSAH
 70
               0
  9
$DIMBLK1
  1

  9
$DIMBLK2
  1

  9
$DIMSTYLE
  2
MXDIMSTYLE
  9
$DIMCLRD
 70
               0
  9
$DIMCLRE
 70
               0
  9
$DIMCLRT
 70
               0
  9
$DIMTFAC
 40
1.0
  9
$DIMGAP
 40
1.0
  9
$DIMJUST
 70
               0
  9
$DIMSD1
 70
               0
  9
$DIMSD2
 70
               0
  9
$DIMTOLJ
 70
               1
  9
$DIMTZIN
 70
               0
  9
$DIMALTZ
 70
               0
  9
$DIMALTTZ
 70
               0
  9
$DIMFIT
 70
               3
  9
$DIMUPT
 70
               1
  9
$DIMUNIT
 70
               2
  9
$DIMDEC
 70
               4
  9
$DIMTDEC
 70
               4
  9
$DIMALTU
 70
               2
  9
$DIMALTTD
 70
               4
  9
$DIMTXSTY
  7
MX_NOTE_STANDARD
  9
$DIMAUNIT
 70
               0
  9
$LUNITS
 70
               2
  9
$LUPREC
 70
               4
  9
$SKETCHINC
 40
0.1
  9
$FILLETRAD
 40
0.0
  9
$AUNITS
 70
               0
  9
$AUPREC
 70
               0
  9
$MENU
  1
acad
  9
$ELEVATION
 40
0.0
  9
$PELEVATION
 40
0.0
  9
$THICKNESS
 40
0.0
  9
$LIMCHECK
 70
               0
  9
$BLIPMODE
 70
               1
  9
$CHAMFERA
 40
0.0
  9
$CHAMFERB
 40
0.0
  9
$CHAMFERC
 40
0.0
  9
$CHAMFERD
 40
0.0
  9
$SKPOLY
 70
               0
  9
$TDCREATE
 40
2453378.356516204
  9
$TDUPDATE
 40
2453378.356516204
  9
$TDINDWG
 40
0.0000000000
  9
$TDUSRTIMER
 40
0.0000000000
  9
$USRTIMER
 70
               1
  9
$ANGBASE
 50
0.0
  9
$ANGDIR
 70
               0
  9
$PDMODE
 70
               0
  9
$PDSIZE
 40
0.0
  9
$PLINEWID
 40
0.0
  9
$COORDS
 70
               1
  9
$SPLFRAME
 70
               0
  9
$SPLINETYPE
 70
               6
  9
$SPLINESEGS
 70
               8
  9
$ATTDIA
 70
               0
  9
$ATTREQ
 70
               1
  9
$HANDLING
 70
               1
  9
$HANDSEED
  5
64F
  9
$SURFTAB1
 70
               6
  9
$SURFTAB2
 70
               6
  9
$SURFTYPE
 70
               6
  9
$SURFU
 70
               6
  9
$SURFV
 70
               6
  9
$UCSNAME
  2

  9
$UCSORG
 10
0.0
 20
0.0
 30
0.0
  9
$UCSXDIR
 10
1.0
 20
0.0
 30
0.0
  9
$UCSYDIR
 10
0.0
 20
1.0
 30
0.0
  9
$PUCSNAME
  2

  9
$PUCSORG
 10
0.0
 20
0.0
 30
0.0
  9
$PUCSXDIR
 10
1.0
 20
0.0
 30
0.0
  9
$PUCSYDIR
 10
0.0
 20
1.0
 30
0.0
  9
$USERI1
 70
               0
  9
$USERI2
 70
               0
  9
$USERI3
 70
               0
  9
$USERI4
 70
               0
  9
$USERI5
 70
               0
  9
$USERR1
 40
0.0
  9
$USERR2
 40
0.0
  9
$USERR3
 40
0.0
  9
$USERR4
 40
0.0
  9
$USERR5
 40
0.0
  9
$WORLDVIEW
 70
               1
  9
$SHADEDGE
 70
               3
  9
$SHADEDIF
 70
              70
  9
$TILEMODE
 70
               1
  9
$MAXACTVP
 70
              16
  9
$PINSBASE
 10
0.0
 20
0.0
 30
0.0
  9
$PLIMCHECK
 70
               0
  9
$PEXTMIN
 10
1.0000000000000000E+20
 20
1.0000000000000000E+20
 30
1.0000000000000000E+20
  9
$PEXTMAX
 10
-1.0000000000000000E+20
 20
-1.0000000000000000E+20
 30
-1.0000000000000000E+20
  9
$PLIMMIN
 10
0.0
 20
0.0
  9
$PLIMMAX
 10
12.0
 20
9.0
  9
$UNITMODE
 70
               0
  9
$VISRETAIN
 70
               0
  9
$PLINEGEN
 70
               1
  9
$PSLTSCALE
 70
               0
  9
$TREEDEPTH
 70
            3020
  9
$PICKSTYLE
 70
               1
  9
$CMLSTYLE
  2
Standard
  9
$CMLJUST
 70
               0
  9
$CMLSCALE
 40
1.0
  9
$SAVEIMAGES
 70
               0
  0
ENDSEC
  0
SECTION
  2
CLASSES
  0
CLASS
  1
LWPOLYLINE
  2
AcDbPolyline
  3
"AutoCAD"
 90
        0
280
               0
281
               1
  0
CLASS
  1
IMAGE
  2
AcDbRasterImage
  3
ISM
 90
      127
280
               0
281
               1
  0
CLASS
  1
OLE2FRAME
  2
AcDbOle2Frame
  3
""
 90
        0
280
               0
281
               1
  0
CLASS
  1
HATCH
  2
AcDbHatch
  3
"ACAD_SEDONA"
 90
        0
280
               0
281
               1
  0
CLASS
  1
DICTIONARYVAR
  2
AcDbDictionaryVar
  3
"AutoCAD"
 90
        0
280
               0
281
               0
  0
CLASS
  1
RASTERVARIABLES
  2
AcDbRasterVariables
  3
ISM
 90
        0
280
               0
281
               0
  0
CLASS
  1
IMAGEDEF
  2
AcDbRasterImageDef
  3
ISM
 90
        0
280
               0
281
               0
  0
CLASS
  1
IMAGEDEF_REACTOR
  2
AcDbRasterImageDefReactor
  3
ISM
 90
        1
280
               0
281
               0
  0
CLASS
  1
IDBUFFER
  2
AcDbIdBuffer
  3
"Acad"
 90
        0
280
               0
281
               0
  0
CLASS
  1
SPATIAL_FILTER
  2
AcDbSpatialFilter
  3
"Acad"
 90
        0
280
               0
281
               0
  0
CLASS
  1
XRECORD
  2
AcDbXrecord
  3
"<Built In>"
 90
        0
280
               0
281
               0
  0
CLASS
  1
SORTENTSTABLE
  2
AcDbSortentsTable
  3
"AutoCAD"
 90
        0
280
               0
281
               0
  0
CLASS
  1
LAYER_INDEX
  2
AcDbLayerIndex
  3
"Acad"
 90
        0
280
               0
281
               0
  0
CLASS
  1
SPATIAL_INDEX
  2
AcDbSpatialIndex
  3
"Acad"
 90
        0
280
               0
281
               0
  0
CLASS
  1
OBJECT_PTR
  2
CAseDLPNTableRecord
  3
"ASE-LPNTableRecord"
 90
        1
280
               0
281
               0
  0
CLASS
  1
LAYOUT
  2
AcDbLayout
  3
"AutoCAD 2000"
 90
        1
280
               0
281
               0
  0
CLASS
  1
PLOTSETTINGS
  2
AcDbPlotSettings
  3
"AutoCAD 2000"
 90
        1
280
               0
281
               0
  0
CLASS
  1
ACDBDICTIONARYWDFLT
  2
AcDbDictionaryWithDefault
  3
"AutoCAD 2000"
 90
        1
280
               0
281
               0
  0
CLASS
  1
ACDBPLACEHOLDER
  2
AcDbPlaceHolder
  3
"AutoCAD 2000"
 90
        1
280
               0
281
               0
  0
ENDSEC
  0
SECTION
  2
TABLES
  0
TABLE
  2
VPORT
  5
7
100
AcDbSymbolTable
 70
               1
  0
VPORT
  5
15
100
AcDbSymbolTableRecord
100
AcDbViewportTableRecord
  2
*ACTIVE
 70
               0
 10
0.0
 20
0.0
 11
1.0
 21
1.0
 12
2.1909528531206206
 22
0.25
 13
0.0
 23
0.0
 14
1.0
 24
1.0
 15
0.0
 25
0.0
 16
0.0
 26
0.0
 36
1.0
 17
0.0
 27
0.0
 37
0.0
 40
394.40500000000003
 41
1.7320508075688772
 42
50.0
 43
0.0
 44
0.0
 50
0.0
 51
0.0
 71
               0
 72
             100
 73
               1
 74
               1
 75
               0
 76
               0
 77
               0
 78
               0
  0
ENDTAB
  0
TABLE
  2
LTYPE
  5
4
100
AcDbSymbolTable
 70
               3
  0
LTYPE
  5
11
100
AcDbSymbolTableRecord
100
AcDbLinetypeTableRecord
  2
BYBLOCK
 70
              64
  3

 72
              65
 73
               0
 40
0.0
  0
LTYPE
  5
12
100
AcDbSymbolTableRecord
100
AcDbLinetypeTableRecord
  2
BYLAYER
 70
              64
  3

 72
              65
 73
               0
 40
0.0
  0
LTYPE
  5
13
100
AcDbSymbolTableRecord
100
AcDbLinetypeTableRecord
  2
CONTINUOUS
 70
              64
  3
Solid line
 72
              65
 73
               0
 40
0.0
  0
ENDTAB
  0
TABLE
  2
LAYER
  5
2
100
AcDbSymbolTable
 70
               2
  0
LAYER
  5
14
100
AcDbSymbolTableRecord
100
AcDbLayerTableRecord
  2
0
 70
               0
 62
               7
  6
CONTINUOUS
  0
LAYER
  5
1D
100
AcDbSymbolTableRecord
100
AcDbLayerTableRecord
  2
DEFPOINTS
 70
               0
 62
               7
  6
CONTINUOUS
  0
ENDTAB
  0
TABLE
  2
STYLE
  5
3
100
AcDbSymbolTable
 70
               1
  0
STYLE
  5
17
100
AcDbSymbolTableRecord
100
AcDbTextStyleTableRecord
  2
MX_NOTE_STANDARD
 70
               0
 40
0.0
 41
1.0
 50
0.0
 71
               0
 42
3.2000000476837158
  3
txt.shx
  4
extfont.shx
  0
ENDTAB
  0
TABLE
  2
VIEW
  5
5
100
AcDbSymbolTable
 70
               0
  0
ENDTAB
  0
TABLE
  2
UCS
  5
6
100
AcDbSymbolTable
 70
               0
  0
ENDTAB
  0
TABLE
  2
APPID
  5
8
100
AcDbSymbolTable
 70
               1
  0
APPID
  5
16
100
AcDbSymbolTableRecord
100
AcDbRegAppTableRecord
  2
ACAD
 70
               0
  0
ENDTAB
  0
TABLE
  2
DIMSTYLE
  5
9
100
AcDbSymbolTable
 70
               1
  0
DIMSTYLE
105
18
100
AcDbSymbolTableRecord
100
AcDbDimStyleTableRecord
  2
MXDIMSTYLE
 70
               0
  3

  4

  5

  6

  7

 40
1.0
 41
2.5
 42
1.5
 43
3.75
 44
1.5
 45
0.0
 46
0.0
 47
0.0
 48
0.0
 71
               0
 72
               0
 73
               0
 74
               0
 75
               0
 76
               0
 77
               1
 78
               8
140
3.2000000476837158
141
2.5
142
0.0
143
0.03937007874016
144
1.0
145
0.0
146
1.0
147
1.0
170
               0
171
               4
172
               1
173
               0
174
               0
175
               0
176
               0
177
               0
178
               0
270
               2
271
               4
272
               4
273
               2
274
               4
275
               0
280
               0
281
               0
282
               0
283
               1
284
               0
285
               0
286
               0
287
               3
288
               1
340
17
  0
ENDTAB
  0
TABLE
  2
BLOCK_RECORD
  5
1
100
AcDbSymbolTable
 70
               8
  0
BLOCK_RECORD
  5
A
100
AcDbSymbolTableRecord
100
AcDbBlockTableRecord
  2
*MODEL_SPACE
  0
BLOCK_RECORD
  5
B
100
AcDbSymbolTableRecord
100
AcDbBlockTableRecord
  2
*PAPER_SPACE
  0
BLOCK_RECORD
  5
1E
100
AcDbSymbolTableRecord
100
AcDbBlockTableRecord
  2
F18MN_SAMPLE-1
  0
BLOCK_RECORD
  5
1F
100
AcDbSymbolTableRecord
100
AcDbBlockTableRecord
  2
F18MN_SAMPLE-2
  0
BLOCK_RECORD
  5
20
100
AcDbSymbolTableRecord
100
AcDbBlockTableRecord
  2
F18MN_SAMPLE-3
  0
BLOCK_RECORD
  5
609
100
AcDbSymbolTableRecord
100
AcDbBlockTableRecord
  2
*D3
  0
BLOCK_RECORD
  5
610
100
AcDbSymbolTableRecord
100
AcDbBlockTableRecord
  2
_OPEN30
  0
BLOCK_RECORD
  5
61E
100
AcDbSymbolTableRecord
100
AcDbBlockTableRecord
  2
*D5
  0
BLOCK_RECORD
  5
62A
100
AcDbSymbolTableRecord
100
AcDbBlockTableRecord
  2
*D6
  0
BLOCK_RECORD
  5
638
100
AcDbSymbolTableRecord
100
AcDbBlockTableRecord
  2
*D7
  0
ENDTAB
  0
ENDSEC
  0
SECTION
  2
BLOCKS
  0
BLOCK
  5
D
100
AcDbEntity
  8
0
100
AcDbBlockBegin
  2
*MODEL_SPACE
 70
               0
 10
0.0
 20
0.0
 30
0.0
  3
*MODEL_SPACE
  1

  0
ENDBLK
  5
E
100
AcDbEntity
  8
0
100
AcDbBlockEnd
  0
BLOCK
  5
F
100
AcDbEntity
 67
               1
  8
0
100
AcDbBlockBegin
  2
*PAPER_SPACE
 70
               0
 10
0.0
 20
0.0
 30
0.0
  3
*PAPER_SPACE
  1

  0
ENDBLK
  5
10
100
AcDbEntity
 67
               1
  8
0
100
AcDbBlockEnd
  0
BLOCK
  5
21
100
AcDbEntity
  8
0
100
AcDbBlockBegin
  2
F18MN_SAMPLE-1
 70
               0
 10
0.0
 20
0.0
 30
0.0
  3
F18MN_SAMPLE-1
  1

  0
LINE
  5
22
100
AcDbEntity
  8
0
  6
CONTINUOUS
 62
               2
100
AcDbLine
 10
116.0
 20
-74.985366821289063
 30
0.0
 11
116.0
 21
-83.0146484375
 31
0.0
  0
LINE
  5
23
100
AcDbEntity
  8
0
  6
CONTINUOUS
 62
               2
100
AcDbLine
 10
111.20903015136719
 20
-79.0
 30
0.0
 11
121.05165100097656
 21
-79.0
 31
0.0
  0
LINE
  5
24
100
AcDbEntity
  8
0
  6
CONTINUOUS
 62
             200
100
AcDbLine
 10
8.499969482421875
 20
-50.00006103515625
 30
0.0
 11
47.5
 21
-50.000007629394531
 31
0.0
  0
LINE
  5
25
100
AcDbEntity
  8
0
  6
CONTINUOUS
 62
             200
100
AcDbLine
 10
8.499969482421875
 20
-31.00006103515625
 30
0.0
 11
47.5
 21
-31.000007629394531
 31
0.0
  0
LINE
  5
26
100
AcDbEntity
  8
0
  6
CONTINUOUS
 62
               7
100
AcDbLine
 10
61.999984741210938
 20
9.4999847412109375
 30
0.0
 11
61.999984741210938
 21
-1.5000152587890625
 31
0.0
  0
LINE
  5
27
100
AcDbEntity
  8
0
  6
CONTINUOUS
 62
               7
100
AcDbLine
 10
51.999984741210937
 20
9.4999847412109375
 30
0.0
 11
51.999984741210937
 21
-1.5000152587890625
 31
0.0
  0
LINE
  5
28
100
AcDbEntity
  8
0
  6
CONTINUOUS
 62
               7
100
AcDbLine
 10
42.999984741210937
 20
9.4999847412109375
 30
0.0
 11
42.999984741210937
 21
-1.5000152587890625
 31
0.0
  0
LINE
  5
29
100
AcDbEntity
  8
0
  6
CONTINUOUS
 62
               7
100
AcDbLine
 10
32.999984741210938
 20
9.4999847412109375
 30
0.0
 11
32.999984741210938
 21
-1.5000152587890625
 31
0.0
  0
LINE
  5
2A
100
AcDbEntity
  8
0
  6
CONTINUOUS
 62
               7
100
AcDbLine
 10
24.0
 20
9.4999847412109375
 30
0.0
 11
24.0
 21
-1.5
 31
0.0
  0
LINE
  5
2B
100
AcDbEntity
  8
0
  6
CONTINUOUS
 62
               7
100
AcDbLine
 10
14.0
 20
9.4999847412109375
 30
0.0
 11
14.0
 21
-1.5
 31
0.0
  0
LINE
  5
2C
100
AcDbEntity
  8
0
  6
CONTINUOUS
 62
               7
100
AcDbLine
 10
43.0
 20
5.5
 30
0.0
 11
47.5
 21
5.5
 31
0.0
  0
LINE
  5
2D
100
AcDbEntity
  8
0
  6
CONTINUOUS
 62
               7
100
AcDbLine
 10
28.5
 20
-79.500015258789063
 30
0.0
 11
29.0
 21
-79.500015258789063
 31
0.0
  0
LINE
  5
2E
100
AcDbEntity
  8
0
  6
CONTINUOUS
 62
               7
100
AcDbLine
 10
47.0
 20
-79.500015258789063
 30
0.0
 11
47.5
 21
-79.500015258789063
 31
0.0
  0
LINE
  5
2F
100
AcDbEntity
  8
0
  6
CONTINUOUS
 62
               7
100
AcDbLine
 10
28.5
 20
5.5
 30
0.0
 11
33.0
 21
5.5
 31
0.0
  0
LINE
  5
30
100
AcDbEntity
  8
0
  6
CONTINUOUS
 62
               7
100
AcDbLine
 10
47.5
 20
-79.500015258789063
 30
0.0
 11
47.5
 21
5.5
 31
0.0
  0
LINE
  5
31
100
AcDbEntity
  8
0
  6
CONTINUOUS
 62
               7
100
AcDbLine
 10
28.75
 20
-83.000015258789063
 30
0.0
 11
28.75
 21
-82.500015258789063
 31
0.0
  0
LINE
  5
32
100
AcDbEntity
  8
0
  6
CONTINUOUS
 62
               7
100
AcDbLine
 10
28.75
 20
-82.500015258789063
 30
0.0
 11
29.0
 21
-82.500015258789063
 31
0.0
  0
ARC
  5
33
100
AcDbEntity
  8
0
  6
CONTINUOUS
 62
               7
100
AcDbCircle
 10
30.25
 20
-83.000015258789063
 30
0.0
 40
1.5
100
AcDbArc
 50
179.99998133066492
 51
213.55730177958446
  0
LINE
  5
34
100
AcDbEntity
  8
0
  6
CONTINUOUS
 62
               2
100
AcDbLine
 10
37.999984741210937
 20
-93.302886962890625
 30
0.0
 11
37.999984741210937
 21
55.255050659179687
 31
0.0
  0
LINE
  5
35
100
AcDbEntity
  8
0
  6
CONTINUOUS
 62
               7
100
AcDbLine
 10
28.999984741210938
 20
-14.000015258789063
 30
0.0
 11
46.999984741210937
 21
-14.000015258789063
 31
0.0
  0
LINE
  5
36
100
AcDbEntity
  8
0
  6
CONTINUOUS
 62
               7
100
AcDbLine
 10
28.999984741210938
 20
-67.0
 30
0.0
 11
46.999984741210937
 21
-67.0
 31
0.0
  0
LINE
  5
37
100
AcDbEntity
  8
0
  6
CONTINUOUS
 62
               7
100
AcDbLine
 10
28.999984741210938
 20
-79.0
 30
0.0
 11
46.999984741210937
 21
-79.0
 31
0.0
  0
LINE
  5
38
100
AcDbEntity
  8
0
  6
CONTINUOUS
 62
               4
100
AcDbLine
 10
28.999984741210938
 20
-66.800003051757813
 30
0.0
 11
46.999984741210937
 21
-66.800003051757813
 31
0.0
  0
LINE
  5
39
100
AcDbEntity
  8
0
  6
CONTINUOUS
 62
               7
100
AcDbLine
 10
29.499984741210938
 20
-90.0
 30
0.0
 11
46.499984741210937
 21
-90.0
 31
0.0
  0
LINE
  5
3A
100
AcDbEntity
  8
0
  6
CONTINUOUS
 62
               7
100
AcDbLine
 10
32.999984741210938
 20
-0.0000152587890625
 30
0.0
 11
42.999984741210937
 21
-0.0000152587890625
 31
0.0
  0
LINE
  5
3B
100
AcDbEntity
  8
0
  6
CONTINUOUS
 62
               2
100
AcDbLine
 10
35.499984741210938
 20
6.199981689453125
 30
0.0
 11
40.499984741210937
 21
6.199981689453125
 31
0.0
  0
LINE
  5
3C
100
AcDbEntity
  8
0
  6
CONTINUOUS
 62
               4
100
AcDbLine
 10
33.0
 20
33.5
 30
0.0
 11
43.0
 21
33.5
 31
0.0
  0
LINE
  5
3D
100
AcDbEntity
  8
0
  6
CONTINUOUS
 62
               4
100
AcDbLine
 10
32.999984741210938
 20
9.4999847412109375
 30
0.0
 11
42.999984741210937
 21
9.4999847412109375
 31
0.0
  0
LINE
  5
3E
100
AcDbEntity
  8
0
  6
CONTINUOUS
 62
               7
100
AcDbLine
 10
36.073196411132813
 20
5.8999786376953125
 30
0.0
 11
39.926773071289063
 21
5.8999786376953125
 31
0.0
  0
LINE
  5
3F
100
AcDbEntity
  8
0
  6
CONTINUOUS
 62
               7
100
AcDbLine
 10
36.073196411132813
 20
6.4999847412109375
 30
0.0
 11
39.926773071289063
 21
6.4999847412109375
 31
0.0
  0
LINE
  5
40
100
AcDbEntity
  8
0
  6
CONTINUOUS
 62
               4
100
AcDbLine
 10
33.04998779296875
 20
33.499984741210938
 30
0.0
 11
33.04998779296875
 21
46.999984741210937
 31
0.0
  0
LINE
  5
41
100
AcDbEntity
  8
0
  6
CONTINUOUS
 62
               4
100
AcDbLine
 10
42.5
 20
42.5
 30
0.0
 11
33.5
 21
42.5
 31
0.0
  0
LINE
  5
42
100
AcDbEntity
  8
0
  6
CONTINUOUS
 62
             200
100
AcDbLine
 10
42.949981689453125
 20
38.0
 30
0.0
 11
33.04998779296875
 21
38.0
 31
0.0
  0
LINE
  5
43
100
AcDbEntity
  8
0
  6
CONTINUOUS
 62
               4
100
AcDbLine
 10
42.949981689453125
 20
33.499984741210938
 30
0.0
 11
42.949981689453125
 21
46.999984741210937
 31
0.0
  0
LINE
  5
44
100
AcDbEntity
  8
0
  6
CONTINUOUS
 62
               4
100
AcDbLine
 10
39.28497314453125
 20
53.499984741210938
 30
0.0
 11
39.28497314453125
 21
57.32666015625
 31
0.0
  0
LINE
  5
45
100
AcDbEntity
  8
0
  6
CONTINUOUS
 62
               4
100
AcDbLine
 10
40.714996337890625
 20
53.499984741210938
 30
0.0
 11
40.714996337890625
 21
57.7098388671875
 31
0.0
  0
LINE
  5
46
100
AcDbEntity
  8
0
  6
CONTINUOUS
 62
               4
100
AcDbLine
 10
39.5999755859375
 20
61.499984741210937
 30
0.0
 11
39.5999755859375
 21
66.499984741210938
 31
0.0
  0
LINE
  5
47
100
AcDbEntity
  8
0
  6
CONTINUOUS
 62
               4
100
AcDbLine
 10
40.399993896484375
 20
61.499984741210937
 30
0.0
 11
40.399993896484375
 21
66.499984741210938
 31
0.0
  0
LINE
  5
48
100
AcDbEntity
  8
0
  6
CONTINUOUS
 62
               4
100
AcDbLine
 10
39.5999755859375
 20
66.499984741210938
 30
0.0
 11
40.399978637695313
 21
66.499984741210938
 31
0.0
  0
LINE
  5
49
100
AcDbEntity
  8
0
  6
CONTINUOUS
 62
               4
100
AcDbLine
 10
39.28497314453125
 20
61.499984741210937
 30
0.0
 11
40.714981079101562
 21
61.499984741210937
 31
0.0
  0
LINE
  5
4A
100
AcDbEntity
  8
0
  6
CONTINUOUS
 62
               4
100
AcDbLine
 10
39.28497314453125
 20
58.3619384765625
 30
0.0
 11
39.28497314453125
 21
61.499984741210937
 31
0.0
  0
LINE
  5
4B
100
AcDbEntity
  8
0
  6
CONTINUOUS
 62
               4
100
AcDbLine
 10
40.714996337890625
 20
58.7451171875
 30
0.0
 11
40.714996337890625
 21
61.499984741210937
 31
0.0
  0
LINE
  5
4C
100
AcDbEntity
  8
0
  6
CONTINUOUS
 62
               4
100
AcDbLine
 10
33.04998779296875
 20
46.999984741210937
 30
0.0
 11
34.5
 21
46.999984741210937
 31
0.0
  0
LINE
  5
4D
100
AcDbEntity
  8
0
  6
CONTINUOUS
 62
               4
100
AcDbLine
 10
33.949981689453125
 20
42.499984741210937
 30
0.0
 11
33.949981689453125
 21
44.999984741210937
 31
0.0
  0
LINE
  5
4E
100
AcDbEntity
  8
0
  6
CONTINUOUS
 62
               4
100
AcDbLine
 10
42.04998779296875
 20
42.499984741210937
 30
0.0
 11
42.04998779296875
 21
44.999984741210937
 31
0.0
  0
LINE
  5
4F
100
AcDbEntity
  8
0
  6
CONTINUOUS
 62
               4
100
AcDbLine
 10
41.499984741210938
 20
42.998458862304687
 30
0.0
 11
41.499984741210938
 21
53.499984741210938
 31
0.0
  0
LINE
  5
50
100
AcDbEntity
  8
0
  6
CONTINUOUS
 62
               4
100
AcDbLine
 10
34.499984741210937
 20
42.998458862304687
 30
0.0
 11
34.499984741210937
 21
53.499984741210938
 31
0.0
  0
LINE
  5
51
100
AcDbEntity
  8
0
  6
CONTINUOUS
 62
               4
100
AcDbLine
 10
34.5
 20
42.998458862304687
 30
0.0
 11
41.5
 21
42.998458862304687
 31
0.0
  0
LINE
  5
52
100
AcDbEntity
  8
0
  6
CONTINUOUS
 62
               4
100
AcDbLine
 10
34.5
 20
46.556137084960938
 30
0.0
 11
41.5
 21
46.556137084960938
 31
0.0
  0
LINE
  5
53
100
AcDbEntity
  8
0
  6
CONTINUOUS
 62
               4
100
AcDbLine
 10
34.5
 20
51.999984741210937
 30
0.0
 11
41.5
 21
51.999984741210937
 31
0.0
  0
LINE
  5
54
100
AcDbEntity
  8
0
  6
CONTINUOUS
 62
               4
100
AcDbLine
 10
33.099990844726562
 20
53.499984741210938
 30
0.0
 11
42.899993896484375
 21
53.499984741210938
 31
0.0
  0
LINE
  5
55
100
AcDbEntity
  8
0
  6
CONTINUOUS
 62
               4
100
AcDbLine
 10
41.5
 20
46.999984741210937
 30
0.0
 11
42.949981689453125
 21
46.999984741210937
 31
0.0
  0
LINE
  5
56
100
AcDbEntity
  8
0
  6
CONTINUOUS
 62
               4
100
AcDbLine
 10
41.5
 20
45.999984741210938
 30
0.0
 11
42.04998779296875
 21
45.999984741210938
 31
0.0
  0
LINE
  5
57
100
AcDbEntity
  8
0
  6
CONTINUOUS
 62
               4
100
AcDbLine
 10
41.5
 20
44.999984741210937
 30
0.0
 11
42.04998779296875
 21
44.999984741210937
 31
0.0
  0
LINE
  5
58
100
AcDbEntity
  8
0
  6
CONTINUOUS
 62
               4
100
AcDbLine
 10
33.949981689453125
 20
45.999984741210938
 30
0.0
 11
34.5
 21
45.999984741210938
 31
0.0
  0
LINE
  5
59
100
AcDbEntity
  8
0
  6
CONTINUOUS
 62
               4
100
AcDbLine
 10
33.949981689453125
 20
44.999984741210937
 30
0.0
 11
34.5
 21
44.999984741210937
 31
0.0
  0
LINE
  5
5A
100
AcDbEntity
  8
0
  6
CONTINUOUS
 62
               4
100
AcDbLine
 10
33.949981689453125
 20
45.999984741210938
 30
0.0
 11
33.949981689453125
 21
46.999984741210937
 31
0.0
  0
LINE
  5
5B
100
AcDbEntity
  8
0
  6
CONTINUOUS
 62
               4
100
AcDbLine
 10
42.04998779296875
 20
45.999984741210938
 30
0.0
 11
42.04998779296875
 21
46.999984741210937
 31
0.0
  0
LINE
  5
5C
100
AcDbEntity
  8
0
  6
CONTINUOUS
 62
               4
100
AcDbLine
 10
36.714996337890625
 20
57.673324584960938
 30
0.0
 11
36.714996337890625
 21
61.499984741210937
 31
0.0
  0
LINE
  5
5D
100
AcDbEntity
  8
0
  6
CONTINUOUS
 62
               4
100
AcDbLine
 10
35.28497314453125
 20
57.290145874023438
 30
0.0
 11
35.28497314453125
 21
61.499984741210937
 31
0.0
  0
LINE
  5
5E
100
AcDbEntity
  8
0
  6
CONTINUOUS
 62
               4
100
AcDbLine
 10
35.28497314453125
 20
61.499984741210937
 30
0.0
 11
36.714981079101563
 21
61.499984741210937
 31
0.0
  0
LINE
  5
5F
100
AcDbEntity
  8
0
  6
CONTINUOUS
 62
               4
100
AcDbLine
 10
36.399993896484375
 20
61.499984741210937
 30
0.0
 11
36.399993896484375
 21
66.499984741210938
 31
0.0
  0
LINE
  5
60
100
AcDbEntity
  8
0
  6
CONTINUOUS
 62
               4
100
AcDbLine
 10
35.5999755859375
 20
61.499984741210937
 30
0.0
 11
35.5999755859375
 21
66.499984741210938
 31
0.0
  0
LINE
  5
61
100
AcDbEntity
  8
0
  6
CONTINUOUS
 62
               4
100
AcDbLine
 10
35.5999755859375
 20
66.499984741210938
 30
0.0
 11
36.399978637695313
 21
66.499984741210938
 31
0.0
  0
LINE
  5
62
100
AcDbEntity
  8
0
  6
CONTINUOUS
 62
               4
100
AcDbLine
 10
36.714996337890625
 20
53.499984741210938
 30
0.0
 11
36.714996337890625
 21
56.638046264648438
 31
0.0
  0
LINE
  5
63
100
AcDbEntity
  8
0
  6
CONTINUOUS
 62
               4
100
AcDbLine
 10
35.28497314453125
 20
53.499984741210938
 30
0.0
 11
35.28497314453125
 21
56.254867553710937
 31
0.0
  0
LINE
  5
64
100
AcDbEntity
  8
0
  6
CONTINUOUS
 62
               4
100
AcDbLine
 10
42.899993896484375
 20
46.999984741210937
 30
0.0
 11
42.899993896484375
 21
53.499984741210938
 31
0.0
  0
LINE
  5
65
100
AcDbEntity
  8
0
  6
CONTINUOUS
 62
               4
100
AcDbLine
 10
33.099990844726562
 20
46.999984741210937
 30
0.0
 11
33.099990844726562
 21
53.499984741210938
 31
0.0
  0
LINE
  5
66
100
AcDbEntity
  8
0
  6
CONTINUOUS
 62
               4
100
AcDbLine
 10
33.999984741210937
 20
46.999984741210937
 30
0.0
 11
33.999984741210937
 21
53.499984741210938
 31
0.0
  0
LINE
  5
67
100
AcDbEntity
  8
0
  6
CONTINUOUS
 62
               4
100
AcDbLine
 10
41.999984741210938
 20
46.999984741210937
 30
0.0
 11
41.999984741210938
 21
53.499984741210938
 31
0.0
  0
LINE
  5
68
100
AcDbEntity
  8
0
  6
CONTINUOUS
 62
               7
100
AcDbLine
 10
28.999984741210938
 20
-4.0000152587890625
 30
0.0
 11
46.999984741210937
 21
-4.0000152587890625
 31
0.0
  0
LINE
  5
69
100
AcDbEntity
  8
0
  6
CONTINUOUS
 62
               7
100
AcDbLine
 10
46.999984741210937
 20
-89.500015258789063
 30
0.0
 11
46.999984741210937
 21
-66.800003051757813
 31
0.0
  0
LINE
  5
6A
100
AcDbEntity
  8
0
  6
CONTINUOUS
 62
               4
100
AcDbLine
 10
30.439342899587473
 20
-61.56066010125943
 30
0.0
 11
32.560663385656198
 21
-59.439339794004638
 31
0.0
  0
LINE
  5
6B
100
AcDbEntity
  8
0
  6
CONTINUOUS
 62
               4
100
AcDbLine
 10
30.439353778589293
 20
-59.439307335817659
 30
0.0
 11
32.560674085844084
 21
-61.560627821886385
 31
0.0
  0
LINE
  5
6C
100
AcDbEntity
  8
0
  6
CONTINUOUS
 62
               4
100
AcDbLine
 10
43.439338029196165
 20
-21.560683260322094
 30
0.0
 11
45.56065851526489
 21
-19.439362953067302
 31
0.0
  0
LINE
  5
6D
100
AcDbEntity
  8
0
  6
CONTINUOUS
 62
               4
100
AcDbLine
 10
43.439347559497946
 20
-19.439350725368058
 30
0.0
 11
45.560667866752738
 21
-21.560671211436784
 31
0.0
  0
LINE
  5
6E
100
AcDbEntity
  8
0
  6
CONTINUOUS
 62
               2
100
AcDbLine
 10
35.383316040039063
 20
-75.0
 30
0.0
 11
40.616653442382813
 21
-75.0
 31
0.0
  0
LINE
  5
6F
100
AcDbEntity
  8
0
  6
CONTINUOUS
 62
               7
100
AcDbLine
 10
36.073196411132813
 20
-75.300003051757813
 30
0.0
 11
39.926773071289063
 21
-75.300003051757813
 31
0.0
  0
LINE
  5
70
100
AcDbEntity
  8
0
  6
CONTINUOUS
 62
               7
100
AcDbLine
 10
36.073196411132813
 20
-74.70001220703125
 30
0.0
 11
39.926773071289063
 21
-74.70001220703125
 31
0.0
  0
LINE
  5
71
100
AcDbEntity
  8
0
  6
CONTINUOUS
 62
               7
100
AcDbLine
 10
28.999984741210938
 20
-76.0
 30
0.0
 11
31.999984741210937
 21
-76.0
 31
0.0
  0
LINE
  5
72
100
AcDbEntity
  8
0
  6
CONTINUOUS
 62
               7
100
AcDbLine
 10
28.999984741210938
 20
-70.0
 30
0.0
 11
31.999984741210937
 21
-70.0
 31
0.0
  0
LINE
  5
73
100
AcDbEntity
  8
0
  6
CONTINUOUS
 62
               7
100
AcDbLine
 10
31.499984741210938
 20
-79.0
 30
0.0
 11
31.499984741210938
 21
-76.0
 31
0.0
  0
LINE
  5
74
100
AcDbEntity
  8
0
  6
CONTINUOUS
 62
               7
100
AcDbLine
 10
44.499984741210937
 20
-79.000015258789063
 30
0.0
 11
44.499984741210937
 21
-76.000015258789063
 31
0.0
  0
LINE
  5
75
100
AcDbEntity
  8
0
  6
CONTINUOUS
 62
               7
100
AcDbLine
 10
43.999984741210938
 20
-76.0
 30
0.0
 11
46.999984741210937
 21
-76.0
 31
0.0
  0
LINE
  5
76
100
AcDbEntity
  8
0
  6
CONTINUOUS
 62
               7
100
AcDbLine
 10
43.999984741210938
 20
-70.0
 30
0.0
 11
46.999984741210937
 21
-70.0
 31
0.0
  0
LINE
  5
77
100
AcDbEntity
  8
0
  6
CONTINUOUS
 62
               7
100
AcDbLine
 10
44.499984741210937
 20
-70.000015258789063
 30
0.0
 11
44.499984741210937
 21
-67.000015258789062
 31
0.0
  0
LINE
  5
78
100
AcDbEntity
  8
0
  6
CONTINUOUS
 62
               7
100
AcDbLine
 10
31.499984741210938
 20
-70.0
 30
0.0
 11
31.499984741210938
 21
-67.0
 31
0.0
  0
LINE
  5
79
100
AcDbEntity
  8
0
  6
CONTINUOUS
 62
               7
100
AcDbLine
 10
40.499984741210937
 20
6.1999969482421875
 30
0.0
 11
41.499984741210938
 21
6.1999969482421875
 31
0.0
  0
LINE
  5
7A
100
AcDbEntity
  8
0
  6
CONTINUOUS
 62
               7
100
AcDbLine
 10
37.999984741210937
 20
2.6999969482421875
 30
0.0
 11
37.999984741210937
 21
3.6999969482421875
 31
0.0
  0
LINE
  5
7B
100
AcDbEntity
  8
0
  6
CONTINUOUS
 62
               7
100
AcDbLine
 10
37.999979163275157
 20
3.1999875316494126
 30
0.0
 11
38.999978452679784
 21
2.9320385890831631
 31
0.0
  0
LINE
  5
7C
100
AcDbEntity
  8
0
  6
CONTINUOUS
 62
               7
100
AcDbLine
 10
30.999985694885254
 20
-1.5000152587890625
 30
0.0
 11
44.999984741210937
 21
-1.5000152587890625
 31
0.0
  0
LINE
  5
7D
100
AcDbEntity
  8
0
  6
CONTINUOUS
 62
               7
100
AcDbLine
 10
46.99993644733695
 20
-4.0000093503613243
 30
0.0
 11
44.999991667223185
 21
-1.5000153550545292
 31
0.0
  0
LINE
  5
7E
100
AcDbEntity
  8
0
  6
CONTINUOUS
 62
               7
100
AcDbLine
 10
29.000043091166845
 20
-4.0000278374209302
 30
0.0
 11
30.999996639918209
 21
-1.5000215452309931
 31
0.0
  0
LINE
  5
7F
100
AcDbEntity
  8
0
  6
CONTINUOUS
 62
               4
100
AcDbLine
 10
32.999984741210938
 20
9.3999786376953125
 30
0.0
 11
32.999984741210938
 21
33.499984741210938
 31
0.0
  0
LINE
  5
80
100
AcDbEntity
  8
0
  6
CONTINUOUS
 62
               4
100
AcDbLine
 10
42.999984741210937
 20
9.4999847412109375
 30
0.0
 11
42.999984741210937
 21
33.499984741210938
 31
0.0
  0
LINE
  5
81
100
AcDbEntity
  8
0
  6
CONTINUOUS
 62
               7
100
AcDbLine
 10
46.999984741210937
 20
-14.200027465820313
 30
0.0
 11
46.999984741210937
 21
-4.0000152587890625
 31
0.0
  0
LINE
  5
82
100
AcDbEntity
  8
0
  6
CONTINUOUS
 62
               7
100
AcDbLine
 10
28.999984741210938
 20
-14.200027465820313
 30
0.0
 11
28.999984741210938
 21
-4.0000152587890625
 31
0.0
  0
LINE
  5
83
100
AcDbEntity
  8
0
  6
CONTINUOUS
 62
               7
100
AcDbLine
 10
28.999984741210938
 20
-89.5
 30
0.0
 11
28.999984741210938
 21
-66.800003051757813
 31
0.0
  0
LINE
  5
84
100
AcDbEntity
  8
0
  6
CONTINUOUS
 62
               7
100
AcDbLine
 10
35.499979019165039
 20
-75.0
 30
0.0
 11
34.499979019165039
 21
-75.0
 31
0.0
  0
LINE
  5
85
100
AcDbEntity
  8
0
  6
CONTINUOUS
 62
               7
100
AcDbLine
 10
37.999988419010151
 20
-71.999997069634446
 30
0.0
 11
36.999986366069606
 21
-71.732047201458954
 31
0.0
  0
LINE
  5
86
100
AcDbEntity
  8
0
  6
CONTINUOUS
 62
               7
100
AcDbLine
 10
37.999985694885254
 20
-71.5
 30
0.0
 11
37.999985694885254
 21
-72.5
 31
0.0
  0
ARC
  5
87
100
AcDbEntity
  8
0
  6
CONTINUOUS
 62
               4
100
AcDbCircle
 10
44.499984741210937
 20
-20.5
 30
0.0
 40
3.0
100
AcDbArc
 50
89.999982013910454
 51
269.99994604173139
  0
ARC
  5
88
100
AcDbEntity
  8
0
  6
CONTINUOUS
 62
               7
100
AcDbCircle
 10
46.499984741210937
 20
-89.5
 30
0.0
 40
0.5
100
AcDbArc
 50
270.00001798608872
 51
0.00001366037834
  0
ARC
  5
89
100
AcDbEntity
  8
0
  6
CONTINUOUS
 62
               7
100
AcDbCircle
 10
29.499984741210938
 20
-89.5
 30
0.0
 40
0.5
100
AcDbArc
 50
180.0000359721783
 51
269.99996334457541
  0
CIRCLE
  5
8A
100
AcDbEntity
  8
0
  6
CONTINUOUS
 62
               7
100
AcDbCircle
 10
37.999984741210937
 20
6.1999969482421875
 30
0.0
 40
2.0
  0
CIRCLE
  5
8B
100
AcDbEntity
  8
0
  6
CONTINUOUS
 62
               7
100
AcDbCircle
 10
37.999984741210937
 20
6.1999969482421875
 30
0.0
 40
1.9499998092651367
  0
ARC
  5
8C
100
AcDbEntity
  8
0
  6
CONTINUOUS
 62
               4
100
AcDbCircle
 10
42.449981689453125
 20
42.0
 30
0.0
 40
0.5
100
AcDbArc
 50
359.99994535848583
 51
89.999982013910454
  0
ARC
  5
8D
100
AcDbEntity
  8
0
  6
CONTINUOUS
 62
               4
100
AcDbCircle
 10
33.54998779296875
 20
42.0
 30
0.0
 40
0.5
100
AcDbArc
 50
89.999982013910454
 51
179.99996402782091
  0
CIRCLE
  5
8E
100
AcDbEntity
  8
0
  6
CONTINUOUS
 62
               4
100
AcDbCircle
 10
31.5
 20
-60.499984741210937
 30
0.0
 40
2.7999992370605469
  0
CIRCLE
  5
8F
100
AcDbEntity
  8
0
  6
CONTINUOUS
 62
               4
100
AcDbCircle
 10
44.499984741210937
 20
-20.500015258789063
 30
0.0
 40
2.7999992370605469
  0
CIRCLE
  5
90
100
AcDbEntity
  8
0
  6
CONTINUOUS
 62
               7
100
AcDbCircle
 10
37.999984741210937
 20
-75.0
 30
0.0
 40
2.0
  0
CIRCLE
  5
91
100
AcDbEntity
  8
0
  6
CONTINUOUS
 62
               7
100
AcDbCircle
 10
37.999984741210937
 20
-75.0
 30
0.0
 40
1.9499998092651367
  0
ARC
  5
92
100
AcDbEntity
  8
0
  6
CONTINUOUS
 62
               7
100
AcDbCircle
 10
38.099985122680664
 20
6.1999969482421875
 30
0.0
 40
3.0
100
AcDbArc
 50
268.089805320533
 51
0.0
  0
ARC
  5
93
100
AcDbEntity
  8
0
  6
CONTINUOUS
 62
               7
100
AcDbCircle
 10
37.999984741210937
 20
6.1999969482421875
 30
0.0
 40
3.0
100
AcDbArc
 50
266.17746163595609
 51
3.822566595416411
  0
ARC
  5
94
100
AcDbEntity
  8
0
  6
CONTINUOUS
 62
               7
100
AcDbCircle
 10
37.899984359741211
 20
6.1999969482421875
 30
0.0
 40
3.0
100
AcDbArc
 50
271.91023065164455
 51
0.0
  0
ARC
  5
95
100
AcDbEntity
  8
0
  6
CONTINUOUS
 62
               7
100
AcDbCircle
 10
44.000030517578125
 20
-0.9999542236328125
 30
0.0
 40
2.5000734329223633
100
AcDbArc
 50
191.53802865027069
 51
319.45890333229545
  0
CIRCLE
  5
96
100
AcDbEntity
  8
0
  6
CONTINUOUS
 62
               4
100
AcDbCircle
 10
44.499984741210937
 20
-20.500015258789063
 30
0.0
 40
2.9499998092651367
  0
CIRCLE
  5
97
100
AcDbEntity
  8
0
  6
CONTINUOUS
 62
               4
100
AcDbCircle
 10
31.5
 20
-60.499984741210937
 30
0.0
 40
2.9499998092651367
  0
ARC
  5
98
100
AcDbEntity
  8
0
  6
CONTINUOUS
 62
               7
100
AcDbCircle
 10
37.899978637695312
 20
-75.0
 30
0.0
 40
3.0
100
AcDbArc
 50
88.08976934835465
 51
179.99996402782091
  0
ARC
  5
99
100
AcDbEntity
  8
0
  6
CONTINUOUS
 62
               7
100
AcDbCircle
 10
37.999979019165039
 20
-75.0
 30
0.0
 40
3.0
100
AcDbArc
 50
86.177425663777811
 51
183.82257501946691
  0
ARC
  5
9A
100
AcDbEntity
  8
0
  6
CONTINUOUS
 62
               7
100
AcDbCircle
 10
38.099978446960449
 20
-75.0
 30
0.0
 40
3.0
100
AcDbArc
 50
91.910194679466258
 51
179.99996402782091
  0
LINE
  5
9B
100
AcDbEntity
  8
0
  6
CONTINUOUS
 62
             200
100
AcDbLine
 10
33.999989125652064
 20
55.910554385063733
 30
0.0
 11
41.999990810318195
 21
58.054148393884134
 31
0.0
  0
LINE
  5
9C
100
AcDbEntity
  8
0
  6
CONTINUOUS
 62
             200
100
AcDbLine
 10
33.999984432470228
 20
56.945829294560099
 30
0.0
 11
41.999986117136359
 21
59.089423303380499
 31
0.0
  0
LINE
  5
9D
100
AcDbEntity
  8
0
  6
CONTINUOUS
 62
               4
100
AcDbLine
 10
33.351819213571133
 20
-58.139772665036446
 30
0.0
 11
34.278824210166931
 21
-58.139772665036446
 31
0.0
  0
LINE
  5
9E
100
AcDbEntity
  8
0
  6
CONTINUOUS
 62
               4
100
AcDbLine
 10
41.721145268730766
 20
-22.860280740725273
 30
0.0
 11
42.648198889680273
 21
-22.860280740725273
 31
0.0
  0
LINE
  5
9F
100
AcDbEntity
  8
0
  6
CONTINUOUS
 62
               4
100
AcDbLine
 10
41.72114527225493
 20
-58.139772665036446
 30
0.0
 11
46.999984741210923
 21
-58.139772665036446
 31
0.0
  0
LINE
  5
A0
100
AcDbEntity
  8
0
  6
CONTINUOUS
 62
               4
100
AcDbLine
 10
28.999984741210938
 20
-22.860280740725273
 30
0.0
 11
34.278824213691081
 21
-22.860280740725273
 31
0.0
  0
LINE
  5
A1
100
AcDbEntity
  8
0
  6
CONTINUOUS
 62
               4
100
AcDbLine
 10
45.899984741210929
 20
-50.800026702880857
 30
0.0
 11
45.899984741210929
 21
-49.200026708841321
 31
0.0
  0
LINE
  5
A2
100
AcDbEntity
  8
0
  6
CONTINUOUS
 62
               4
100
AcDbLine
 10
45.899984741210929
 20
-49.200026702880855
 30
0.0
 11
46.334026496901402
 21
-48.949432578393427
 31
0.0
  0
LINE
  5
A3
100
AcDbEntity
  8
0
  6
CONTINUOUS
 62
               4
100
AcDbLine
 10
45.899984741210929
 20
-50.800026702880857
 30
0.0
 11
46.334026496901402
 21
-51.050620827368292
 31
0.0
  0
LINE
  5
A4
100
AcDbEntity
  8
0
  6
CONTINUOUS
 62
               4
100
AcDbLine
 10
30.099984741210932
 20
-50.800026702880857
 30
0.0
 11
30.099984741210932
 21
-49.200026708841321
 31
0.0
  0
LINE
  5
A5
100
AcDbEntity
  8
0
  6
CONTINUOUS
 62
               4
100
AcDbLine
 10
30.099984741210932
 20
-49.200026702880855
 30
0.0
 11
29.665942985520445
 21
-48.949432578393427
 31
0.0
  0
LINE
  5
A6
100
AcDbEntity
  8
0
  6
CONTINUOUS
 62
               4
100
AcDbLine
 10
30.099984741210932
 20
-50.800026702880857
 30
0.0
 11
29.665942985520445
 21
-51.050620827368292
 31
0.0
  0
LINE
  5
A7
100
AcDbEntity
  8
0
  6
CONTINUOUS
 62
               4
100
AcDbLine
 10
30.099984741210932
 20
-31.800026702880857
 30
0.0
 11
30.099984741210932
 21
-30.200026708841321
 31
0.0
  0
LINE
  5
A8
100
AcDbEntity
  8
0
  6
CONTINUOUS
 62
               4
100
AcDbLine
 10
30.099984741210932
 20
-31.800026702880857
 30
0.0
 11
29.665942985520445
 21
-32.050620827368292
 31
0.0
  0
LINE
  5
A9
100
AcDbEntity
  8
0
  6
CONTINUOUS
 62
               4
100
AcDbLine
 10
30.099984741210932
 20
-30.200026702880862
 30
0.0
 11
29.665942985520445
 21
-29.949432578393427
 31
0.0
  0
LINE
  5
AA
100
AcDbEntity
  8
0
  6
CONTINUOUS
 62
               4
100
AcDbLine
 10
45.899984741210929
 20
-31.800026702880857
 30
0.0
 11
45.899984741210929
 21
-30.200026708841321
 31
0.0
  0
LINE
  5
AB
100
AcDbEntity
  8
0
  6
CONTINUOUS
 62
               4
100
AcDbLine
 10
45.899984741210929
 20
-30.200026702880862
 30
0.0
 11
46.334026496901402
 21
-29.949432578393427
 31
0.0
  0
LINE
  5
AC
100
AcDbEntity
  8
0
  6
CONTINUOUS
 62
               4
100
AcDbLine
 10
45.899984741210929
 20
-31.800026702880857
 30
0.0
 11
46.334026496901402
 21
-32.050620827368292
 31
0.0
  0
ARC
  5
AD
100
AcDbEntity
  8
0
  6
CONTINUOUS
 62
               4
100
AcDbCircle
 10
39.04998474121092
 20
-40.809814518170427
 30
0.0
 40
0.3
100
AcDbArc
 50
179.99999999999963
 51
263.48210579102226
  0
ARC
  5
AE
100
AcDbEntity
  8
0
  6
CONTINUOUS
 62
               4
100
AcDbCircle
 10
39.04998474121092
 20
-40.190238887591278
 30
0.0
 40
0.3
100
AcDbArc
 50
96.517894208978376
 51
179.99999999999963
  0
ARC
  5
AF
100
AcDbEntity
  8
0
  6
CONTINUOUS
 62
               4
100
AcDbCircle
 10
36.949984741210926
 20
-40.809814518170427
 30
0.0
 40
0.3
100
AcDbArc
 50
276.5178942089774
 51
0.0
  0
ARC
  5
B0
100
AcDbEntity
  8
0
  6
CONTINUOUS
 62
               4
100
AcDbCircle
 10
36.949984741210926
 20
-40.190238887591278
 30
0.0
 40
0.3
100
AcDbArc
 50
0.0
 51
83.482105791022562
  0
LINE
  5
B1
100
AcDbEntity
  8
0
  6
CONTINUOUS
 62
               4
100
AcDbLine
 10
37.249984741210923
 20
-40.809814518170427
 30
0.0
 11
37.249984741210923
 21
-40.190238887591278
 31
0.0
  0
LINE
  5
B2
100
AcDbEntity
  8
0
  6
CONTINUOUS
 62
               4
100
AcDbLine
 10
38.749984741210923
 20
-40.809814518170427
 30
0.0
 11
38.749984741210923
 21
-40.190238887591278
 31
0.0
  0
ARC
  5
B3
100
AcDbEntity
  8
0
  6
CONTINUOUS
 62
               4
100
AcDbCircle
 10
37.999984741210923
 20
-50.000026702880859
 30
0.0
 40
8.4000000000000004
100
AcDbArc
 50
187.18484031495382
 51
352.81515968504499
  0
CIRCLE
  5
B4
100
AcDbEntity
  8
0
  6
CONTINUOUS
 62
               4
100
AcDbCircle
 10
37.999984741210923
 20
-50.000026702880859
 30
0.0
 40
4.0499999999999998
  0
CIRCLE
  5
B5
100
AcDbEntity
  8
0
  6
CONTINUOUS
 62
               4
100
AcDbCircle
 10
37.999984741210923
 20
-50.000026702880859
 30
0.0
 40
5.0499999999999998
  0
ARC
  5
B6
100
AcDbEntity
  8
0
  6
CONTINUOUS
 62
               4
100
AcDbCircle
 10
37.999984741210923
 20
-50.000026702880859
 30
0.0
 40
8.4000000000000004
100
AcDbArc
 50
7.1848403149542479
 51
172.81515968504539
  0
CIRCLE
  5
B7
100
AcDbEntity
  8
0
  6
CONTINUOUS
 62
               4
100
AcDbCircle
 10
37.999984741210923
 20
-50.000026702880859
 30
0.0
 40
8.9499999999999993
  0
CIRCLE
  5
B8
100
AcDbEntity
  8
0
  6
CONTINUOUS
 62
               4
100
AcDbCircle
 10
37.999984741210923
 20
-31.000026702880859
 30
0.0
 40
4.0499999999999998
  0
CIRCLE
  5
B9
100
AcDbEntity
  8
0
  6
CONTINUOUS
 62
               4
100
AcDbCircle
 10
37.999984741210923
 20
-31.000026702880859
 30
0.0
 40
5.0499999999999998
  0
ARC
  5
BA
100
AcDbEntity
  8
0
  6
CONTINUOUS
 62
               4
100
AcDbCircle
 10
37.999984741210923
 20
-31.000026702880859
 30
0.0
 40
8.4000000000000004
100
AcDbArc
 50
187.18484031495382
 51
352.81515968504499
  0
ARC
  5
BB
100
AcDbEntity
  8
0
  6
CONTINUOUS
 62
               4
100
AcDbCircle
 10
37.999984741210923
 20
-31.000026702880859
 30
0.0
 40
8.4000000000000004
100
AcDbArc
 50
7.1848403149542479
 51
172.81515968504539
  0
CIRCLE
  5
BC
100
AcDbEntity
  8
0
  6
CONTINUOUS
 62
               4
100
AcDbCircle
 10
37.999984741210923
 20
-31.000026702880859
 30
0.0
 40
8.9499999999999993
  0
ARC
  5
BD
100
AcDbEntity
  8
0
  6
CONTINUOUS
 62
               4
100
AcDbCircle
 10
31.499981570299497
 20
-60.500026702880859
 30
0.0
 40
3.0
100
AcDbArc
 50
270.00001798608872
 51
89.999982013910454
  0
CIRCLE
  5
BE
100
AcDbEntity
  8
0
  6
CONTINUOUS
 62
               4
100
AcDbCircle
 10
31.499984741210938
 20
-18.500026702880859
 30
0.0
 40
2.75
  0
CIRCLE
  5
BF
100
AcDbEntity
  8
0
  6
CONTINUOUS
 62
               4
100
AcDbCircle
 10
44.499981880187988
 20
-62.500026702880859
 30
0.0
 40
2.75
  0
ARC
  5
C0
100
AcDbEntity
  8
0
  6
CONTINUOUS
 62
               4
100
AcDbCircle
 10
31.499984741210938
 20
-18.500026702880859
 30
0.0
 40
3.0
100
AcDbArc
 50
270.00001798608872
 51
0.00001366037834
  0
ARC
  5
C1
100
AcDbEntity
  8
0
  6
CONTINUOUS
 62
               4
100
AcDbCircle
 10
44.499981880187988
 20
-62.500026702880859
 30
0.0
 40
3.0
100
AcDbArc
 50
89.999982013910454
 51
179.99996402782091
  0
LINE
  5
C2
100
AcDbEntity
  8
0
  6
CONTINUOUS
 62
               7
100
AcDbLine
 10
46.999984741210937
 20
-17.500027894973755
 30
0.0
 11
46.999984741210937
 21
-14.200028419494629
 31
0.0
  0
LINE
  5
C3
100
AcDbEntity
  8
0
  6
CONTINUOUS
 62
               4
100
AcDbLine
 10
28.999984741210938
 20
-57.500026702880859
 30
0.0
 11
28.999984741210938
 21
-19.645669937133789
 31
0.0
  0
LINE
  5
C4
100
AcDbEntity
  8
0
  6
CONTINUOUS
 62
               4
100
AcDbLine
 10
44.499984741210937
 20
-17.500026702880859
 30
0.0
 11
46.999984741210937
 21
-17.500026702880859
 31
0.0
  0
LINE
  5
C5
100
AcDbEntity
  8
0
  6
CONTINUOUS
 62
               4
100
AcDbLine
 10
44.499984741210937
 20
-23.500026702880859
 30
0.0
 11
46.999984741210937
 21
-23.500026702880859
 31
0.0
  0
LINE
  5
C6
100
AcDbEntity
  8
0
  6
CONTINUOUS
 62
               4
100
AcDbLine
 10
28.999981880187988
 20
-57.500026702880859
 30
0.0
 11
31.499981796792781
 21
-57.500026702880859
 31
0.0
  0
LINE
  5
C7
100
AcDbEntity
  8
0
  6
CONTINUOUS
 62
               4
100
AcDbLine
 10
28.999981880187988
 20
-63.500026702880859
 30
0.0
 11
31.499981343805302
 21
-63.500026702880859
 31
0.0
  0
LINE
  5
C8
100
AcDbEntity
  8
0
  6
CONTINUOUS
 62
               4
100
AcDbLine
 10
28.999984741210938
 20
-17.354382514953613
 30
0.0
 11
28.999984741210938
 21
-14.200027465820313
 31
0.0
  0
LINE
  5
C9
100
AcDbEntity
  8
0
  6
CONTINUOUS
 62
               7
100
AcDbLine
 10
46.999984741210937
 20
-61.354381561279297
 30
0.0
 11
46.999984741210937
 21
-23.500027656555176
 31
0.0
  0
LINE
  5
CA
100
AcDbEntity
  8
0
  6
CONTINUOUS
 62
               4
100
AcDbLine
 10
43.439326202695156
 20
-63.560682020851345
 30
0.0
 11
45.560646688763882
 21
-61.439361713596554
 31
0.0
  0
LINE
  5
CB
100
AcDbEntity
  8
0
  6
CONTINUOUS
 62
               4
100
AcDbLine
 10
30.439324699325823
 20
-19.560687057657518
 30
0.0
 11
32.560645185394549
 21
-17.439366750402726
 31
0.0
  0
LINE
  5
CC
100
AcDbEntity
  8
0
  6
CONTINUOUS
 62
               4
100
AcDbLine
 10
32.560642918000717
 20
-19.560688922752362
 30
0.0
 11
30.43932278955986
 21
-17.439368257869702
 31
0.0
  0
LINE
  5
CD
100
AcDbEntity
  8
0
  6
CONTINUOUS
 62
               4
100
AcDbLine
 10
45.560642801027825
 20
-63.560683295483614
 30
0.0
 11
43.439322672586968
 21
-61.439362630600954
 31
0.0
  0
LINE
  5
CE
100
AcDbEntity
  8
0
  6
CONTINUOUS
 62
               4
100
AcDbLine
 10
28.999984741210938
 20
-21.500026702880859
 30
0.0
 11
31.499984514717255
 21
-21.500026702880859
 31
0.0
  0
LINE
  5
CF
100
AcDbEntity
  8
0
  6
CONTINUOUS
 62
               4
100
AcDbLine
 10
34.499984741210937
 20
-18.500026929374542
 30
0.0
 11
34.499984741210937
 21
-14.200027465820313
 31
0.0
  0
LINE
  5
D0
100
AcDbEntity
  8
0
  6
CONTINUOUS
 62
               4
100
AcDbLine
 10
41.499984741210938
 20
-66.800014495849609
 30
0.0
 11
41.499984741210938
 21
-62.500026702880859
 31
0.0
  0
LINE
  5
D1
100
AcDbEntity
  8
0
  6
CONTINUOUS
 62
               4
100
AcDbLine
 10
44.499981880187988
 20
-59.500026702880859
 30
0.0
 11
46.999981880187988
 21
-59.500026702880859
 31
0.0
  0
LINE
  5
D2
100
AcDbEntity
  8
0
  6
CONTINUOUS
 62
               7
100
AcDbLine
 10
28.999981880187988
 20
-66.800014495849609
 30
0.0
 11
46.999980926513672
 21
-66.800014495849609
 31
0.0
  0
LINE
  5
D3
100
AcDbEntity
  8
0
  6
CONTINUOUS
 62
               4
100
AcDbLine
 10
28.999985694885254
 20
-14.200027465820313
 30
0.0
 11
46.999984741210937
 21
-14.200027465820313
 31
0.0
  0
LINE
  5
D4
100
AcDbEntity
  8
0
  6
CONTINUOUS
 62
               7
100
AcDbLine
 10
28.999984741210938
 20
-66.800014495849609
 30
0.0
 11
28.999984741210938
 21
-63.500026702880859
 31
0.0
  0
LINE
  5
D5
100
AcDbEntity
  8
0
  6
CONTINUOUS
 62
               7
100
AcDbLine
 10
46.999984741210937
 20
-66.800014495849609
 30
0.0
 11
46.999984741210937
 21
-63.645671844482422
 31
0.0
  0
LINE
  5
D6
100
AcDbEntity
  8
0
  6
CONTINUOUS
 62
               7
100
AcDbLine
 10
62.0
 20
5.5
 30
0.0
 11
66.5
 21
5.5
 31
0.0
  0
LINE
  5
D7
100
AcDbEntity
  8
0
  6
CONTINUOUS
 62
               7
100
AcDbLine
 10
47.5
 20
-79.500015258789063
 30
0.0
 11
48.0
 21
-79.500015258789063
 31
0.0
  0
LINE
  5
D8
100
AcDbEntity
  8
0
  6
CONTINUOUS
 62
               7
100
AcDbLine
 10
66.0
 20
-79.500015258789063
 30
0.0
 11
66.5
 21
-79.500015258789063
 31
0.0
  0
LINE
  5
D9
100
AcDbEntity
  8
0
  6
CONTINUOUS
 62
               7
100
AcDbLine
 10
47.5
 20
5.5
 30
0.0
 11
52.0
 21
5.5
 31
0.0
  0
LINE
  5
DA
100
AcDbEntity
  8
0
  6
CONTINUOUS
 62
               7
100
AcDbLine
 10
66.5
 20
-79.500015258789063
 30
0.0
 11
66.5
 21
5.5
 31
0.0
  0
LINE
  5
DB
100
AcDbEntity
  8
0
  6
CONTINUOUS
 62
               7
100
AcDbLine
 10
47.75
 20
-83.000015258789063
 30
0.0
 11
47.75
 21
-82.500015258789063
 31
0.0
  0
LINE
  5
DC
100
AcDbEntity
  8
0
  6
CONTINUOUS
 62
               7
100
AcDbLine
 10
47.75
 20
-82.500015258789063
 30
0.0
 11
48.0
 21
-82.500015258789063
 31
0.0
  0
ARC
  5
DD
100
AcDbEntity
  8
0
  6
CONTINUOUS
 62
               7
100
AcDbCircle
 10
49.25
 20
-83.000015258789063
 30
0.0
 40
1.5
100
AcDbArc
 50
179.99998133066492
 51
213.55730177958446
  0
LINE
  5
DE
100
AcDbEntity
  8
0
  6
CONTINUOUS
 62
               2
100
AcDbLine
 10
56.999984741210937
 20
-93.302886962890625
 30
0.0
 11
56.999984741210937
 21
55.255050659179687
 31
0.0
  0
LINE
  5
DF
100
AcDbEntity
  8
0
  6
CONTINUOUS
 62
               7
100
AcDbLine
 10
47.999984741210938
 20
-14.000015258789063
 30
0.0
 11
65.999984741210938
 21
-14.000015258789063
 31
0.0
  0
LINE
  5
E0
100
AcDbEntity
  8
0
  6
CONTINUOUS
 62
               7
100
AcDbLine
 10
47.999984741210938
 20
-67.0
 30
0.0
 11
65.999984741210938
 21
-67.0
 31
0.0
  0
LINE
  5
E1
100
AcDbEntity
  8
0
  6
CONTINUOUS
 62
               7
100
AcDbLine
 10
47.999984741210938
 20
-79.0
 30
0.0
 11
65.999984741210938
 21
-79.0
 31
0.0
  0
LINE
  5
E2
100
AcDbEntity
  8
0
  6
CONTINUOUS
 62
               4
100
AcDbLine
 10
47.999984741210938
 20
-66.800003051757813
 30
0.0
 11
65.999984741210938
 21
-66.800003051757813
 31
0.0
  0
LINE
  5
E3
100
AcDbEntity
  8
0
  6
CONTINUOUS
 62
               7
100
AcDbLine
 10
48.499984741210937
 20
-90.0
 30
0.0
 11
65.499984741210937
 21
-90.0
 31
0.0
  0
LINE
  5
E4
100
AcDbEntity
  8
0
  6
CONTINUOUS
 62
               7
100
AcDbLine
 10
51.999984741210937
 20
-0.0000152587890625
 30
0.0
 11
61.999984741210938
 21
-0.0000152587890625
 31
0.0
  0
LINE
  5
E5
100
AcDbEntity
  8
0
  6
CONTINUOUS
 62
               2
100
AcDbLine
 10
54.499984741210938
 20
6.199981689453125
 30
0.0
 11
59.499984741210938
 21
6.199981689453125
 31
0.0
  0
LINE
  5
E6
100
AcDbEntity
  8
0
  6
CONTINUOUS
 62
               4
100
AcDbLine
 10
52.0
 20
33.5
 30
0.0
 11
62.0
 21
33.5
 31
0.0
  0
LINE
  5
E7
100
AcDbEntity
  8
0
  6
CONTINUOUS
 62
               4
100
AcDbLine
 10
51.999984741210937
 20
9.4999847412109375
 30
0.0
 11
61.999984741210938
 21
9.4999847412109375
 31
0.0
  0
LINE
  5
E8
100
AcDbEntity
  8
0
  6
CONTINUOUS
 62
               7
100
AcDbLine
 10
55.073196411132812
 20
5.8999786376953125
 30
0.0
 11
58.926773071289063
 21
5.8999786376953125
 31
0.0
  0
LINE
  5
E9
100
AcDbEntity
  8
0
  6
CONTINUOUS
 62
               7
100
AcDbLine
 10
55.073196411132812
 20
6.4999847412109375
 30
0.0
 11
58.926773071289063
 21
6.4999847412109375
 31
0.0
  0
LINE
  5
EA
100
AcDbEntity
  8
0
  6
CONTINUOUS
 62
               4
100
AcDbLine
 10
52.04998779296875
 20
33.499984741210938
 30
0.0
 11
52.04998779296875
 21
46.999984741210937
 31
0.0
  0
LINE
  5
EB
100
AcDbEntity
  8
0
  6
CONTINUOUS
 62
               4
100
AcDbLine
 10
61.5
 20
42.5
 30
0.0
 11
52.5
 21
42.5
 31
0.0
  0
LINE
  5
EC
100
AcDbEntity
  8
0
  6
CONTINUOUS
 62
             200
100
AcDbLine
 10
61.949981689453125
 20
38.0
 30
0.0
 11
52.04998779296875
 21
38.0
 31
0.0
  0
LINE
  5
ED
100
AcDbEntity
  8
0
  6
CONTINUOUS
 62
               4
100
AcDbLine
 10
61.949981689453125
 20
33.499984741210938
 30
0.0
 11
61.949981689453125
 21
46.999984741210937
 31
0.0
  0
LINE
  5
EE
100
AcDbEntity
  8
0
  6
CONTINUOUS
 62
               4
100
AcDbLine
 10
58.28497314453125
 20
53.499984741210938
 30
0.0
 11
58.28497314453125
 21
57.32666015625
 31
0.0
  0
LINE
  5
EF
100
AcDbEntity
  8
0
  6
CONTINUOUS
 62
               4
100
AcDbLine
 10
59.714996337890625
 20
53.499984741210938
 30
0.0
 11
59.714996337890625
 21
57.7098388671875
 31
0.0
  0
LINE
  5
F0
100
AcDbEntity
  8
0
  6
CONTINUOUS
 62
               4
100
AcDbLine
 10
58.5999755859375
 20
61.499984741210937
 30
0.0
 11
58.5999755859375
 21
66.499984741210938
 31
0.0
  0
LINE
  5
F1
100
AcDbEntity
  8
0
  6
CONTINUOUS
 62
               4
100
AcDbLine
 10
59.399993896484375
 20
61.499984741210937
 30
0.0
 11
59.399993896484375
 21
66.499984741210938
 31
0.0
  0
LINE
  5
F2
100
AcDbEntity
  8
0
  6
CONTINUOUS
 62
               4
100
AcDbLine
 10
58.5999755859375
 20
66.499984741210938
 30
0.0
 11
59.399978637695313
 21
66.499984741210938
 31
0.0
  0
LINE
  5
F3
100
AcDbEntity
  8
0
  6
CONTINUOUS
 62
               4
100
AcDbLine
 10
58.28497314453125
 20
61.499984741210937
 30
0.0
 11
59.714981079101563
 21
61.499984741210937
 31
0.0
  0
LINE
  5
F4
100
AcDbEntity
  8
0
  6
CONTINUOUS
 62
               4
100
AcDbLine
 10
58.28497314453125
 20
58.3619384765625
 30
0.0
 11
58.28497314453125
 21
61.499984741210937
 31
0.0
  0
LINE
  5
F5
100
AcDbEntity
  8
0
  6
CONTINUOUS
 62
               4
100
AcDbLine
 10
59.714996337890625
 20
58.7451171875
 30
0.0
 11
59.714996337890625
 21
61.499984741210937
 31
0.0
  0
LINE
  5
F6
100
AcDbEntity
  8
0
  6
CONTINUOUS
 62
               4
100
AcDbLine
 10
52.04998779296875
 20
46.999984741210937
 30
0.0
 11
53.5
 21
46.999984741210937
 31
0.0
  0
LINE
  5
F7
100
AcDbEntity
  8
0
  6
CONTINUOUS
 62
               4
100
AcDbLine
 10
52.949981689453125
 20
42.499984741210937
 30
0.0
 11
52.949981689453125
 21
44.999984741210937
 31
0.0
  0
LINE
  5
F8
100
AcDbEntity
  8
0
  6
CONTINUOUS
 62
               4
100
AcDbLine
 10
61.04998779296875
 20
42.499984741210937
 30
0.0
 11
61.04998779296875
 21
44.999984741210937
 31
0.0
  0
LINE
  5
F9
100
AcDbEntity
  8
0
  6
CONTINUOUS
 62
               4
100
AcDbLine
 10
60.499984741210937
 20
42.998458862304687
 30
0.0
 11
60.499984741210937
 21
53.499984741210938
 31
0.0
  0
LINE
  5
FA
100
AcDbEntity
  8
0
  6
CONTINUOUS
 62
               4
100
AcDbLine
 10
53.499984741210938
 20
42.998458862304687
 30
0.0
 11
53.499984741210938
 21
53.499984741210938
 31
0.0
  0
LINE
  5
FB
100
AcDbEntity
  8
0
  6
CONTINUOUS
 62
               4
100
AcDbLine
 10
53.5
 20
42.998458862304687
 30
0.0
 11
60.5
 21
42.998458862304687
 31
0.0
  0
LINE
  5
FC
100
AcDbEntity
  8
0
  6
CONTINUOUS
 62
               4
100
AcDbLine
 10
53.5
 20
46.556137084960938
 30
0.0
 11
60.5
 21
46.556137084960938
 31
0.0
  0
LINE
  5
FD
100
AcDbEntity
  8
0
  6
CONTINUOUS
 62
               4
100
AcDbLine
 10
53.5
 20
51.999984741210937
 30
0.0
 11
60.5
 21
51.999984741210937
 31
0.0
  0
LINE
  5
FE
100
AcDbEntity
  8
0
  6
CONTINUOUS
 62
               4
100
AcDbLine
 10
52.099990844726563
 20
53.499984741210938
 30
0.0
 11
61.899993896484375
 21
53.499984741210938
 31
0.0
  0
LINE
  5
FF
100
AcDbEntity
  8
0
  6
CONTINUOUS
 62
               4
100
AcDbLine
 10
60.5
 20
46.999984741210937
 30
0.0
 11
61.949981689453125
 21
46.999984741210937
 31
0.0
  0
LINE
  5
100
100
AcDbEntity
  8
0
  6
CONTINUOUS
 62
               4
100
AcDbLine
 10
60.5
 20
45.999984741210938
 30
0.0
 11
61.04998779296875
 21
45.999984741210938
 31
0.0
  0
LINE
  5
101
100
AcDbEntity
  8
0
  6
CONTINUOUS
 62
               4
100
AcDbLine
 10
60.5
 20
44.999984741210937
 30
0.0
 11
61.04998779296875
 21
44.999984741210937
 31
0.0
  0
LINE
  5
102
100
AcDbEntity
  8
0
  6
CONTINUOUS
 62
               4
100
AcDbLine
 10
52.949981689453125
 20
45.999984741210938
 30
0.0
 11
53.5
 21
45.999984741210938
 31
0.0
  0
LINE
  5
103
100
AcDbEntity
  8
0
  6
CONTINUOUS
 62
               4
100
AcDbLine
 10
52.949981689453125
 20
44.999984741210937
 30
0.0
 11
53.5
 21
44.999984741210937
 31
0.0
  0
LINE
  5
104
100
AcDbEntity
  8
0
  6
CONTINUOUS
 62
               4
100
AcDbLine
 10
52.949981689453125
 20
45.999984741210938
 30
0.0
 11
52.949981689453125
 21
46.999984741210937
 31
0.0
  0
LINE
  5
105
100
AcDbEntity
  8
0
  6
CONTINUOUS
 62
               4
100
AcDbLine
 10
61.04998779296875
 20
45.999984741210938
 30
0.0
 11
61.04998779296875
 21
46.999984741210937
 31
0.0
  0
LINE
  5
106
100
AcDbEntity
  8
0
  6
CONTINUOUS
 62
               4
100
AcDbLine
 10
55.714996337890625
 20
57.673324584960938
 30
0.0
 11
55.714996337890625
 21
61.499984741210937
 31
0.0
  0
LINE
  5
107
100
AcDbEntity
  8
0
  6
CONTINUOUS
 62
               4
100
AcDbLine
 10
54.28497314453125
 20
57.290145874023438
 30
0.0
 11
54.28497314453125
 21
61.499984741210937
 31
0.0
  0
LINE
  5
108
100
AcDbEntity
  8
0
  6
CONTINUOUS
 62
               4
100
AcDbLine
 10
54.28497314453125
 20
61.499984741210937
 30
0.0
 11
55.714981079101563
 21
61.499984741210937
 31
0.0
  0
LINE
  5
109
100
AcDbEntity
  8
0
  6
CONTINUOUS
 62
               4
100
AcDbLine
 10
55.399993896484375
 20
61.499984741210937
 30
0.0
 11
55.399993896484375
 21
66.499984741210938
 31
0.0
  0
LINE
  5
10A
100
AcDbEntity
  8
0
  6
CONTINUOUS
 62
               4
100
AcDbLine
 10
54.5999755859375
 20
61.499984741210937
 30
0.0
 11
54.5999755859375
 21
66.499984741210938
 31
0.0
  0
LINE
  5
10B
100
AcDbEntity
  8
0
  6
CONTINUOUS
 62
               4
100
AcDbLine
 10
54.5999755859375
 20
66.499984741210938
 30
0.0
 11
55.399978637695313
 21
66.499984741210938
 31
0.0
  0
LINE
  5
10C
100
AcDbEntity
  8
0
  6
CONTINUOUS
 62
               4
100
AcDbLine
 10
55.714996337890625
 20
53.499984741210938
 30
0.0
 11
55.714996337890625
 21
56.638046264648438
 31
0.0
  0
LINE
  5
10D
100
AcDbEntity
  8
0
  6
CONTINUOUS
 62
               4
100
AcDbLine
 10
54.28497314453125
 20
53.499984741210938
 30
0.0
 11
54.28497314453125
 21
56.254867553710937
 31
0.0
  0
LINE
  5
10E
100
AcDbEntity
  8
0
  6
CONTINUOUS
 62
               4
100
AcDbLine
 10
61.899993896484375
 20
46.999984741210937
 30
0.0
 11
61.899993896484375
 21
53.499984741210938
 31
0.0
  0
LINE
  5
10F
100
AcDbEntity
  8
0
  6
CONTINUOUS
 62
               4
100
AcDbLine
 10
52.099990844726563
 20
46.999984741210937
 30
0.0
 11
52.099990844726563
 21
53.499984741210938
 31
0.0
  0
LINE
  5
110
100
AcDbEntity
  8
0
  6
CONTINUOUS
 62
               4
100
AcDbLine
 10
52.999984741210937
 20
46.999984741210937
 30
0.0
 11
52.999984741210937
 21
53.499984741210938
 31
0.0
  0
LINE
  5
111
100
AcDbEntity
  8
0
  6
CONTINUOUS
 62
               4
100
AcDbLine
 10
60.999984741210937
 20
46.999984741210937
 30
0.0
 11
60.999984741210937
 21
53.499984741210938
 31
0.0
  0
LINE
  5
112
100
AcDbEntity
  8
0
  6
CONTINUOUS
 62
               7
100
AcDbLine
 10
47.999984741210938
 20
-4.0000152587890625
 30
0.0
 11
65.999984741210938
 21
-4.0000152587890625
 31
0.0
  0
LINE
  5
113
100
AcDbEntity
  8
0
  6
CONTINUOUS
 62
               7
100
AcDbLine
 10
65.999984741210938
 20
-89.500015258789063
 30
0.0
 11
65.999984741210938
 21
-66.800003051757813
 31
0.0
  0
LINE
  5
114
100
AcDbEntity
  8
0
  6
CONTINUOUS
 62
             200
100
AcDbLine
 10
47.5
 20
-31.000007629394531
 30
0.0
 11
66.5
 21
-31.000007629394531
 31
0.0
  0
LINE
  5
115
100
AcDbEntity
  8
0
  6
CONTINUOUS
 62
             200
100
AcDbLine
 10
47.5
 20
-50.000007629394531
 30
0.0
 11
66.5
 21
-50.000007629394531
 31
0.0
  0
LINE
  5
116
100
AcDbEntity
  8
0
  6
CONTINUOUS
 62
               4
100
AcDbLine
 10
49.439342899587473
 20
-61.56066010125943
 30
0.0
 11
51.560663385656198
 21
-59.439339794004638
 31
0.0
  0
LINE
  5
117
100
AcDbEntity
  8
0
  6
CONTINUOUS
 62
               4
100
AcDbLine
 10
49.439353778589293
 20
-59.439307335817659
 30
0.0
 11
51.560674085844084
 21
-61.560627821886385
 31
0.0
  0
LINE
  5
118
100
AcDbEntity
  8
0
  6
CONTINUOUS
 62
               4
100
AcDbLine
 10
62.439338029196165
 20
-21.560683260322094
 30
0.0
 11
64.56065851526489
 21
-19.439362953067302
 31
0.0
  0
LINE
  5
119
100
AcDbEntity
  8
0
  6
CONTINUOUS
 62
               4
100
AcDbLine
 10
62.439347559497946
 20
-19.439350725368058
 30
0.0
 11
64.560667866752738
 21
-21.560671211436784
 31
0.0
  0
LINE
  5
11A
100
AcDbEntity
  8
0
  6
CONTINUOUS
 62
               2
100
AcDbLine
 10
54.383316040039063
 20
-75.0
 30
0.0
 11
59.616653442382813
 21
-75.0
 31
0.0
  0
LINE
  5
11B
100
AcDbEntity
  8
0
  6
CONTINUOUS
 62
               7
100
AcDbLine
 10
55.073196411132812
 20
-75.300003051757813
 30
0.0
 11
58.926773071289063
 21
-75.300003051757813
 31
0.0
  0
LINE
  5
11C
100
AcDbEntity
  8
0
  6
CONTINUOUS
 62
               7
100
AcDbLine
 10
55.073196411132812
 20
-74.70001220703125
 30
0.0
 11
58.926773071289063
 21
-74.70001220703125
 31
0.0
  0
LINE
  5
11D
100
AcDbEntity
  8
0
  6
CONTINUOUS
 62
               7
100
AcDbLine
 10
47.999984741210938
 20
-76.0
 30
0.0
 11
50.999984741210938
 21
-76.0
 31
0.0
  0
LINE
  5
11E
100
AcDbEntity
  8
0
  6
CONTINUOUS
 62
               7
100
AcDbLine
 10
47.999984741210938
 20
-70.0
 30
0.0
 11
50.999984741210938
 21
-70.0
 31
0.0
  0
LINE
  5
11F
100
AcDbEntity
  8
0
  6
CONTINUOUS
 62
               7
100
AcDbLine
 10
50.499984741210938
 20
-79.0
 30
0.0
 11
50.499984741210938
 21
-76.0
 31
0.0
  0
LINE
  5
120
100
AcDbEntity
  8
0
  6
CONTINUOUS
 62
               7
100
AcDbLine
 10
63.499984741210938
 20
-79.000015258789063
 30
0.0
 11
63.499984741210938
 21
-76.000015258789063
 31
0.0
  0
LINE
  5
121
100
AcDbEntity
  8
0
  6
CONTINUOUS
 62
               7
100
AcDbLine
 10
62.999984741210938
 20
-76.0
 30
0.0
 11
65.999984741210938
 21
-76.0
 31
0.0
  0
LINE
  5
122
100
AcDbEntity
  8
0
  6
CONTINUOUS
 62
               7
100
AcDbLine
 10
62.999984741210938
 20
-70.0
 30
0.0
 11
65.999984741210938
 21
-70.0
 31
0.0
  0
LINE
  5
123
100
AcDbEntity
  8
0
  6
CONTINUOUS
 62
               7
100
AcDbLine
 10
63.499984741210938
 20
-70.000015258789063
 30
0.0
 11
63.499984741210938
 21
-67.000015258789062
 31
0.0
  0
LINE
  5
124
100
AcDbEntity
  8
0
  6
CONTINUOUS
 62
               7
100
AcDbLine
 10
50.499984741210938
 20
-70.0
 30
0.0
 11
50.499984741210938
 21
-67.0
 31
0.0
  0
LINE
  5
125
100
AcDbEntity
  8
0
  6
CONTINUOUS
 62
               7
100
AcDbLine
 10
59.499984741210938
 20
6.1999969482421875
 30
0.0
 11
60.499984741210937
 21
6.1999969482421875
 31
0.0
  0
LINE
  5
126
100
AcDbEntity
  8
0
  6
CONTINUOUS
 62
               7
100
AcDbLine
 10
56.999984741210937
 20
2.6999969482421875
 30
0.0
 11
56.999984741210937
 21
3.6999969482421875
 31
0.0
  0
LINE
  5
127
100
AcDbEntity
  8
0
  6
CONTINUOUS
 62
               7
100
AcDbLine
 10
56.999979163275157
 20
3.1999875316494126
 30
0.0
 11
57.999978452679784
 21
2.9320385890831631
 31
0.0
  0
LINE
  5
128
100
AcDbEntity
  8
0
  6
CONTINUOUS
 62
               7
100
AcDbLine
 10
49.999985694885254
 20
-1.5000152587890625
 30
0.0
 11
63.999984741210938
 21
-1.5000152587890625
 31
0.0
  0
LINE
  5
129
100
AcDbEntity
  8
0
  6
CONTINUOUS
 62
               7
100
AcDbLine
 10
65.99993644733695
 20
-4.0000093503613243
 30
0.0
 11
63.999991667223185
 21
-1.5000153550545292
 31
0.0
  0
LINE
  5
12A
100
AcDbEntity
  8
0
  6
CONTINUOUS
 62
               7
100
AcDbLine
 10
48.000043091166845
 20
-4.0000278374209302
 30
0.0
 11
49.999996639918209
 21
-1.5000215452309931
 31
0.0
  0
LINE
  5
12B
100
AcDbEntity
  8
0
  6
CONTINUOUS
 62
               4
100
AcDbLine
 10
51.999984741210937
 20
9.4999847412109375
 30
0.0
 11
51.999984741210937
 21
33.499984741210938
 31
0.0
  0
LINE
  5
12C
100
AcDbEntity
  8
0
  6
CONTINUOUS
 62
               4
100
AcDbLine
 10
61.999984741210938
 20
9.4999847412109375
 30
0.0
 11
61.999984741210938
 21
33.499984741210938
 31
0.0
  0
LINE
  5
12D
100
AcDbEntity
  8
0
  6
CONTINUOUS
 62
               7
100
AcDbLine
 10
65.999984741210938
 20
-14.200027465820313
 30
0.0
 11
65.999984741210938
 21
-4.0000152587890625
 31
0.0
  0
LINE
  5
12E
100
AcDbEntity
  8
0
  6
CONTINUOUS
 62
               7
100
AcDbLine
 10
47.999984741210938
 20
-14.200027465820313
 30
0.0
 11
47.999984741210938
 21
-4.0000152587890625
 31
0.0
  0
LINE
  5
12F
100
AcDbEntity
  8
0
  6
CONTINUOUS
 62
               7
100
AcDbLine
 10
47.999984741210938
 20
-89.5
 30
0.0
 11
47.999984741210938
 21
-66.800003051757813
 31
0.0
  0
LINE
  5
130
100
AcDbEntity
  8
0
  6
CONTINUOUS
 62
               7
100
AcDbLine
 10
54.499979019165039
 20
-75.0
 30
0.0
 11
53.499979019165039
 21
-75.0
 31
0.0
  0
LINE
  5
131
100
AcDbEntity
  8
0
  6
CONTINUOUS
 62
               7
100
AcDbLine
 10
56.999988419010151
 20
-71.999997069634446
 30
0.0
 11
55.999986366069606
 21
-71.732047201458954
 31
0.0
  0
LINE
  5
132
100
AcDbEntity
  8
0
  6
CONTINUOUS
 62
               7
100
AcDbLine
 10
56.999985694885254
 20
-71.5
 30
0.0
 11
56.999985694885254
 21
-72.5
 31
0.0
  0
ARC
  5
133
100
AcDbEntity
  8
0
  6
CONTINUOUS
 62
               4
100
AcDbCircle
 10
63.499984741210938
 20
-20.5
 30
0.0
 40
3.0
100
AcDbArc
 50
89.999982013910454
 51
269.99994604173139
  0
ARC
  5
134
100
AcDbEntity
  8
0
  6
CONTINUOUS
 62
               7
100
AcDbCircle
 10
65.499984741210937
 20
-89.5
 30
0.0
 40
0.5
100
AcDbArc
 50
270.00001798608872
 51
0.00001366037834
  0
ARC
  5
135
100
AcDbEntity
  8
0
  6
CONTINUOUS
 62
               7
100
AcDbCircle
 10
48.499984741210937
 20
-89.5
 30
0.0
 40
0.5
100
AcDbArc
 50
180.0000359721783
 51
269.99996334457541
  0
CIRCLE
  5
136
100
AcDbEntity
  8
0
  6
CONTINUOUS
 62
               7
100
AcDbCircle
 10
56.999984741210937
 20
6.1999969482421875
 30
0.0
 40
2.0
  0
CIRCLE
  5
137
100
AcDbEntity
  8
0
  6
CONTINUOUS
 62
               7
100
AcDbCircle
 10
56.999984741210937
 20
6.1999969482421875
 30
0.0
 40
1.9499998092651367
  0
ARC
  5
138
100
AcDbEntity
  8
0
  6
CONTINUOUS
 62
               4
100
AcDbCircle
 10
61.449981689453125
 20
42.0
 30
0.0
 40
0.5
100
AcDbArc
 50
359.99994535848583
 51
89.999982013910454
  0
ARC
  5
139
100
AcDbEntity
  8
0
  6
CONTINUOUS
 62
               4
100
AcDbCircle
 10
52.54998779296875
 20
42.0
 30
0.0
 40
0.5
100
AcDbArc
 50
89.999982013910454
 51
179.99996402782091
  0
CIRCLE
  5
13A
100
AcDbEntity
  8
0
  6
CONTINUOUS
 62
               4
100
AcDbCircle
 10
50.5
 20
-60.499984741210937
 30
0.0
 40
2.7999992370605469
  0
CIRCLE
  5
13B
100
AcDbEntity
  8
0
  6
CONTINUOUS
 62
               4
100
AcDbCircle
 10
63.499984741210938
 20
-20.500015258789063
 30
0.0
 40
2.7999992370605469
  0
CIRCLE
  5
13C
100
AcDbEntity
  8
0
  6
CONTINUOUS
 62
               7
100
AcDbCircle
 10
56.999984741210937
 20
-75.0
 30
0.0
 40
2.0
  0
CIRCLE
  5
13D
100
AcDbEntity
  8
0
  6
CONTINUOUS
 62
               7
100
AcDbCircle
 10
56.999984741210937
 20
-75.0
 30
0.0
 40
1.9499998092651367
  0
ARC
  5
13E
100
AcDbEntity
  8
0
  6
CONTINUOUS
 62
               7
100
AcDbCircle
 10
57.099985122680664
 20
6.1999969482421875
 30
0.0
 40
3.0
100
AcDbArc
 50
268.089805320533
 51
0.0
  0
ARC
  5
13F
100
AcDbEntity
  8
0
  6
CONTINUOUS
 62
               7
100
AcDbCircle
 10
56.999984741210937
 20
6.1999969482421875
 30
0.0
 40
3.0
100
AcDbArc
 50
266.17746163595609
 51
3.822566595416411
  0
ARC
  5
140
100
AcDbEntity
  8
0
  6
CONTINUOUS
 62
               7
100
AcDbCircle
 10
56.899984359741211
 20
6.1999969482421875
 30
0.0
 40
3.0
100
AcDbArc
 50
271.91023065164455
 51
0.0
  0
ARC
  5
141
100
AcDbEntity
  8
0
  6
CONTINUOUS
 62
               7
100
AcDbCircle
 10
63.000030517578125
 20
-0.9999542236328125
 30
0.0
 40
2.5000734329223633
100
AcDbArc
 50
191.53802865027069
 51
319.45890333229545
  0
CIRCLE
  5
142
100
AcDbEntity
  8
0
  6
CONTINUOUS
 62
               4
100
AcDbCircle
 10
63.499984741210938
 20
-20.500015258789063
 30
0.0
 40
2.9499998092651367
  0
CIRCLE
  5
143
100
AcDbEntity
  8
0
  6
CONTINUOUS
 62
               4
100
AcDbCircle
 10
50.5
 20
-60.499984741210937
 30
0.0
 40
2.9499998092651367
  0
ARC
  5
144
100
AcDbEntity
  8
0
  6
CONTINUOUS
 62
               7
100
AcDbCircle
 10
56.899978637695313
 20
-75.0
 30
0.0
 40
3.0
100
AcDbArc
 50
88.08976934835465
 51
179.99996402782091
  0
ARC
  5
145
100
AcDbEntity
  8
0
  6
CONTINUOUS
 62
               7
100
AcDbCircle
 10
56.999979019165039
 20
-75.0
 30
0.0
 40
3.0
100
AcDbArc
 50
86.177425663777811
 51
183.82257501946691
  0
ARC
  5
146
100
AcDbEntity
  8
0
  6
CONTINUOUS
 62
               7
100
AcDbCircle
 10
57.099978446960449
 20
-75.0
 30
0.0
 40
3.0
100
AcDbArc
 50
91.910194679466258
 51
179.99996402782091
  0
LINE
  5
147
100
AcDbEntity
  8
0
  6
CONTINUOUS
 62
             200
100
AcDbLine
 10
52.999989125652064
 20
55.910554385063733
 30
0.0
 11
60.999990810318195
 21
58.054148393884134
 31
0.0
  0
LINE
  5
148
100
AcDbEntity
  8
0
  6
CONTINUOUS
 62
             200
100
AcDbLine
 10
52.999984432470228
 20
56.945829294560099
 30
0.0
 11
60.999986117136359
 21
59.089423303380499
 31
0.0
  0
LINE
  5
149
100
AcDbEntity
  8
0
  6
CONTINUOUS
 62
               4
100
AcDbLine
 10
52.351819213571133
 20
-58.139772665036446
 30
0.0
 11
53.278824210166931
 21
-58.139772665036446
 31
0.0
  0
LINE
  5
14A
100
AcDbEntity
  8
0
  6
CONTINUOUS
 62
               4
100
AcDbLine
 10
60.721145268730766
 20
-22.860280740725273
 30
0.0
 11
61.648198889680273
 21
-22.860280740725273
 31
0.0
  0
LINE
  5
14B
100
AcDbEntity
  8
0
  6
CONTINUOUS
 62
               4
100
AcDbLine
 10
60.72114527225493
 20
-58.139772665036446
 30
0.0
 11
65.999984741210923
 21
-58.139772665036446
 31
0.0
  0
LINE
  5
14C
100
AcDbEntity
  8
0
  6
CONTINUOUS
 62
               4
100
AcDbLine
 10
47.999984741210938
 20
-22.860280740725273
 30
0.0
 11
53.278824213691081
 21
-22.860280740725273
 31
0.0
  0
LINE
  5
14D
100
AcDbEntity
  8
0
  6
CONTINUOUS
 62
               4
100
AcDbLine
 10
64.899984741210929
 20
-50.800026702880857
 30
0.0
 11
64.899984741210929
 21
-49.200026708841321
 31
0.0
  0
LINE
  5
14E
100
AcDbEntity
  8
0
  6
CONTINUOUS
 62
               4
100
AcDbLine
 10
64.899984741210929
 20
-49.200026702880855
 30
0.0
 11
65.334026496901402
 21
-48.949432578393427
 31
0.0
  0
LINE
  5
14F
100
AcDbEntity
  8
0
  6
CONTINUOUS
 62
               4
100
AcDbLine
 10
64.899984741210929
 20
-50.800026702880857
 30
0.0
 11
65.334026496901402
 21
-51.050620827368292
 31
0.0
  0
LINE
  5
150
100
AcDbEntity
  8
0
  6
CONTINUOUS
 62
               4
100
AcDbLine
 10
49.099984741210932
 20
-50.800026702880857
 30
0.0
 11
49.099984741210932
 21
-49.200026708841321
 31
0.0
  0
LINE
  5
151
100
AcDbEntity
  8
0
  6
CONTINUOUS
 62
               4
100
AcDbLine
 10
49.099984741210932
 20
-49.200026702880855
 30
0.0
 11
48.665942985520445
 21
-48.949432578393427
 31
0.0
  0
LINE
  5
152
100
AcDbEntity
  8
0
  6
CONTINUOUS
 62
               4
100
AcDbLine
 10
49.099984741210932
 20
-50.800026702880857
 30
0.0
 11
48.665942985520445
 21
-51.050620827368292
 31
0.0
  0
LINE
  5
153
100
AcDbEntity
  8
0
  6
CONTINUOUS
 62
               4
100
AcDbLine
 10
49.099984741210932
 20
-31.800026702880857
 30
0.0
 11
49.099984741210932
 21
-30.200026708841321
 31
0.0
  0
LINE
  5
154
100
AcDbEntity
  8
0
  6
CONTINUOUS
 62
               4
100
AcDbLine
 10
49.099984741210932
 20
-31.800026702880857
 30
0.0
 11
48.665942985520445
 21
-32.050620827368292
 31
0.0
  0
LINE
  5
155
100
AcDbEntity
  8
0
  6
CONTINUOUS
 62
               4
100
AcDbLine
 10
49.099984741210932
 20
-30.200026702880862
 30
0.0
 11
48.665942985520445
 21
-29.949432578393427
 31
0.0
  0
LINE
  5
156
100
AcDbEntity
  8
0
  6
CONTINUOUS
 62
               4
100
AcDbLine
 10
64.899984741210929
 20
-31.800026702880857
 30
0.0
 11
64.899984741210929
 21
-30.200026708841321
 31
0.0
  0
LINE
  5
157
100
AcDbEntity
  8
0
  6
CONTINUOUS
 62
               4
100
AcDbLine
 10
64.899984741210929
 20
-30.200026702880862
 30
0.0
 11
65.334026496901402
 21
-29.949432578393427
 31
0.0
  0
LINE
  5
158
100
AcDbEntity
  8
0
  6
CONTINUOUS
 62
               4
100
AcDbLine
 10
64.899984741210929
 20
-31.800026702880857
 30
0.0
 11
65.334026496901402
 21
-32.050620827368292
 31
0.0
  0
ARC
  5
159
100
AcDbEntity
  8
0
  6
CONTINUOUS
 62
               4
100
AcDbCircle
 10
58.04998474121092
 20
-40.809814518170427
 30
0.0
 40
0.3
100
AcDbArc
 50
179.99999999999963
 51
263.48210579102226
  0
ARC
  5
15A
100
AcDbEntity
  8
0
  6
CONTINUOUS
 62
               4
100
AcDbCircle
 10
58.04998474121092
 20
-40.190238887591278
 30
0.0
 40
0.3
100
AcDbArc
 50
96.517894208978376
 51
179.99999999999963
  0
ARC
  5
15B
100
AcDbEntity
  8
0
  6
CONTINUOUS
 62
               4
100
AcDbCircle
 10
55.949984741210926
 20
-40.809814518170427
 30
0.0
 40
0.3
100
AcDbArc
 50
276.5178942089774
 51
0.0
  0
ARC
  5
15C
100
AcDbEntity
  8
0
  6
CONTINUOUS
 62
               4
100
AcDbCircle
 10
55.949984741210926
 20
-40.190238887591278
 30
0.0
 40
0.3
100
AcDbArc
 50
0.0
 51
83.482105791022562
  0
LINE
  5
15D
100
AcDbEntity
  8
0
  6
CONTINUOUS
 62
               4
100
AcDbLine
 10
56.249984741210923
 20
-40.809814518170427
 30
0.0
 11
56.249984741210923
 21
-40.190238887591278
 31
0.0
  0
LINE
  5
15E
100
AcDbEntity
  8
0
  6
CONTINUOUS
 62
               4
100
AcDbLine
 10
57.749984741210923
 20
-40.809814518170427
 30
0.0
 11
57.749984741210923
 21
-40.190238887591278
 31
0.0
  0
ARC
  5
15F
100
AcDbEntity
  8
0
  6
CONTINUOUS
 62
               4
100
AcDbCircle
 10
56.999984741210923
 20
-50.000026702880859
 30
0.0
 40
8.4000000000000004
100
AcDbArc
 50
187.18484031495382
 51
352.81515968504499
  0
CIRCLE
  5
160
100
AcDbEntity
  8
0
  6
CONTINUOUS
 62
               4
100
AcDbCircle
 10
56.999984741210923
 20
-50.000026702880859
 30
0.0
 40
4.0499999999999998
  0
CIRCLE
  5
161
100
AcDbEntity
  8
0
  6
CONTINUOUS
 62
               4
100
AcDbCircle
 10
56.999984741210923
 20
-50.000026702880859
 30
0.0
 40
5.0499999999999998
  0
ARC
  5
162
100
AcDbEntity
  8
0
  6
CONTINUOUS
 62
               4
100
AcDbCircle
 10
56.999984741210923
 20
-50.000026702880859
 30
0.0
 40
8.4000000000000004
100
AcDbArc
 50
7.1848403149542479
 51
172.81515968504539
  0
CIRCLE
  5
163
100
AcDbEntity
  8
0
  6
CONTINUOUS
 62
               4
100
AcDbCircle
 10
56.999984741210923
 20
-50.000026702880859
 30
0.0
 40
8.9499999999999993
  0
CIRCLE
  5
164
100
AcDbEntity
  8
0
  6
CONTINUOUS
 62
               4
100
AcDbCircle
 10
56.999984741210923
 20
-31.000026702880859
 30
0.0
 40
4.0499999999999998
  0
CIRCLE
  5
165
100
AcDbEntity
  8
0
  6
CONTINUOUS
 62
               4
100
AcDbCircle
 10
56.999984741210923
 20
-31.000026702880859
 30
0.0
 40
5.0499999999999998
  0
ARC
  5
166
100
AcDbEntity
  8
0
  6
CONTINUOUS
 62
               4
100
AcDbCircle
 10
56.999984741210923
 20
-31.000026702880859
 30
0.0
 40
8.4000000000000004
100
AcDbArc
 50
187.18484031495382
 51
352.81515968504499
  0
ARC
  5
167
100
AcDbEntity
  8
0
  6
CONTINUOUS
 62
               4
100
AcDbCircle
 10
56.999984741210923
 20
-31.000026702880859
 30
0.0
 40
8.4000000000000004
100
AcDbArc
 50
7.1848403149542479
 51
172.81515968504539
  0
CIRCLE
  5
168
100
AcDbEntity
  8
0
  6
CONTINUOUS
 62
               4
100
AcDbCircle
 10
56.999984741210923
 20
-31.000026702880859
 30
0.0
 40
8.9499999999999993
  0
ARC
  5
169
100
AcDbEntity
  8
0
  6
CONTINUOUS
 62
               4
100
AcDbCircle
 10
50.499981570299497
 20
-60.500026702880859
 30
0.0
 40
3.0
100
AcDbArc
 50
270.00001798608872
 51
89.999982013910454
  0
CIRCLE
  5
16A
100
AcDbEntity
  8
0
  6
CONTINUOUS
 62
               4
100
AcDbCircle
 10
50.499984741210938
 20
-18.500026702880859
 30
0.0
 40
2.75
  0
CIRCLE
  5
16B
100
AcDbEntity
  8
0
  6
CONTINUOUS
 62
               4
100
AcDbCircle
 10
63.499981880187988
 20
-62.500026702880859
 30
0.0
 40
2.75
  0
ARC
  5
16C
100
AcDbEntity
  8
0
  6
CONTINUOUS
 62
               4
100
AcDbCircle
 10
50.499984741210938
 20
-18.500026702880859
 30
0.0
 40
3.0
100
AcDbArc
 50
270.00001798608872
 51
0.00001366037834
  0
ARC
  5
16D
100
AcDbEntity
  8
0
  6
CONTINUOUS
 62
               4
100
AcDbCircle
 10
63.499981880187988
 20
-62.500026702880859
 30
0.0
 40
3.0
100
AcDbArc
 50
89.999982013910454
 51
179.99996402782091
  0
LINE
  5
16E
100
AcDbEntity
  8
0
  6
CONTINUOUS
 62
               7
100
AcDbLine
 10
65.999984741210938
 20
-17.500027894973755
 30
0.0
 11
65.999984741210938
 21
-14.200028419494629
 31
0.0
  0
LINE
  5
16F
100
AcDbEntity
  8
0
  6
CONTINUOUS
 62
               4
100
AcDbLine
 10
47.999984741210938
 20
-57.500026702880859
 30
0.0
 11
47.999984741210938
 21
-19.645669937133789
 31
0.0
  0
LINE
  5
170
100
AcDbEntity
  8
0
  6
CONTINUOUS
 62
               4
100
AcDbLine
 10
63.499984741210938
 20
-17.500026702880859
 30
0.0
 11
65.999984741210938
 21
-17.500026702880859
 31
0.0
  0
LINE
  5
171
100
AcDbEntity
  8
0
  6
CONTINUOUS
 62
               4
100
AcDbLine
 10
63.499984741210938
 20
-23.500026702880859
 30
0.0
 11
65.999984741210938
 21
-23.500026702880859
 31
0.0
  0
LINE
  5
172
100
AcDbEntity
  8
0
  6
CONTINUOUS
 62
               4
100
AcDbLine
 10
47.999981880187988
 20
-57.500026702880859
 30
0.0
 11
50.499981796792781
 21
-57.500026702880859
 31
0.0
  0
LINE
  5
173
100
AcDbEntity
  8
0
  6
CONTINUOUS
 62
               4
100
AcDbLine
 10
47.999981880187988
 20
-63.500026702880859
 30
0.0
 11
50.499981343805302
 21
-63.500026702880859
 31
0.0
  0
LINE
  5
174
100
AcDbEntity
  8
0
  6
CONTINUOUS
 62
               4
100
AcDbLine
 10
47.999984741210938
 20
-17.354382514953613
 30
0.0
 11
47.999984741210938
 21
-14.200027465820313
 31
0.0
  0
LINE
  5
175
100
AcDbEntity
  8
0
  6
CONTINUOUS
 62
               7
100
AcDbLine
 10
65.999984741210938
 20
-61.354381561279297
 30
0.0
 11
65.999984741210938
 21
-23.500027656555176
 31
0.0
  0
LINE
  5
176
100
AcDbEntity
  8
0
  6
CONTINUOUS
 62
               4
100
AcDbLine
 10
62.439326202695156
 20
-63.560682020851345
 30
0.0
 11
64.560646688763882
 21
-61.439361713596554
 31
0.0
  0
LINE
  5
177
100
AcDbEntity
  8
0
  6
CONTINUOUS
 62
               4
100
AcDbLine
 10
49.439324699325823
 20
-19.560687057657518
 30
0.0
 11
51.560645185394549
 21
-17.439366750402726
 31
0.0
  0
LINE
  5
178
100
AcDbEntity
  8
0
  6
CONTINUOUS
 62
               4
100
AcDbLine
 10
51.560642918000717
 20
-19.560688922752362
 30
0.0
 11
49.43932278955986
 21
-17.439368257869702
 31
0.0
  0
LINE
  5
179
100
AcDbEntity
  8
0
  6
CONTINUOUS
 62
               4
100
AcDbLine
 10
64.560642801027825
 20
-63.560683295483614
 30
0.0
 11
62.439322672586968
 21
-61.439362630600954
 31
0.0
  0
LINE
  5
17A
100
AcDbEntity
  8
0
  6
CONTINUOUS
 62
               4
100
AcDbLine
 10
47.999984741210938
 20
-21.500026702880859
 30
0.0
 11
50.499984514717255
 21
-21.500026702880859
 31
0.0
  0
LINE
  5
17B
100
AcDbEntity
  8
0
  6
CONTINUOUS
 62
               4
100
AcDbLine
 10
53.499984741210938
 20
-18.500026929374542
 30
0.0
 11
53.499984741210938
 21
-14.200027465820313
 31
0.0
  0
LINE
  5
17C
100
AcDbEntity
  8
0
  6
CONTINUOUS
 62
               4
100
AcDbLine
 10
60.499984741210937
 20
-66.800014495849609
 30
0.0
 11
60.499984741210937
 21
-62.500026702880859
 31
0.0
  0
LINE
  5
17D
100
AcDbEntity
  8
0
  6
CONTINUOUS
 62
               4
100
AcDbLine
 10
63.499981880187988
 20
-59.500026702880859
 30
0.0
 11
65.999981880187988
 21
-59.500026702880859
 31
0.0
  0
LINE
  5
17E
100
AcDbEntity
  8
0
  6
CONTINUOUS
 62
               7
100
AcDbLine
 10
47.999981880187988
 20
-66.800014495849609
 30
0.0
 11
65.999980926513672
 21
-66.800014495849609
 31
0.0
  0
LINE
  5
17F
100
AcDbEntity
  8
0
  6
CONTINUOUS
 62
               4
100
AcDbLine
 10
47.999985694885254
 20
-14.200027465820313
 30
0.0
 11
65.999984741210938
 21
-14.200027465820313
 31
0.0
  0
LINE
  5
180
100
AcDbEntity
  8
0
  6
CONTINUOUS
 62
               7
100
AcDbLine
 10
47.999984741210938
 20
-66.800014495849609
 30
0.0
 11
47.999984741210938
 21
-63.500026702880859
 31
0.0
  0
LINE
  5
181
100
AcDbEntity
  8
0
  6
CONTINUOUS
 62
               7
100
AcDbLine
 10
65.999984741210938
 20
-66.800014495849609
 30
0.0
 11
65.999984741210938
 21
-63.645671844482422
 31
0.0
  0
CIRCLE
  5
182
100
AcDbEntity
  8
0
  6
CONTINUOUS
 62
               4
100
AcDbCircle
 10
19.0
 20
-31.00006103515625
 30
0.0
 40
8.9499999999999993
  0
ARC
  5
183
100
AcDbEntity
  8
0
  6
CONTINUOUS
 62
               4
100
AcDbCircle
 10
19.0
 20
-31.00006103515625
 30
0.0
 40
8.4000000000000004
100
AcDbArc
 50
7.1848403149542479
 51
172.81515968504539
  0
ARC
  5
184
100
AcDbEntity
  8
0
  6
CONTINUOUS
 62
               4
100
AcDbCircle
 10
19.0
 20
-31.00006103515625
 30
0.0
 40
8.4000000000000004
100
AcDbArc
 50
187.18484031495382
 51
352.81515968504499
  0
CIRCLE
  5
185
100
AcDbEntity
  8
0
  6
CONTINUOUS
 62
               4
100
AcDbCircle
 10
19.0
 20
-31.00006103515625
 30
0.0
 40
5.0499999999999998
  0
CIRCLE
  5
186
100
AcDbEntity
  8
0
  6
CONTINUOUS
 62
               4
100
AcDbCircle
 10
19.0
 20
-31.00006103515625
 30
0.0
 40
4.0499999999999998
  0
CIRCLE
  5
187
100
AcDbEntity
  8
0
  6
CONTINUOUS
 62
               4
100
AcDbCircle
 10
19.0
 20
-50.00006103515625
 30
0.0
 40
8.9499999999999993
  0
ARC
  5
188
100
AcDbEntity
  8
0
  6
CONTINUOUS
 62
               4
100
AcDbCircle
 10
19.0
 20
-50.00006103515625
 30
0.0
 40
8.4000000000000004
100
AcDbArc
 50
7.1848403149542479
 51
172.81515968504539
  0
CIRCLE
  5
189
100
AcDbEntity
  8
0
  6
CONTINUOUS
 62
               4
100
AcDbCircle
 10
19.0
 20
-50.00006103515625
 30
0.0
 40
5.0499999999999998
  0
CIRCLE
  5
18A
100
AcDbEntity
  8
0
  6
CONTINUOUS
 62
               4
100
AcDbCircle
 10
19.0
 20
-50.00006103515625
 30
0.0
 40
4.0499999999999998
  0
ARC
  5
18B
100
AcDbEntity
  8
0
  6
CONTINUOUS
 62
               4
100
AcDbCircle
 10
19.0
 20
-50.00006103515625
 30
0.0
 40
8.4000000000000004
100
AcDbArc
 50
187.18484031495382
 51
352.81515968504499
  0
LINE
  5
18C
100
AcDbEntity
  8
0
  6
CONTINUOUS
 62
               4
100
AcDbLine
 10
19.75
 20
-40.809848850445817
 30
0.0
 11
19.75
 21
-40.190273219866668
 31
0.0
  0
LINE
  5
18D
100
AcDbEntity
  8
0
  6
CONTINUOUS
 62
               4
100
AcDbLine
 10
18.25
 20
-40.809848850445817
 30
0.0
 11
18.25
 21
-40.190273219866668
 31
0.0
  0
ARC
  5
18E
100
AcDbEntity
  8
0
  6
CONTINUOUS
 62
               4
100
AcDbCircle
 10
17.950000000000003
 20
-40.190273219866668
 30
0.0
 40
0.3
100
AcDbArc
 50
0.0
 51
83.482105791022562
  0
ARC
  5
18F
100
AcDbEntity
  8
0
  6
CONTINUOUS
 62
               4
100
AcDbCircle
 10
17.950000000000003
 20
-40.809848850445817
 30
0.0
 40
0.3
100
AcDbArc
 50
276.5178942089774
 51
0.0
  0
ARC
  5
190
100
AcDbEntity
  8
0
  6
CONTINUOUS
 62
               4
100
AcDbCircle
 10
20.049999999999997
 20
-40.190273219866668
 30
0.0
 40
0.3
100
AcDbArc
 50
96.517894208978376
 51
179.99999999999963
  0
ARC
  5
191
100
AcDbEntity
  8
0
  6
CONTINUOUS
 62
               4
100
AcDbCircle
 10
20.049999999999997
 20
-40.809848850445817
 30
0.0
 40
0.3
100
AcDbArc
 50
179.99999999999963
 51
263.48210579102226
  0
LINE
  5
192
100
AcDbEntity
  8
0
  6
CONTINUOUS
 62
               4
100
AcDbLine
 10
26.900000000000006
 20
-31.800061035156247
 30
0.0
 11
27.334041755690478
 21
-32.050655159643682
 31
0.0
  0
LINE
  5
193
100
AcDbEntity
  8
0
  6
CONTINUOUS
 62
               4
100
AcDbLine
 10
26.900000000000006
 20
-30.200061035156253
 30
0.0
 11
27.334041755690478
 21
-29.949466910668818
 31
0.0
  0
LINE
  5
194
100
AcDbEntity
  8
0
  6
CONTINUOUS
 62
               4
100
AcDbLine
 10
26.900000000000006
 20
-31.800061035156247
 30
0.0
 11
26.900000000000006
 21
-30.200061041116712
 31
0.0
  0
LINE
  5
195
100
AcDbEntity
  8
0
  6
CONTINUOUS
 62
               4
100
AcDbLine
 10
11.100000000000009
 20
-30.200061035156253
 30
0.0
 11
10.665958244309522
 21
-29.949466910668818
 31
0.0
  0
LINE
  5
196
100
AcDbEntity
  8
0
  6
CONTINUOUS
 62
               4
100
AcDbLine
 10
11.100000000000009
 20
-31.800061035156247
 30
0.0
 11
10.665958244309522
 21
-32.050655159643682
 31
0.0
  0
LINE
  5
197
100
AcDbEntity
  8
0
  6
CONTINUOUS
 62
               4
100
AcDbLine
 10
11.100000000000009
 20
-31.800061035156247
 30
0.0
 11
11.100000000000009
 21
-30.200061041116712
 31
0.0
  0
LINE
  5
198
100
AcDbEntity
  8
0
  6
CONTINUOUS
 62
               4
100
AcDbLine
 10
11.100000000000009
 20
-50.800061035156247
 30
0.0
 11
10.665958244309522
 21
-51.050655159643682
 31
0.0
  0
LINE
  5
199
100
AcDbEntity
  8
0
  6
CONTINUOUS
 62
               4
100
AcDbLine
 10
11.100000000000009
 20
-49.200061035156246
 30
0.0
 11
10.665958244309522
 21
-48.949466910668818
 31
0.0
  0
LINE
  5
19A
100
AcDbEntity
  8
0
  6
CONTINUOUS
 62
               4
100
AcDbLine
 10
11.100000000000009
 20
-50.800061035156247
 30
0.0
 11
11.100000000000009
 21
-49.200061041116712
 31
0.0
  0
LINE
  5
19B
100
AcDbEntity
  8
0
  6
CONTINUOUS
 62
               4
100
AcDbLine
 10
26.900000000000006
 20
-50.800061035156247
 30
0.0
 11
27.334041755690478
 21
-51.050655159643682
 31
0.0
  0
LINE
  5
19C
100
AcDbEntity
  8
0
  6
CONTINUOUS
 62
               4
100
AcDbLine
 10
26.900000000000006
 20
-49.200061035156246
 30
0.0
 11
27.334041755690478
 21
-48.949466910668818
 31
0.0
  0
LINE
  5
19D
100
AcDbEntity
  8
0
  6
CONTINUOUS
 62
               4
100
AcDbLine
 10
26.900000000000006
 20
-50.800061035156247
 30
0.0
 11
26.900000000000006
 21
-49.200061041116712
 31
0.0
  0
LINE
  5
19E
100
AcDbEntity
  8
0
  6
CONTINUOUS
 62
               4
100
AcDbLine
 10
10.000000000000014
 20
-22.860315073000663
 30
0.0
 11
15.278839472480158
 21
-22.860315073000663
 31
0.0
  0
LINE
  5
19F
100
AcDbEntity
  8
0
  6
CONTINUOUS
 62
               4
100
AcDbLine
 10
22.721160531044006
 20
-58.139806997311837
 30
0.0
 11
28.0
 21
-58.139806997311837
 31
0.0
  0
LINE
  5
1A0
100
AcDbEntity
  8
0
  6
CONTINUOUS
 62
               4
100
AcDbLine
 10
22.721160527519842
 20
-22.860315073000663
 30
0.0
 11
23.64821414846935
 21
-22.860315073000663
 31
0.0
  0
LINE
  5
1A1
100
AcDbEntity
  8
0
  6
CONTINUOUS
 62
               4
100
AcDbLine
 10
14.35183447236021
 20
-58.139806997311837
 30
0.0
 11
15.278839468956008
 21
-58.139806997311837
 31
0.0
  0
LINE
  5
1A2
100
AcDbEntity
  8
0
  6
CONTINUOUS
 62
             200
100
AcDbLine
 10
14.999993635629835
 20
57.481714761362127
 30
0.0
 11
19.000001847392014
 21
58.553513740404924
 31
0.0
  0
LINE
  5
1A3
100
AcDbEntity
  8
0
  6
CONTINUOUS
 62
             200
100
AcDbLine
 10
14.999998328811671
 20
56.446439851865762
 30
0.0
 11
19.00000654057385
 21
57.518238830908558
 31
0.0
  0
LINE
  5
1A4
100
AcDbEntity
  8
0
  6
CONTINUOUS
 62
               4
100
AcDbLine
 10
67.0
 20
-2.4999847412109375
 30
0.0
 11
85.0
 21
-2.4999847412109375
 31
0.0
  0
ELLIPSE
  5
1A5
100
AcDbEntity
  8
0
  6
CONTINUOUS
 62
               7
100
AcDbEllipse
 10
89.0
 20
-77.623077392578125
 30
0.0
 11
-2.7499999999998539
 21
0.0000008960637956
 31
0.0
210
0.0
220
0.0
230
1.0
 40
0.7071089311079546
 41
0.6668133139610224
 42
2.2447900772094567
  0
ELLIPSE
  5
1A6
100
AcDbEntity
  8
0
  6
CONTINUOUS
 62
               7
100
AcDbEllipse
 10
103.0
 20
-77.623077392578125
 30
0.0
 11
2.75
 21
0.0
 31
0.0
210
0.0
220
0.0
230
1.0
 40
0.7071089311079546
 41
4.0383952299701145
 42
5.6163723508464196
  0
ELLIPSE
  5
1A7
100
AcDbEntity
  8
0
  6
CONTINUOUS
 62
               7
100
AcDbEllipse
 10
103.0
 20
-81.300003051757812
 30
0.0
 11
-3.4999999999998148
 21
0.0000011404445106
 31
0.0
210
0.0
220
0.0
230
1.0
 40
0.7070999145507813
 41
4.7123883406267932
 42
1.5707956870370001
  0
ELLIPSE
  5
1A8
100
AcDbEntity
  8
0
  6
CONTINUOUS
 62
               7
100
AcDbEllipse
 10
89.0
 20
-81.300003051757812
 30
0.0
 11
3.5
 21
0.0
 31
0.0
210
0.0
220
0.0
230
1.0
 40
0.7070999145507813
 41
4.7123892943011692
 42
1.570796640711376
  0
ELLIPSE
  5
1A9
100
AcDbEntity
  8
0
  6
CONTINUOUS
 62
               7
100
AcDbEllipse
 10
103.0
 20
-77.623001098632812
 30
0.0
 11
-3.4999999999998148
 21
0.0000011404445106
 31
0.0
210
0.0
220
0.0
230
1.0
 40
0.7070999145507813
 41
0.8370890021323807
 42
1.5707960128783602
  0
ELLIPSE
  5
1AA
100
AcDbEntity
  8
0
  6
CONTINUOUS
 62
               7
100
AcDbEllipse
 10
89.0
 20
-77.623001098632812
 30
0.0
 11
3.5
 21
0.0
 31
0.0
210
0.0
220
0.0
230
1.0
 40
0.7070999145507813
 41
4.7123892943011692
 42
5.4460959474193045
  0
CIRCLE
  5
1AB
100
AcDbEntity
  8
0
  6
CONTINUOUS
 62
               4
100
AcDbCircle
 10
12.5
 20
-60.499984741210937
 30
0.0
 40
2.9499998092651367
  0
CIRCLE
  5
1AC
100
AcDbEntity
  8
0
  6
CONTINUOUS
 62
               4
100
AcDbCircle
 10
25.499984741210937
 20
-20.5
 30
0.0
 40
2.9499998092651367
  0
ARC
  5
1AD
100
AcDbEntity
  8
0
  6
CONTINUOUS
 62
               7
100
AcDbCircle
 10
25.000030517578125
 20
-0.99993896484375
 30
0.0
 40
2.5000734329223633
100
AcDbArc
 50
191.53802865027069
 51
319.45890333229545
  0
ARC
  5
1AE
100
AcDbEntity
  8
0
  6
CONTINUOUS
 62
               7
100
AcDbCircle
 10
18.899993896484375
 20
6.20001220703125
 30
0.0
 40
3.0
100
AcDbArc
 50
271.91023065164455
 51
0.0
  0
ARC
  5
1AF
100
AcDbEntity
  8
0
  6
CONTINUOUS
 62
               7
100
AcDbCircle
 10
18.999984741210937
 20
6.20001220703125
 30
0.0
 40
3.0
100
AcDbArc
 50
266.17746163595609
 51
3.822566595416411
  0
ARC
  5
1B0
100
AcDbEntity
  8
0
  6
CONTINUOUS
 62
               7
100
AcDbCircle
 10
19.099990844726563
 20
6.20001220703125
 30
0.0
 40
3.0
100
AcDbArc
 50
268.089805320533
 51
0.0
  0
ARC
  5
1B1
100
AcDbEntity
  8
0
  6
CONTINUOUS
 62
               7
100
AcDbCircle
 10
68.25
 20
-83.000015258789063
 30
0.0
 40
1.5
100
AcDbArc
 50
179.99998133066492
 51
270.00001798608872
  0
ARC
  5
1B2
100
AcDbEntity
  8
0
  6
CONTINUOUS
 62
               7
100
AcDbCircle
 10
11.25
 20
-83.000015258789063
 30
0.0
 40
1.5
100
AcDbArc
 50
179.99998133066492
 51
213.55730177958446
  0
ARC
  5
1B3
100
AcDbEntity
  8
0
  6
CONTINUOUS
 62
               7
100
AcDbCircle
 10
70.75
 20
-83.000015258789063
 30
0.0
 40
1.5
100
AcDbArc
 50
270.00001798608872
 51
0.0
  0
CIRCLE
  5
1B4
100
AcDbEntity
  8
0
  6
CONTINUOUS
 62
               4
100
AcDbCircle
 10
96.0
 20
-41.300018310546875
 30
0.0
 40
6.0
  0
CIRCLE
  5
1B5
100
AcDbEntity
  8
0
  6
CONTINUOUS
 62
               4
100
AcDbCircle
 10
96.0
 20
-41.300018310546875
 30
0.0
 40
9.0
  0
CIRCLE
  5
1B6
100
AcDbEntity
  8
0
  6
CONTINUOUS
 62
               4
100
AcDbCircle
 10
96.0
 20
-41.300018310546875
 30
0.0
 40
10.0
  0
CIRCLE
  5
1B7
100
AcDbEntity
  8
0
  6
CONTINUOUS
 62
               4
100
AcDbCircle
 10
96.0
 20
-65.300018310546875
 30
0.0
 40
9.0
  0
CIRCLE
  5
1B8
100
AcDbEntity
  8
0
  6
CONTINUOUS
 62
               4
100
AcDbCircle
 10
96.0
 20
-65.300018310546875
 30
0.0
 40
6.0
  0
CIRCLE
  5
1B9
100
AcDbEntity
  8
0
  6
CONTINUOUS
 62
               4
100
AcDbCircle
 10
96.0
 20
-65.300018310546875
 30
0.0
 40
10.0
  0
ARC
  5
1BA
100
AcDbEntity
  8
0
  6
CONTINUOUS
 62
               7
100
AcDbCircle
 10
1.0
 20
0.0
 30
0.0
 40
2.2000007629394531
100
AcDbArc
 50
270.00007262760209
 51
90.000091296937171
  0
ARC
  5
1BB
100
AcDbEntity
  8
0
  6
CONTINUOUS
 62
               7
100
AcDbCircle
 10
-1.0
 20
0.0
 30
0.0
 40
2.1999998092651367
100
AcDbArc
 50
90.000091296937171
 51
270.00005532475808
  0
ARC
  5
1BC
100
AcDbEntity
  8
0
  6
CONTINUOUS
 62
               7
100
AcDbCircle
 10
1.0
 20
-79.0
 30
0.0
 40
2.2000007629394531
100
AcDbArc
 50
270.00001798608872
 51
90.000036655423813
  0
ARC
  5
1BD
100
AcDbEntity
  8
0
  6
CONTINUOUS
 62
               7
100
AcDbCircle
 10
-1.0
 20
-79.0
 30
0.0
 40
2.1999998092651367
100
AcDbArc
 50
90.000036655423813
 51
270.00000068324471
  0
ARC
  5
1BE
100
AcDbEntity
  8
0
  6
CONTINUOUS
 62
               7
100
AcDbCircle
 10
115.0
 20
0.0
 30
0.0
 40
2.2000007629394531
100
AcDbArc
 50
89.999927372397096
 51
269.99994604173139
  0
ARC
  5
1BF
100
AcDbEntity
  8
0
  6
CONTINUOUS
 62
               7
100
AcDbCircle
 10
117.0
 20
0.0
 30
0.0
 40
2.1999998092651367
100
AcDbArc
 50
269.99996334457541
 51
89.999927372397096
  0
ARC
  5
1C0
100
AcDbEntity
  8
0
  6
CONTINUOUS
 62
               7
100
AcDbCircle
 10
115.0
 20
-79.0
 30
0.0
 40
2.2000007629394531
100
AcDbArc
 50
89.999982013910454
 51
270.00000068324471
  0
ARC
  5
1C1
100
AcDbEntity
  8
0
  6
CONTINUOUS
 62
               7
100
AcDbCircle
 10
117.0
 20
-79.0
 30
0.0
 40
2.1999998092651367
100
AcDbArc
 50
270.00001798608872
 51
89.999982013910454
  0
CIRCLE
  5
1C2
100
AcDbEntity
  8
0
  6
CONTINUOUS
 62
               4
100
AcDbCircle
 10
12.500015258789063
 20
-60.500015258789063
 30
0.0
 40
2.75
  0
CIRCLE
  5
1C3
100
AcDbEntity
  8
0
  6
CONTINUOUS
 62
               4
100
AcDbCircle
 10
25.5
 20
-62.500015258789063
 30
0.0
 40
2.75
  0
ARC
  5
1C4
100
AcDbEntity
  8
0
  6
CONTINUOUS
 62
               7
100
AcDbCircle
 10
27.5
 20
-89.500019073486328
 30
0.0
 40
0.5
100
AcDbArc
 50
270.00001798608872
 51
0.00001366037834
  0
ARC
  5
1C5
100
AcDbEntity
  8
0
  6
CONTINUOUS
 62
               7
100
AcDbCircle
 10
10.5
 20
-89.500011444091797
 30
0.0
 40
0.5
100
AcDbArc
 50
180.0000359721783
 51
269.99996334457541
  0
CIRCLE
  5
1C6
100
AcDbEntity
  8
0
  6
CONTINUOUS
 62
               4
100
AcDbCircle
 10
25.500015258789062
 20
-20.5
 30
0.0
 40
2.75
  0
ARC
  5
1C7
100
AcDbEntity
  8
0
  6
CONTINUOUS
 62
               4
100
AcDbCircle
 10
25.5
 20
-62.500015258789063
 30
0.0
 40
3.0
100
AcDbArc
 50
89.999982013910454
 51
179.99996402782091
  0
ARC
  5
1C8
100
AcDbEntity
  8
0
  6
CONTINUOUS
 62
               4
100
AcDbCircle
 10
12.5
 20
-18.5
 30
0.0
 40
3.0
100
AcDbArc
 50
270.00001798608872
 51
0.00001366037834
  0
ARC
  5
1C9
100
AcDbEntity
  8
0
  6
CONTINUOUS
 62
               4
100
AcDbCircle
 10
12.5
 20
-60.500015258789063
 30
0.0
 40
3.0
100
AcDbArc
 50
269.99996334457541
 51
89.999982013910454
  0
ARC
  5
1CA
100
AcDbEntity
  8
0
  6
CONTINUOUS
 62
               4
100
AcDbCircle
 10
25.5
 20
-20.5
 30
0.0
 40
3.0
100
AcDbArc
 50
89.999982013910454
 51
269.99994604173139
  0
CIRCLE
  5
1CB
100
AcDbEntity
  8
0
  6
CONTINUOUS
 62
               4
100
AcDbCircle
 10
12.5
 20
-18.5
 30
0.0
 40
2.75
  0
ARC
  5
1CC
100
AcDbEntity
  8
0
  6
CONTINUOUS
 62
               4
100
AcDbCircle
 10
14.550003051757812
 20
41.999984741210938
 30
0.0
 40
0.5
100
AcDbArc
 50
89.999982013910454
 51
179.99996402782091
  0
ARC
  5
1CD
100
AcDbEntity
  8
0
  6
CONTINUOUS
 62
               4
100
AcDbCircle
 10
23.449996948242187
 20
41.999984741210938
 30
0.0
 40
0.5
100
AcDbArc
 50
359.99994535848583
 51
89.999982013910454
  0
CIRCLE
  5
1CE
100
AcDbEntity
  8
0
  6
CONTINUOUS
 62
               7
100
AcDbCircle
 10
19.0
 20
6.1999969482421875
 30
0.0
 40
1.9499998092651367
  0
CIRCLE
  5
1CF
100
AcDbEntity
  8
0
  6
CONTINUOUS
 62
               7
100
AcDbCircle
 10
19.0
 20
6.1999969482421875
 30
0.0
 40
2.0
  0
CIRCLE
  5
1D0
100
AcDbEntity
  8
0
  6
CONTINUOUS
 62
               4
100
AcDbCircle
 10
82.5
 20
-20.5
 30
0.0
 40
2.7999992370605469
  0
CIRCLE
  5
1D1
100
AcDbEntity
  8
0
  6
CONTINUOUS
 62
               4
100
AcDbCircle
 10
69.500015258789063
 20
-60.499984741210937
 30
0.0
 40
2.7999992370605469
  0
LINE
  5
1D2
100
AcDbEntity
  8
0
  6
CONTINUOUS
 62
               4
100
AcDbLine
 10
25.499984741210937
 20
-23.5
 30
0.0
 11
27.999984741210937
 21
-23.5
 31
0.0
  0
LINE
  5
1D3
100
AcDbEntity
  8
0
  6
CONTINUOUS
 62
               4
100
AcDbLine
 10
25.499984741210937
 20
-17.5
 30
0.0
 11
27.999984741210937
 21
-17.5
 31
0.0
  0
LINE
  5
1D4
100
AcDbEntity
  8
0
  6
CONTINUOUS
 62
               7
100
AcDbLine
 10
9.9999847412109375
 20
-89.5
 30
0.0
 11
9.9999847412109375
 21
-62.066009521484375
 31
0.0
  0
LINE
  5
1D5
100
AcDbEntity
  8
0
  6
CONTINUOUS
 62
               4
100
AcDbLine
 10
9.9999847412109375
 20
-58.933975219726563
 30
0.0
 11
9.9999847412109375
 21
-19.760940551757813
 31
0.0
  0
LINE
  5
1D6
100
AcDbEntity
  8
0
  6
CONTINUOUS
 62
               7
100
AcDbLine
 10
9.9999847412109375
 20
-17.239028930664062
 30
0.0
 11
9.9999847412109375
 21
-4.0
 31
0.0
  0
LINE
  5
1D7
100
AcDbEntity
  8
0
  6
CONTINUOUS
 62
               7
100
AcDbLine
 10
27.999984741210937
 20
-61.239028930664063
 30
0.0
 11
27.999984741210937
 21
-22.066055297851563
 31
0.0
  0
LINE
  5
1D8
100
AcDbEntity
  8
0
  6
CONTINUOUS
 62
               7
100
AcDbLine
 10
27.999984741210937
 20
-18.9339599609375
 30
0.0
 11
27.999984741210937
 21
-4.0
 31
0.0
  0
LINE
  5
1D9
100
AcDbEntity
  8
0
  6
CONTINUOUS
 62
               4
100
AcDbLine
 10
23.999984741210937
 20
9.4999847412109375
 30
0.0
 11
23.999984741210937
 21
33.5
 31
0.0
  0
LINE
  5
1DA
100
AcDbEntity
  8
0
  6
CONTINUOUS
 62
               4
100
AcDbLine
 10
13.999984741210938
 20
9.4999847412109375
 30
0.0
 11
13.999984741210938
 21
33.5
 31
0.0
  0
LINE
  5
1DB
100
AcDbEntity
  8
0
  6
CONTINUOUS
 62
               7
100
AcDbLine
 10
10.000046227753046
 20
-4.0000188527810678
 30
0.0
 11
11.999990244564287
 21
-1.500024475823011
 31
0.0
  0
LINE
  5
1DC
100
AcDbEntity
  8
0
  6
CONTINUOUS
 62
               7
100
AcDbLine
 10
27.99994202317157
 20
-4.0000023024604161
 30
0.0
 11
25.999987711114045
 21
-1.4999963919235597
 31
0.0
  0
LINE
  5
1DD
100
AcDbEntity
  8
0
  6
CONTINUOUS
 62
               7
100
AcDbLine
 10
11.999984741210938
 20
-1.5
 30
0.0
 11
25.999981880187988
 21
-1.5
 31
0.0
  0
LINE
  5
1DE
100
AcDbEntity
  8
0
  6
CONTINUOUS
 62
               7
100
AcDbLine
 10
18.999978053281666
 20
3.1999986257724231
 30
0.0
 11
19.99998010622221
 21
2.9320489427191205
 31
0.0
  0
LINE
  5
1DF
100
AcDbEntity
  8
0
  6
CONTINUOUS
 62
               7
100
AcDbLine
 10
18.999984741210937
 20
2.70001220703125
 30
0.0
 11
18.999984741210937
 21
3.70001220703125
 31
0.0
  0
LINE
  5
1E0
100
AcDbEntity
  8
0
  6
CONTINUOUS
 62
               7
100
AcDbLine
 10
21.499984741210938
 20
6.20001220703125
 30
0.0
 11
22.499984741210938
 21
6.20001220703125
 31
0.0
  0
LINE
  5
1E1
100
AcDbEntity
  8
0
  6
CONTINUOUS
 62
               2
100
AcDbLine
 10
116.0
 20
4.0146331787109375
 30
0.0
 11
116.0
 21
-3.78375244140625
 31
0.0
  0
LINE
  5
1E2
100
AcDbEntity
  8
0
  6
CONTINUOUS
 62
               7
100
AcDbLine
 10
66.75
 20
-82.500015258789063
 30
0.0
 11
85.0
 21
-82.500015258789063
 31
0.0
  0
LINE
  5
1E3
100
AcDbEntity
  8
0
  6
CONTINUOUS
 62
               7
100
AcDbLine
 10
66.75
 20
-83.000015258789063
 30
0.0
 11
66.75
 21
-82.500015258789063
 31
0.0
  0
LINE
  5
1E4
100
AcDbEntity
  8
0
  6
CONTINUOUS
 62
               7
100
AcDbLine
 10
67.0
 20
-82.500015258789063
 30
0.0
 11
67.0
 21
-79.500015258789063
 31
0.0
  0
LINE
  5
1E5
100
AcDbEntity
  8
0
  6
CONTINUOUS
 62
               7
100
AcDbLine
 10
72.25
 20
-83.000015258789063
 30
0.0
 11
72.25
 21
-82.500015258789063
 31
0.0
  0
LINE
  5
1E6
100
AcDbEntity
  8
0
  6
CONTINUOUS
 62
               7
100
AcDbLine
 10
9.75
 20
-83.000015258789063
 30
0.0
 11
9.75
 21
-82.500015258789063
 31
0.0
  0
LINE
  5
1E7
100
AcDbEntity
  8
0
  6
CONTINUOUS
 62
               7
100
AcDbLine
 10
72.5
 20
-84.500015258789063
 30
0.0
 11
72.5
 21
-82.500015258789063
 31
0.0
  0
LINE
  5
1E8
100
AcDbEntity
  8
0
  6
CONTINUOUS
 62
               7
100
AcDbLine
 10
9.75
 20
-82.500015258789063
 30
0.0
 11
10.0
 21
-82.500015258789063
 31
0.0
  0
LINE
  5
1E9
100
AcDbEntity
  8
0
  6
CONTINUOUS
 62
               7
100
AcDbLine
 10
67.0
 20
-84.500015258789063
 30
0.0
 11
85.0
 21
-84.500015258789063
 31
0.0
  0
LINE
  5
1EA
100
AcDbEntity
  8
0
  6
CONTINUOUS
 62
               7
100
AcDbLine
 10
85.0
 20
-84.500015258789063
 30
0.0
 11
85.0
 21
-79.500015258789063
 31
0.0
  0
LINE
  5
1EB
100
AcDbEntity
  8
0
  6
CONTINUOUS
 62
               7
100
AcDbLine
 10
67.0
 20
-84.500015258789063
 30
0.0
 11
67.0
 21
-83.82916259765625
 31
0.0
  0
LINE
  5
1EC
100
AcDbEntity
  8
0
  6
CONTINUOUS
 62
               2
100
AcDbLine
 10
96.0
 20
-88.667236328125
 30
0.0
 11
96.0
 21
11.021987915039063
 31
0.0
  0
LINE
  5
1ED
100
AcDbEntity
  8
0
  6
CONTINUOUS
 62
             200
100
AcDbLine
 10
85.0
 20
-41.300018310546875
 30
0.0
 11
107.0
 21
-41.300018310546875
 31
0.0
  0
LINE
  5
1EE
100
AcDbEntity
  8
0
  6
CONTINUOUS
 62
               7
100
AcDbLine
 10
106.5
 20
-83.774871826171875
 30
0.0
 11
103.0
 21
-83.774871826171875
 31
0.0
  0
LINE
  5
1EF
100
AcDbEntity
  8
0
  6
CONTINUOUS
 62
               7
100
AcDbLine
 10
85.5
 20
-83.774871826171875
 30
0.0
 11
89.0
 21
-83.774871826171875
 31
0.0
  0
LINE
  5
1F0
100
AcDbEntity
  8
0
  6
CONTINUOUS
 62
               7
100
AcDbLine
 10
106.5
 20
-80.097869873046875
 30
0.0
 11
103.0
 21
-80.097869873046875
 31
0.0
  0
LINE
  5
1F1
100
AcDbEntity
  8
0
  6
CONTINUOUS
 62
               7
100
AcDbLine
 10
106.5
 20
-78.82513427734375
 30
0.0
 11
103.0
 21
-78.82513427734375
 31
0.0
  0
LINE
  5
1F2
100
AcDbEntity
  8
0
  6
CONTINUOUS
 62
               7
100
AcDbLine
 10
85.5
 20
-80.097869873046875
 30
0.0
 11
89.0
 21
-80.097869873046875
 31
0.0
  0
LINE
  5
1F3
100
AcDbEntity
  8
0
  6
CONTINUOUS
 62
               7
100
AcDbLine
 10
85.5
 20
-78.82513427734375
 30
0.0
 11
89.0
 21
-78.82513427734375
 31
0.0
  0
LINE
  5
1F4
100
AcDbEntity
  8
0
  6
CONTINUOUS
 62
             200
100
AcDbLine
 10
85.0
 20
-65.300018310546875
 30
0.0
 11
107.0
 21
-65.300018310546875
 31
0.0
  0
LINE
  5
1F5
100
AcDbEntity
  8
0
  6
CONTINUOUS
 62
               2
100
AcDbLine
 10
0.0
 20
4.0146331787109375
 30
0.0
 11
0.0
 21
-3.78375244140625
 31
0.0
  0
LINE
  5
1F6
100
AcDbEntity
  8
0
  6
CONTINUOUS
 62
               7
100
AcDbLine
 10
1.0
 20
2.1999969482421875
 30
0.0
 11
-1.0
 21
2.1999969482421875
 31
0.0
  0
LINE
  5
1F7
100
AcDbEntity
  8
0
  6
CONTINUOUS
 62
               7
100
AcDbLine
 10
1.0
 20
-2.1999969482421875
 30
0.0
 11
-1.0
 21
-2.1999969482421875
 31
0.0
  0
LINE
  5
1F8
100
AcDbEntity
  8
0
  6
CONTINUOUS
 62
               2
100
AcDbLine
 10
4.7909698486328125
 20
0.0
 30
0.0
 11
-5.0516510009765625
 21
0.0
 31
0.0
  0
LINE
  5
1F9
100
AcDbEntity
  8
0
  6
CONTINUOUS
 62
               7
100
AcDbLine
 10
6.5
 20
5.5
 30
0.0
 11
6.5
 21
-5.5
 31
0.0
  0
LINE
  5
1FA
100
AcDbEntity
  8
0
  6
CONTINUOUS
 62
               7
100
AcDbLine
 10
6.5
 20
-5.5
 30
0.0
 11
-6.5
 21
-5.5
 31
0.0
  0
LINE
  5
1FB
100
AcDbEntity
  8
0
  6
CONTINUOUS
 62
               2
100
AcDbLine
 10
0.0
 20
-83.0146484375
 30
0.0
 11
0.0
 21
-75.216262817382813
 31
0.0
  0
LINE
  5
1FC
100
AcDbEntity
  8
0
  6
CONTINUOUS
 62
               7
100
AcDbLine
 10
1.0
 20
-81.20001220703125
 30
0.0
 11
-1.0
 21
-81.20001220703125
 31
0.0
  0
LINE
  5
1FD
100
AcDbEntity
  8
0
  6
CONTINUOUS
 62
               7
100
AcDbLine
 10
1.0
 20
-76.800003051757813
 30
0.0
 11
-1.0
 21
-76.800003051757813
 31
0.0
  0
LINE
  5
1FE
100
AcDbEntity
  8
0
  6
CONTINUOUS
 62
               2
100
AcDbLine
 10
4.7909698486328125
 20
-79.0
 30
0.0
 11
-5.0516510009765625
 21
-79.0
 31
0.0
  0
LINE
  5
1FF
100
AcDbEntity
  8
0
  6
CONTINUOUS
 62
               7
100
AcDbLine
 10
6.5
 20
-84.500015258789063
 30
0.0
 11
6.5
 21
-73.500015258789063
 31
0.0
  0
LINE
  5
200
100
AcDbEntity
  8
0
  6
CONTINUOUS
 62
               7
100
AcDbLine
 10
-6.5
 20
-84.500015258789063
 30
0.0
 11
-6.5
 21
5.5
 31
0.0
  0
LINE
  5
201
100
AcDbEntity
  8
0
  6
CONTINUOUS
 62
               7
100
AcDbLine
 10
6.5
 20
-73.500015258789063
 30
0.0
 11
-6.5
 21
-73.500015258789063
 31
0.0
  0
LINE
  5
202
100
AcDbEntity
  8
0
  6
CONTINUOUS
 62
               7
100
AcDbLine
 10
9.5
 20
-84.500015258789063
 30
0.0
 11
-6.5
 21
-84.500015258789063
 31
0.0
  0
LINE
  5
203
100
AcDbEntity
  8
0
  6
CONTINUOUS
 62
               7
100
AcDbLine
 10
115.0
 20
2.1999969482421875
 30
0.0
 11
117.0
 21
2.1999969482421875
 31
0.0
  0
LINE
  5
204
100
AcDbEntity
  8
0
  6
CONTINUOUS
 62
               7
100
AcDbLine
 10
115.0
 20
-2.1999969482421875
 30
0.0
 11
117.0
 21
-2.1999969482421875
 31
0.0
  0
LINE
  5
205
100
AcDbEntity
  8
0
  6
CONTINUOUS
 62
               2
100
AcDbLine
 10
111.20903015136719
 20
0.0
 30
0.0
 11
121.05165100097656
 21
0.0
 31
0.0
  0
LINE
  5
206
100
AcDbEntity
  8
0
  6
CONTINUOUS
 62
               7
100
AcDbLine
 10
109.5
 20
5.5
 30
0.0
 11
109.5
 21
-5.5
 31
0.0
  0
LINE
  5
207
100
AcDbEntity
  8
0
  6
CONTINUOUS
 62
               7
100
AcDbLine
 10
109.5
 20
-5.5
 30
0.0
 11
122.5
 21
-5.5
 31
0.0
  0
LINE
  5
208
100
AcDbEntity
  8
0
  6
CONTINUOUS
 62
               7
100
AcDbLine
 10
115.0
 20
-81.20001220703125
 30
0.0
 11
117.0
 21
-81.20001220703125
 31
0.0
  0
LINE
  5
209
100
AcDbEntity
  8
0
  6
CONTINUOUS
 62
               7
100
AcDbLine
 10
115.0
 20
-76.800003051757813
 30
0.0
 11
117.0
 21
-76.800003051757813
 31
0.0
  0
LINE
  5
20A
100
AcDbEntity
  8
0
  6
CONTINUOUS
 62
               7
100
AcDbLine
 10
109.5
 20
-84.500015258789063
 30
0.0
 11
109.5
 21
-73.500015258789063
 31
0.0
  0
LINE
  5
20B
100
AcDbEntity
  8
0
  6
CONTINUOUS
 62
               7
100
AcDbLine
 10
122.5
 20
-84.500015258789063
 30
0.0
 11
122.5
 21
5.5
 31
0.0
  0
LINE
  5
20C
100
AcDbEntity
  8
0
  6
CONTINUOUS
 62
               7
100
AcDbLine
 10
109.5
 20
-73.500015258789063
 30
0.0
 11
122.5
 21
-73.500015258789063
 31
0.0
  0
LINE
  5
20D
100
AcDbEntity
  8
0
  6
CONTINUOUS
 62
               7
100
AcDbLine
 10
85.5
 20
-78.100006103515625
 30
0.0
 11
106.5
 21
-78.100006103515625
 31
0.0
  0
LINE
  5
20E
100
AcDbEntity
  8
0
  6
CONTINUOUS
 62
               7
100
AcDbLine
 10
91.0
 20
-29.5
 30
0.0
 11
101.0
 21
-29.5
 31
0.0
  0
LINE
  5
20F
100
AcDbEntity
  8
0
  6
CONTINUOUS
 62
               7
100
AcDbLine
 10
101.0
 20
-30.5
 30
0.0
 11
106.5
 21
-30.5
 31
0.0
  0
LINE
  5
210
100
AcDbEntity
  8
0
  6
CONTINUOUS
 62
               7
100
AcDbLine
 10
91.0
 20
-30.5
 30
0.0
 11
91.0
 21
-29.300003051757813
 31
0.0
  0
LINE
  5
211
100
AcDbEntity
  8
0
  6
CONTINUOUS
 62
               7
100
AcDbLine
 10
101.0
 20
-30.5
 30
0.0
 11
101.0
 21
-29.300003051757813
 31
0.0
  0
LINE
  5
212
100
AcDbEntity
  8
0
  6
CONTINUOUS
 62
               7
100
AcDbLine
 10
91.0
 20
-29.300003051757813
 30
0.0
 11
101.0
 21
-29.300003051757813
 31
0.0
  0
LINE
  5
213
100
AcDbEntity
  8
0
  6
CONTINUOUS
 62
               7
100
AcDbLine
 10
85.5
 20
-30.5
 30
0.0
 11
91.0
 21
-30.5
 31
0.0
  0
LINE
  5
214
100
AcDbEntity
  8
0
  6
CONTINUOUS
 62
               7
100
AcDbLine
 10
85.5
 20
-84.500015258789063
 30
0.0
 11
122.5
 21
-84.500015258789063
 31
0.0
  0
LINE
  5
215
100
AcDbEntity
  8
0
  6
CONTINUOUS
 62
               7
100
AcDbLine
 10
9.5
 20
-84.500015258789063
 30
0.0
 11
9.5
 21
5.5
 31
0.0
  0
LINE
  5
216
100
AcDbEntity
  8
0
  6
CONTINUOUS
 62
               7
100
AcDbLine
 10
28.5
 20
-79.500015258789063
 30
0.0
 11
28.5
 21
5.5
 31
0.0
  0
LINE
  5
217
100
AcDbEntity
  8
0
  6
CONTINUOUS
 62
               7
100
AcDbLine
 10
106.5
 20
-84.500015258789063
 30
0.0
 11
106.5
 21
5.5
 31
0.0
  0
LINE
  5
218
100
AcDbEntity
  8
0
  6
CONTINUOUS
 62
               7
100
AcDbLine
 10
85.5
 20
-84.500015258789063
 30
0.0
 11
85.5
 21
5.5
 31
0.0
  0
LINE
  5
219
100
AcDbEntity
  8
0
  6
CONTINUOUS
 62
               2
100
AcDbLine
 10
76.0
 20
-86.081619262695312
 30
0.0
 11
76.0
 21
12.396148681640625
 31
0.0
  0
LINE
  5
21A
100
AcDbEntity
  8
0
  6
CONTINUOUS
 62
               7
100
AcDbLine
 10
-6.5
 20
5.5
 30
0.0
 11
14.0
 21
5.5
 31
0.0
  0
LINE
  5
21B
100
AcDbEntity
  8
0
  6
CONTINUOUS
 62
               4
100
AcDbLine
 10
13.560674697007016
 20
-61.560672617125704
 30
0.0
 11
11.439356535519437
 21
-59.439349985289766
 31
0.0
  0
LINE
  5
21C
100
AcDbEntity
  8
0
  6
CONTINUOUS
 62
               4
100
AcDbLine
 10
11.439360808810648
 20
-61.560661332857876
 30
0.0
 11
13.560673963508066
 21
-59.439333873045712
 31
0.0
  0
LINE
  5
21D
100
AcDbEntity
  8
0
  6
CONTINUOUS
 62
               4
100
AcDbLine
 10
26.560655991012027
 20
-63.560684271864375
 30
0.0
 11
24.439336756640841
 21
-61.439362891725978
 31
0.0
  0
LINE
  5
21E
100
AcDbEntity
  8
0
  6
CONTINUOUS
 62
               4
100
AcDbLine
 10
24.439358006431576
 20
-63.560697307897499
 30
0.0
 11
26.560674022151943
 21
-61.439372530294349
 31
0.0
  0
LINE
  5
21F
100
AcDbEntity
  8
0
  6
CONTINUOUS
 62
               7
100
AcDbLine
 10
26.5
 20
-76.000030517578125
 30
0.0
 11
28.0
 21
-76.000030517578125
 31
0.0
  0
LINE
  5
220
100
AcDbEntity
  8
0
  6
CONTINUOUS
 62
               7
100
AcDbLine
 10
25.5
 20
-79.000045776367188
 30
0.0
 11
25.5
 21
-78.000030517578125
 31
0.0
  0
LINE
  5
221
100
AcDbEntity
  8
0
  6
CONTINUOUS
 62
               7
100
AcDbLine
 10
26.5
 20
-70.000030517578125
 30
0.0
 11
28.0
 21
-70.000030517578125
 31
0.0
  0
LINE
  5
222
100
AcDbEntity
  8
0
  6
CONTINUOUS
 62
               7
100
AcDbLine
 10
25.5
 20
-68.000030517578125
 30
0.0
 11
25.5
 21
-67.000030517578125
 31
0.0
  0
LINE
  5
223
100
AcDbEntity
  8
0
  6
CONTINUOUS
 62
               7
100
AcDbLine
 10
10.0
 20
-70.000030517578125
 30
0.0
 11
11.5
 21
-70.000030517578125
 31
0.0
  0
LINE
  5
224
100
AcDbEntity
  8
0
  6
CONTINUOUS
 62
               7
100
AcDbLine
 10
12.5
 20
-68.000030517578125
 30
0.0
 11
12.5
 21
-67.000030517578125
 31
0.0
  0
LINE
  5
225
100
AcDbEntity
  8
0
  6
CONTINUOUS
 62
               7
100
AcDbLine
 10
10.0
 20
-76.000030517578125
 30
0.0
 11
11.5
 21
-76.000030517578125
 31
0.0
  0
LINE
  5
226
100
AcDbEntity
  8
0
  6
CONTINUOUS
 62
               7
100
AcDbLine
 10
12.5
 20
-79.000030517578125
 30
0.0
 11
12.5
 21
-78.000030517578125
 31
0.0
  0
LINE
  5
227
100
AcDbEntity
  8
0
  6
CONTINUOUS
 62
               7
100
AcDbLine
 10
12.500004910142991
 20
-76.999999777390428
 30
0.0
 11
11.49999811657591
 21
-77.999995107002349
 31
0.0
  0
LINE
  5
228
100
AcDbEntity
  8
0
  6
CONTINUOUS
 62
               7
100
AcDbLine
 10
11.500023658331429
 20
-68.000001814270036
 30
0.0
 11
12.500022781163807
 21
-69.000004814616659
 31
0.0
  0
LINE
  5
229
100
AcDbEntity
  8
0
  6
CONTINUOUS
 62
               7
100
AcDbLine
 10
25.49998842915835
 20
-69.000014824564346
 30
0.0
 11
26.499983758780218
 21
-68.000017556194507
 31
0.0
  0
LINE
  5
22A
100
AcDbEntity
  8
0
  6
CONTINUOUS
 62
               7
100
AcDbLine
 10
26.499998194073839
 20
-78.000013821106052
 30
0.0
 11
25.499997132484339
 21
-77.000012759516551
 31
0.0
  0
LINE
  5
22B
100
AcDbEntity
  8
0
  6
CONTINUOUS
 62
               7
100
AcDbLine
 10
12.5
 20
-77.000030517578125
 30
0.0
 11
12.5
 21
-69.000030517578125
 31
0.0
  0
LINE
  5
22C
100
AcDbEntity
  8
0
  6
CONTINUOUS
 62
               7
100
AcDbLine
 10
25.5
 20
-77.000030517578125
 30
0.0
 11
25.5
 21
-69.000030517578125
 31
0.0
  0
LINE
  5
22D
100
AcDbEntity
  8
0
  6
CONTINUOUS
 62
               7
100
AcDbLine
 10
12.5
 20
-69.000030517578125
 30
0.0
 11
25.5
 21
-69.000030517578125
 31
0.0
  0
LINE
  5
22E
100
AcDbEntity
  8
0
  6
CONTINUOUS
 62
               7
100
AcDbLine
 10
25.5
 20
-77.000030517578125
 30
0.0
 11
12.5
 21
-77.000030517578125
 31
0.0
  0
LINE
  5
22F
100
AcDbEntity
  8
0
  6
CONTINUOUS
 62
               7
100
AcDbLine
 10
11.5
 20
-68.000030517578125
 30
0.0
 11
26.5
 21
-68.000030517578125
 31
0.0
  0
LINE
  5
230
100
AcDbEntity
  8
0
  6
CONTINUOUS
 62
               7
100
AcDbLine
 10
11.5
 20
-78.000030517578125
 30
0.0
 11
11.5
 21
-68.000030517578125
 31
0.0
  0
LINE
  5
231
100
AcDbEntity
  8
0
  6
CONTINUOUS
 62
               7
100
AcDbLine
 10
26.5
 20
-78.000030517578125
 30
0.0
 11
26.5
 21
-68.000030517578125
 31
0.0
  0
LINE
  5
232
100
AcDbEntity
  8
0
  6
CONTINUOUS
 62
               7
100
AcDbLine
 10
26.5
 20
-78.000030517578125
 30
0.0
 11
11.5
 21
-78.000030517578125
 31
0.0
  0
LINE
  5
233
100
AcDbEntity
  8
0
  6
CONTINUOUS
 62
               7
100
AcDbLine
 10
10.5
 20
-90.000019073486328
 30
0.0
 11
27.5
 21
-90.000019073486328
 31
0.0
  0
LINE
  5
234
100
AcDbEntity
  8
0
  6
CONTINUOUS
 62
               4
100
AcDbLine
 10
24.439349366989518
 20
-21.560657230595098
 30
0.0
 11
26.560678614941025
 21
-19.439345685223088
 31
0.0
  0
LINE
  5
235
100
AcDbEntity
  8
0
  6
CONTINUOUS
 62
               4
100
AcDbLine
 10
11.439344190212068
 20
-19.560680712482281
 30
0.0
 11
13.560666643234072
 21
-17.439362550994701
 31
0.0
  0
LINE
  5
236
100
AcDbEntity
  8
0
  6
CONTINUOUS
 62
               4
100
AcDbLine
 10
13.560680612491524
 20
-19.560641548422609
 30
0.0
 11
11.439367815421974
 21
-17.439313373354707
 31
0.0
  0
LINE
  5
237
100
AcDbEntity
  8
0
  6
CONTINUOUS
 62
               4
100
AcDbLine
 10
26.56067798157801
 20
-21.560668149036246
 30
0.0
 11
24.439353203974861
 21
-19.439352133315879
 31
0.0
  0
LINE
  5
238
100
AcDbEntity
  8
0
  6
CONTINUOUS
 62
               4
100
AcDbLine
 10
25.5
 20
-59.500015258789063
 30
0.0
 11
28.0
 21
-59.500015258789063
 31
0.0
  0
LINE
  5
239
100
AcDbEntity
  8
0
  6
CONTINUOUS
 62
               4
100
AcDbLine
 10
12.5
 20
-21.500015258789063
 30
0.0
 11
10.0
 21
-21.500015258789063
 31
0.0
  0
LINE
  5
23A
100
AcDbEntity
  8
0
  6
CONTINUOUS
 62
               4
100
AcDbLine
 10
15.5
 20
-18.5
 30
0.0
 11
15.5
 21
-14.20001220703125
 31
0.0
  0
LINE
  5
23B
100
AcDbEntity
  8
0
  6
CONTINUOUS
 62
               4
100
AcDbLine
 10
22.5
 20
-62.500015258789063
 30
0.0
 11
22.5
 21
-66.800033569335937
 31
0.0
  0
LINE
  5
23C
100
AcDbEntity
  8
0
  6
CONTINUOUS
 62
               4
100
AcDbLine
 10
10.0
 20
-57.500030517578125
 30
0.0
 11
12.5
 21
-57.500030517578125
 31
0.0
  0
LINE
  5
23D
100
AcDbEntity
  8
0
  6
CONTINUOUS
 62
               4
100
AcDbLine
 10
10.0
 20
-63.500030517578125
 30
0.0
 11
12.5
 21
-63.500030517578125
 31
0.0
  0
LINE
  5
23E
100
AcDbEntity
  8
0
  6
CONTINUOUS
 62
               4
100
AcDbLine
 10
10.0
 20
-66.800033569335937
 30
0.0
 11
28.0
 21
-66.800033569335937
 31
0.0
  0
LINE
  5
23F
100
AcDbEntity
  8
0
  6
CONTINUOUS
 62
               4
100
AcDbLine
 10
10.0
 20
-14.200027465820313
 30
0.0
 11
28.0
 21
-14.200027465820313
 31
0.0
  0
LINE
  5
240
100
AcDbEntity
  8
0
  6
CONTINUOUS
 62
               7
100
AcDbLine
 10
10.0
 20
-79.000030517578125
 30
0.0
 11
28.0
 21
-79.000030517578125
 31
0.0
  0
LINE
  5
241
100
AcDbEntity
  8
0
  6
CONTINUOUS
 62
               7
100
AcDbLine
 10
10.0
 20
-67.000030517578125
 30
0.0
 11
28.0
 21
-67.000030517578125
 31
0.0
  0
LINE
  5
242
100
AcDbEntity
  8
0
  6
CONTINUOUS
 62
               7
100
AcDbLine
 10
10.0
 20
-4.0000152587890625
 30
0.0
 11
28.0
 21
-4.0000152587890625
 31
0.0
  0
LINE
  5
243
100
AcDbEntity
  8
0
  6
CONTINUOUS
 62
               7
100
AcDbLine
 10
28.0
 20
-89.500026702880859
 30
0.0
 11
28.0
 21
-63.645660400390625
 31
0.0
  0
LINE
  5
244
100
AcDbEntity
  8
0
  6
CONTINUOUS
 62
               7
100
AcDbLine
 10
10.0
 20
-14.000015258789063
 30
0.0
 11
28.0
 21
-14.000015258789063
 31
0.0
  0
LINE
  5
245
100
AcDbEntity
  8
0
  6
CONTINUOUS
 62
               4
100
AcDbLine
 10
23.0
 20
46.999984741210937
 30
0.0
 11
23.0
 21
53.499984741210938
 31
0.0
  0
LINE
  5
246
100
AcDbEntity
  8
0
  6
CONTINUOUS
 62
               4
100
AcDbLine
 10
15.0
 20
46.999984741210937
 30
0.0
 11
15.0
 21
53.499984741210938
 31
0.0
  0
LINE
  5
247
100
AcDbEntity
  8
0
  6
CONTINUOUS
 62
               4
100
AcDbLine
 10
14.100006103515625
 20
46.999984741210937
 30
0.0
 11
14.100006103515625
 21
53.499984741210938
 31
0.0
  0
LINE
  5
248
100
AcDbEntity
  8
0
  6
CONTINUOUS
 62
               4
100
AcDbLine
 10
23.900009155273437
 20
46.999984741210937
 30
0.0
 11
23.900009155273437
 21
53.499984741210938
 31
0.0
  0
LINE
  5
249
100
AcDbEntity
  8
0
  6
CONTINUOUS
 62
               4
100
AcDbLine
 10
16.284988403320313
 20
53.499984741210938
 30
0.0
 11
16.284988403320313
 21
56.790756225585937
 31
0.0
  0
LINE
  5
24A
100
AcDbEntity
  8
0
  6
CONTINUOUS
 62
               4
100
AcDbLine
 10
17.715011596679688
 20
53.499984741210938
 30
0.0
 11
17.715011596679688
 21
57.173934936523437
 31
0.0
  0
LINE
  5
24B
100
AcDbEntity
  8
0
  6
CONTINUOUS
 62
               4
100
AcDbLine
 10
16.599990844726562
 20
66.499984741210938
 30
0.0
 11
17.399993896484375
 21
66.499984741210938
 31
0.0
  0
LINE
  5
24C
100
AcDbEntity
  8
0
  6
CONTINUOUS
 62
               4
100
AcDbLine
 10
16.599990844726562
 20
61.499984741210937
 30
0.0
 11
16.599990844726562
 21
66.499984741210938
 31
0.0
  0
LINE
  5
24D
100
AcDbEntity
  8
0
  6
CONTINUOUS
 62
               4
100
AcDbLine
 10
17.400009155273438
 20
61.499984741210937
 30
0.0
 11
17.400009155273438
 21
66.499984741210938
 31
0.0
  0
LINE
  5
24E
100
AcDbEntity
  8
0
  6
CONTINUOUS
 62
               4
100
AcDbLine
 10
16.284988403320313
 20
61.499984741210937
 30
0.0
 11
17.714996337890625
 21
61.499984741210937
 31
0.0
  0
LINE
  5
24F
100
AcDbEntity
  8
0
  6
CONTINUOUS
 62
               4
100
AcDbLine
 10
16.284988403320313
 20
57.826034545898438
 30
0.0
 11
16.284988403320313
 21
61.499984741210937
 31
0.0
  0
LINE
  5
250
100
AcDbEntity
  8
0
  6
CONTINUOUS
 62
               4
100
AcDbLine
 10
17.715011596679688
 20
58.209213256835938
 30
0.0
 11
17.715011596679688
 21
61.499984741210937
 31
0.0
  0
LINE
  5
251
100
AcDbEntity
  8
0
  6
CONTINUOUS
 62
               4
100
AcDbLine
 10
23.050003051757813
 20
45.999984741210938
 30
0.0
 11
23.050003051757813
 21
46.999984741210937
 31
0.0
  0
LINE
  5
252
100
AcDbEntity
  8
0
  6
CONTINUOUS
 62
               4
100
AcDbLine
 10
14.949996948242188
 20
45.999984741210938
 30
0.0
 11
14.949996948242188
 21
46.999984741210937
 31
0.0
  0
LINE
  5
253
100
AcDbEntity
  8
0
  6
CONTINUOUS
 62
               4
100
AcDbLine
 10
14.949996948242188
 20
44.999984741210937
 30
0.0
 11
15.500015258789063
 21
44.999984741210937
 31
0.0
  0
LINE
  5
254
100
AcDbEntity
  8
0
  6
CONTINUOUS
 62
               4
100
AcDbLine
 10
14.949996948242188
 20
45.999984741210938
 30
0.0
 11
15.500015258789063
 21
45.999984741210938
 31
0.0
  0
LINE
  5
255
100
AcDbEntity
  8
0
  6
CONTINUOUS
 62
               4
100
AcDbLine
 10
22.500015258789063
 20
44.999984741210937
 30
0.0
 11
23.050003051757813
 21
44.999984741210937
 31
0.0
  0
LINE
  5
256
100
AcDbEntity
  8
0
  6
CONTINUOUS
 62
               4
100
AcDbLine
 10
22.500015258789063
 20
45.999984741210938
 30
0.0
 11
23.050003051757813
 21
45.999984741210938
 31
0.0
  0
LINE
  5
257
100
AcDbEntity
  8
0
  6
CONTINUOUS
 62
               4
100
AcDbLine
 10
22.500015258789063
 20
46.999984741210937
 30
0.0
 11
23.949996948242188
 21
46.999984741210937
 31
0.0
  0
LINE
  5
258
100
AcDbEntity
  8
0
  6
CONTINUOUS
 62
               4
100
AcDbLine
 10
14.100006103515625
 20
53.499984741210938
 30
0.0
 11
23.900009155273437
 21
53.499984741210938
 31
0.0
  0
LINE
  5
259
100
AcDbEntity
  8
0
  6
CONTINUOUS
 62
               4
100
AcDbLine
 10
15.500015258789063
 20
51.999984741210937
 30
0.0
 11
22.500015258789063
 21
51.999984741210937
 31
0.0
  0
LINE
  5
25A
100
AcDbEntity
  8
0
  6
CONTINUOUS
 62
               4
100
AcDbLine
 10
15.500015258789063
 20
46.556137084960938
 30
0.0
 11
22.500015258789063
 21
46.556137084960938
 31
0.0
  0
LINE
  5
25B
100
AcDbEntity
  8
0
  6
CONTINUOUS
 62
               4
100
AcDbLine
 10
15.500015258789063
 20
42.998458862304687
 30
0.0
 11
22.500015258789063
 21
42.998458862304687
 31
0.0
  0
LINE
  5
25C
100
AcDbEntity
  8
0
  6
CONTINUOUS
 62
               4
100
AcDbLine
 10
15.5
 20
42.998458862304687
 30
0.0
 11
15.5
 21
53.499984741210938
 31
0.0
  0
LINE
  5
25D
100
AcDbEntity
  8
0
  6
CONTINUOUS
 62
               4
100
AcDbLine
 10
22.5
 20
42.998458862304687
 30
0.0
 11
22.5
 21
53.499984741210938
 31
0.0
  0
LINE
  5
25E
100
AcDbEntity
  8
0
  6
CONTINUOUS
 62
               4
100
AcDbLine
 10
23.050003051757813
 20
42.499984741210937
 30
0.0
 11
23.050003051757813
 21
44.999984741210937
 31
0.0
  0
LINE
  5
25F
100
AcDbEntity
  8
0
  6
CONTINUOUS
 62
               4
100
AcDbLine
 10
14.949996948242188
 20
42.499984741210937
 30
0.0
 11
14.949996948242188
 21
44.999984741210937
 31
0.0
  0
LINE
  5
260
100
AcDbEntity
  8
0
  6
CONTINUOUS
 62
               4
100
AcDbLine
 10
14.050003051757813
 20
46.999984741210937
 30
0.0
 11
15.500015258789063
 21
46.999984741210937
 31
0.0
  0
LINE
  5
261
100
AcDbEntity
  8
0
  6
CONTINUOUS
 62
               4
100
AcDbLine
 10
23.949996948242188
 20
33.499984741210938
 30
0.0
 11
23.949996948242188
 21
46.999984741210937
 31
0.0
  0
LINE
  5
262
100
AcDbEntity
  8
0
  6
CONTINUOUS
 62
             200
100
AcDbLine
 10
23.949996948242188
 20
37.999984741210937
 30
0.0
 11
14.050003051757813
 21
37.999984741210937
 31
0.0
  0
LINE
  5
263
100
AcDbEntity
  8
0
  6
CONTINUOUS
 62
               4
100
AcDbLine
 10
23.500015258789063
 20
42.499984741210937
 30
0.0
 11
14.500015258789063
 21
42.499984741210937
 31
0.0
  0
LINE
  5
264
100
AcDbEntity
  8
0
  6
CONTINUOUS
 62
               4
100
AcDbLine
 10
14.050003051757813
 20
33.499984741210938
 30
0.0
 11
14.050003051757813
 21
46.999984741210937
 31
0.0
  0
LINE
  5
265
100
AcDbEntity
  8
0
  6
CONTINUOUS
 62
               7
100
AcDbLine
 10
17.073211669921875
 20
6.4999847412109375
 30
0.0
 11
20.926788330078125
 21
6.4999847412109375
 31
0.0
  0
LINE
  5
266
100
AcDbEntity
  8
0
  6
CONTINUOUS
 62
               7
100
AcDbLine
 10
17.073211669921875
 20
5.8999786376953125
 30
0.0
 11
20.926788330078125
 21
5.8999786376953125
 31
0.0
  0
LINE
  5
267
100
AcDbEntity
  8
0
  6
CONTINUOUS
 62
               4
100
AcDbLine
 10
14.0
 20
9.4999847412109375
 30
0.0
 11
24.0
 21
9.4999847412109375
 31
0.0
  0
LINE
  5
268
100
AcDbEntity
  8
0
  6
CONTINUOUS
 62
               4
100
AcDbLine
 10
14.000015258789063
 20
33.499984741210938
 30
0.0
 11
24.000015258789063
 21
33.499984741210938
 31
0.0
  0
LINE
  5
269
100
AcDbEntity
  8
0
  6
CONTINUOUS
 62
               2
100
AcDbLine
 10
19.0
 20
-94.500003814697266
 30
0.0
 11
19.0
 21
55.255050659179687
 31
0.0
  0
LINE
  5
26A
100
AcDbEntity
  8
0
  6
CONTINUOUS
 62
               2
100
AcDbLine
 10
16.5
 20
6.199981689453125
 30
0.0
 11
21.5
 21
6.199981689453125
 31
0.0
  0
LINE
  5
26B
100
AcDbEntity
  8
0
  6
CONTINUOUS
 62
               7
100
AcDbLine
 10
14.0
 20
-0.0000152587890625
 30
0.0
 11
24.0
 21
-0.0000152587890625
 31
0.0
  0
LINE
  5
26C
100
AcDbEntity
  8
0
  6
CONTINUOUS
 62
               7
100
AcDbLine
 10
66.5
 20
-79.500015258789063
 30
0.0
 11
85.5
 21
-79.500015258789063
 31
0.0
  0
LINE
  5
26D
100
AcDbEntity
  8
0
  6
CONTINUOUS
 62
               7
100
AcDbLine
 10
28.0
 20
-79.500015258789063
 30
0.0
 11
28.5
 21
-79.500015258789063
 31
0.0
  0
LINE
  5
26E
100
AcDbEntity
  8
0
  6
CONTINUOUS
 62
               7
100
AcDbLine
 10
66.5
 20
5.5
 30
0.0
 11
122.5
 21
5.5
 31
0.0
  0
LINE
  5
26F
100
AcDbEntity
  8
0
  6
CONTINUOUS
 62
               7
100
AcDbLine
 10
24.0
 20
5.5
 30
0.0
 11
28.5
 21
5.5
 31
0.0
  0
LINE
  5
270
100
AcDbEntity
  8
0
  6
CONTINUOUS
 62
               7
100
AcDbLine
 10
9.5
 20
-79.500015258789063
 30
0.0
 11
10.0
 21
-79.500015258789063
 31
0.0
  0
LINE
  5
271
100
AcDbEntity
  8
0
  6
CONTINUOUS
 62
               7
100
AcDbLine
 10
84.762191772460938
 20
-22.149993896484375
 30
0.0
 11
85.0
 21
-22.149993896484375
 31
0.0
  0
LINE
  5
272
100
AcDbEntity
  8
0
  6
CONTINUOUS
 62
               7
100
AcDbLine
 10
84.762176513671875
 20
-18.849990844726563
 30
0.0
 11
85.0
 21
-18.849990844726563
 31
0.0
  0
LINE
  5
273
100
AcDbEntity
  8
0
  6
CONTINUOUS
 62
               4
100
AcDbLine
 10
67.0
 20
-62.149993896484375
 30
0.0
 11
67.237823486328125
 21
-62.149993896484375
 31
0.0
  0
LINE
  5
274
100
AcDbEntity
  8
0
  6
CONTINUOUS
 62
               4
100
AcDbLine
 10
67.0
 20
-58.849990844726563
 30
0.0
 11
67.237823486328125
 21
-58.849990844726563
 31
0.0
  0
LINE
  5
275
100
AcDbEntity
  8
0
  6
CONTINUOUS
 62
               4
100
AcDbLine
 10
67.0
 20
-67.499984741210938
 30
0.0
 11
85.0
 21
-67.499984741210938
 31
0.0
  0
LINE
  5
276
100
AcDbEntity
  8
0
  6
CONTINUOUS
 62
               4
100
AcDbLine
 10
85.0
 20
-67.499984741210938
 30
0.0
 11
85.0
 21
-22.149993896484375
 31
0.0
  0
LINE
  5
277
100
AcDbEntity
  8
0
  6
CONTINUOUS
 62
               4
100
AcDbLine
 10
85.0
 20
-18.849990844726563
 30
0.0
 11
85.0
 21
-2.4999847412109375
 31
0.0
  0
LINE
  5
278
100
AcDbEntity
  8
0
  6
CONTINUOUS
 62
               4
100
AcDbLine
 10
67.0
 20
-58.849990844726563
 30
0.0
 11
67.0
 21
-2.4999847412109375
 31
0.0
  0
LINE
  5
279
100
AcDbEntity
  8
0
  6
CONTINUOUS
 62
               4
100
AcDbLine
 10
81.439412999502565
 20
-19.439313062192014
 30
0.0
 11
83.560733306757356
 21
-21.560633548260739
 31
0.0
  0
LINE
  5
27A
100
AcDbEntity
  8
0
  6
CONTINUOUS
 62
               4
100
AcDbLine
 10
81.439358962126789
 20
-21.560665827631965
 30
0.0
 11
83.560679448195515
 21
-19.439345520377174
 31
0.0
  0
LINE
  5
27B
100
AcDbEntity
  8
0
  6
CONTINUOUS
 62
               4
100
AcDbLine
 10
68.439379431967723
 20
-59.439274393087089
 30
0.0
 11
70.560699739222514
 21
-61.560594879155815
 31
0.0
  0
LINE
  5
27C
100
AcDbEntity
  8
0
  6
CONTINUOUS
 62
               4
100
AcDbLine
 10
68.439367878614519
 20
-61.560669642553194
 30
0.0
 11
70.560677575089301
 21
-59.439360124891436
 31
0.0
  0
LINE
  5
27D
100
AcDbEntity
  8
0
  6
CONTINUOUS
 62
               4
100
AcDbLine
 10
67.0
 20
-67.499984741210938
 30
0.0
 11
67.0
 21
-62.149993896484375
 31
0.0
  0
ENDBLK
  5
27E
100
AcDbEntity
  8
0
100
AcDbBlockEnd
  0
BLOCK
  5
27F
100
AcDbEntity
  8
0
100
AcDbBlockBegin
  2
F18MN_SAMPLE-2
 70
               0
 10
0.0
 20
0.0
 30
0.0
  3
F18MN_SAMPLE-2
  1

  0
LINE
  5
280
100
AcDbEntity
  8
0
  6
CONTINUOUS
 62
               4
100
AcDbLine
 10
-97.800030672851562
 20
-57.200018310546881
 30
0.0
 11
-97.800030672851562
 21
-73.400018310546869
 31
0.0
  0
LINE
  5
281
100
AcDbEntity
  8
0
  6
CONTINUOUS
 62
             200
100
AcDbLine
 10
-99.528667325585388
 20
-65.300018310546875
 30
0.0
 11
-76.000030517578125
 21
-65.300018310546875
 31
0.0
  0
LINE
  5
282
100
AcDbEntity
  8
0
  6
CONTINUOUS
 62
               4
100
AcDbLine
 10
-97.800030672851562
 20
-33.200079345703131
 30
0.0
 11
-97.800030672851562
 21
-49.400079345703119
 31
0.0
  0
LINE
  5
283
100
AcDbEntity
  8
0
  6
CONTINUOUS
 62
             200
100
AcDbLine
 10
-99.528667325585388
 20
-41.300079345703125
 30
0.0
 11
-76.000030517578125
 21
-41.300079345703125
 31
0.0
  0
LINE
  5
284
100
AcDbEntity
  8
0
  6
CONTINUOUS
 62
               4
100
AcDbLine
 10
-117.59999962939452
 20
-22.900022888183599
 30
0.0
 11
-117.59999962939452
 21
-39.100022888183588
 31
0.0
  0
LINE
  5
285
100
AcDbEntity
  8
0
  6
CONTINUOUS
 62
             200
100
AcDbLine
 10
-119.9867283323677
 20
-31.000022888183594
 30
0.0
 11
-106.59999962939452
 21
-31.000022888183594
 31
0.0
  0
LINE
  5
286
100
AcDbEntity
  8
0
  6
CONTINUOUS
 62
             200
100
AcDbLine
 10
-119.9867283323677
 20
-50.000022888183594
 30
0.0
 11
-106.59999962939452
 21
-50.000022888183594
 31
0.0
  0
LINE
  5
287
100
AcDbEntity
  8
0
  6
CONTINUOUS
 62
               2
100
AcDbLine
 10
-5.9531425650114329
 20
-79.0
 30
0.0
 11
4.7868104018267559
 21
-79.0
 31
0.0
  0
LINE
  5
288
100
AcDbEntity
  8
0
  6
CONTINUOUS
 62
               2
100
AcDbLine
 10
-5.9531425650114329
 20
0.0
 30
0.0
 11
4.7868104018267559
 21
0.0
 31
0.0
  0
LINE
  5
289
100
AcDbEntity
  8
0
  6
CONTINUOUS
 62
               7
100
AcDbLine
 10
-86.0
 20
-31.300079345703125
 30
0.0
 11
-86.0
 21
-4.0000152587890625
 31
0.0
  0
LINE
  5
28A
100
AcDbEntity
  8
0
  6
CONTINUOUS
 62
               4
100
AcDbLine
 10
-86.699988948242179
 20
-17.550033569335923
 30
0.0
 11
-86.699988948242179
 21
-23.450027465820298
 31
0.0
  0
LINE
  5
28B
100
AcDbEntity
  8
0
  6
CONTINUOUS
 62
               4
100
AcDbLine
 10
-86.000019125927793
 20
-20.850030866390625
 30
0.0
 11
-86.700026458529464
 21
-21.037597267429192
 31
0.0
  0
LINE
  5
28C
100
AcDbEntity
  8
0
  6
CONTINUOUS
 62
               4
100
AcDbLine
 10
-86.700007965828263
 20
-20.150029517626535
 30
0.0
 11
-86.000015328890186
 21
-19.962467109047793
 31
0.0
  0
LINE
  5
28D
100
AcDbEntity
  8
0
  6
CONTINUOUS
 62
               4
100
AcDbLine
 10
-86.699988948242179
 20
-17.550033569335923
 30
0.0
 11
-86.0
 21
-17.550033569335923
 31
0.0
  0
LINE
  5
28E
100
AcDbEntity
  8
0
  6
CONTINUOUS
 62
               4
100
AcDbLine
 10
-86.699988948242179
 20
-23.450027465820298
 30
0.0
 11
-86.0
 21
-23.450027465820298
 31
0.0
  0
ARC
  5
28F
100
AcDbEntity
  8
0
  6
CONTINUOUS
 62
               4
100
AcDbCircle
 10
-87.199973689453145
 20
-21.750015258789063
 30
0.0
 40
1.5
100
AcDbArc
 50
180.00001798608864
 51
269.99998201391003
  0
ARC
  5
290
100
AcDbEntity
  8
0
  6
CONTINUOUS
 62
               4
100
AcDbCircle
 10
-87.199973689453145
 20
-19.250030517578125
 30
0.0
 40
1.5
100
AcDbArc
 50
89.999908703062417
 51
179.99994604173247
  0
LINE
  5
291
100
AcDbEntity
  8
0
  6
CONTINUOUS
 62
               4
100
AcDbLine
 10
-104.69999942939452
 20
-40.000022888183594
 30
0.0
 11
-97.800030672851562
 21
-40.000022888183594
 31
0.0
  0
LINE
  5
292
100
AcDbEntity
  8
0
  6
CONTINUOUS
 62
               4
100
AcDbLine
 10
-104.69999942939452
 20
-41.000022888183587
 30
0.0
 11
-97.800030672851562
 21
-41.000022888183587
 31
0.0
  0
LINE
  5
293
100
AcDbEntity
  8
0
  6
CONTINUOUS
 62
               4
100
AcDbLine
 10
-88.699973689453117
 20
-21.750030517578111
 30
0.0
 11
-88.699973689453117
 21
-19.250030517578111
 31
0.0
  0
LINE
  5
294
100
AcDbEntity
  8
0
  6
CONTINUOUS
 62
               4
100
AcDbLine
 10
-109.79999962939453
 20
-41.000022888183587
 30
0.0
 11
-109.79999962939453
 21
-59.000022888183587
 31
0.0
  0
LINE
  5
295
100
AcDbEntity
  8
0
  6
CONTINUOUS
 62
               4
100
AcDbLine
 10
-110.99999962939452
 20
-41.000022888183587
 30
0.0
 11
-110.99999962939452
 21
-59.000022888183587
 31
0.0
  0
LINE
  5
296
100
AcDbEntity
  8
0
  6
CONTINUOUS
 62
               4
100
AcDbLine
 10
-113.36491262939452
 20
-41.000022888183587
 30
0.0
 11
-113.36491262939452
 21
-59.000022888183587
 31
0.0
  0
LINE
  5
297
100
AcDbEntity
  8
0
  6
CONTINUOUS
 62
               4
100
AcDbLine
 10
-113.79999862939454
 20
-41.75361328818358
 30
0.0
 11
-113.79999862939454
 21
-58.246432488183586
 31
0.0
  0
LINE
  5
298
100
AcDbEntity
  8
0
  6
CONTINUOUS
 62
               4
100
AcDbLine
 10
-115.39999962939453
 20
-42.900022888183599
 30
0.0
 11
-115.39999962939453
 21
-57.100022888183588
 31
0.0
  0
LINE
  5
299
100
AcDbEntity
  8
0
  6
CONTINUOUS
 62
               4
100
AcDbLine
 10
-115.89999962939453
 20
-56.000022888183587
 30
0.0
 11
-115.49999962939452
 21
-56.000022888183587
 31
0.0
  0
LINE
  5
29A
100
AcDbEntity
  8
0
  6
CONTINUOUS
 62
               4
100
AcDbLine
 10
-105.09999922939451
 20
-41.000022888183587
 30
0.0
 11
-105.09999922939451
 21
-59.000022888183587
 31
0.0
  0
LINE
  5
29B
100
AcDbEntity
  8
0
  6
CONTINUOUS
 62
               4
100
AcDbLine
 10
-104.89999962939453
 20
-58.800022888183584
 30
0.0
 11
-104.69999942939452
 21
-59.000022888183587
 31
0.0
  0
LINE
  5
29C
100
AcDbEntity
  8
0
  6
CONTINUOUS
 62
               4
100
AcDbLine
 10
-104.69999942939452
 20
-59.000022888183587
 30
0.0
 11
-104.69999942939452
 21
-40.500022888183594
 31
0.0
  0
LINE
  5
29D
100
AcDbEntity
  8
0
  6
CONTINUOUS
 62
               4
100
AcDbLine
 10
-110.79999962939453
 20
-41.700022888183589
 30
0.0
 11
-109.89999962939453
 21
-41.700022888183589
 31
0.0
  0
LINE
  5
29E
100
AcDbEntity
  8
0
  6
CONTINUOUS
 62
               4
100
AcDbLine
 10
-110.79999962939453
 20
-58.300022888183584
 30
0.0
 11
-109.89999962939453
 21
-58.300022888183584
 31
0.0
  0
LINE
  5
29F
100
AcDbEntity
  8
0
  6
CONTINUOUS
 62
               4
100
AcDbLine
 10
-104.69999962939451
 20
-59.000022888183587
 30
0.0
 11
-97.800030672851562
 21
-59.000022888183587
 31
0.0
  0
LINE
  5
2A0
100
AcDbEntity
  8
0
  6
CONTINUOUS
 62
               4
100
AcDbLine
 10
-104.89999962939453
 20
-41.200022888183589
 30
0.0
 11
-104.69999942939452
 21
-41.000022888183587
 31
0.0
  0
LINE
  5
2A1
100
AcDbEntity
  8
0
  6
CONTINUOUS
 62
               4
100
AcDbLine
 10
-109.79999962939453
 20
-41.000022888183587
 30
0.0
 11
-109.89999962939453
 21
-41.100022888183581
 31
0.0
  0
LINE
  5
2A2
100
AcDbEntity
  8
0
  6
CONTINUOUS
 62
               4
100
AcDbLine
 10
-109.79999962939453
 20
-59.000022888183587
 30
0.0
 11
-109.89999962939453
 21
-58.900022888183585
 31
0.0
  0
LINE
  5
2A3
100
AcDbEntity
  8
0
  6
CONTINUOUS
 62
               4
100
AcDbLine
 10
-104.89999902939454
 20
-41.200022888183589
 30
0.0
 11
-105.09999922939451
 21
-41.000022888183587
 31
0.0
  0
LINE
  5
2A4
100
AcDbEntity
  8
0
  6
CONTINUOUS
 62
               4
100
AcDbLine
 10
-109.79999962939453
 20
-41.000022888183587
 30
0.0
 11
-105.09999922939451
 21
-41.000022888183587
 31
0.0
  0
LINE
  5
2A5
100
AcDbEntity
  8
0
  6
CONTINUOUS
 62
               4
100
AcDbLine
 10
-109.79999962939453
 20
-59.000022888183587
 30
0.0
 11
-105.09999922939451
 21
-59.000022888183587
 31
0.0
  0
LINE
  5
2A6
100
AcDbEntity
  8
0
  6
CONTINUOUS
 62
               4
100
AcDbLine
 10
-104.89999922939452
 20
-41.200022888183589
 30
0.0
 11
-104.89999922939452
 21
-58.800022888183584
 31
0.0
  0
LINE
  5
2A7
100
AcDbEntity
  8
0
  6
CONTINUOUS
 62
               4
100
AcDbLine
 10
-104.89999902939454
 20
-58.800022888183584
 30
0.0
 11
-105.09999922939451
 21
-59.000022888183587
 31
0.0
  0
LINE
  5
2A8
100
AcDbEntity
  8
0
  6
CONTINUOUS
 62
               4
100
AcDbLine
 10
-113.36491362939452
 20
-41.000022888183587
 30
0.0
 11
-110.99999962939452
 21
-41.000022888183587
 31
0.0
  0
LINE
  5
2A9
100
AcDbEntity
  8
0
  6
CONTINUOUS
 62
               4
100
AcDbLine
 10
-110.79999962939453
 20
-58.800022888183584
 30
0.0
 11
-110.99999962939452
 21
-59.000022888183587
 31
0.0
  0
LINE
  5
2AA
100
AcDbEntity
  8
0
  6
CONTINUOUS
 62
               4
100
AcDbLine
 10
-113.36491362939452
 20
-59.000022888183587
 30
0.0
 11
-110.99999962939452
 21
-59.000022888183587
 31
0.0
  0
LINE
  5
2AB
100
AcDbEntity
  8
0
  6
CONTINUOUS
 62
               4
100
AcDbLine
 10
-110.79999962939453
 20
-58.800022888183584
 30
0.0
 11
-110.79999962939453
 21
-41.200022888183589
 31
0.0
  0
LINE
  5
2AC
100
AcDbEntity
  8
0
  6
CONTINUOUS
 62
               4
100
AcDbLine
 10
-113.79999862939454
 20
-41.75361328818358
 30
0.0
 11
-114.39999862939453
 21
-42.10002368818359
 31
0.0
  0
LINE
  5
2AD
100
AcDbEntity
  8
0
  6
CONTINUOUS
 62
               4
100
AcDbLine
 10
-113.79999862939454
 20
-58.246432488183586
 30
0.0
 11
-114.39999862939453
 21
-57.90002208818359
 31
0.0
  0
LINE
  5
2AE
100
AcDbEntity
  8
0
  6
CONTINUOUS
 62
               4
100
AcDbLine
 10
-113.36491262939452
 20
-59.000022888183587
 30
0.0
 11
-113.79999862939454
 21
-58.246432488183586
 31
0.0
  0
LINE
  5
2AF
100
AcDbEntity
  8
0
  6
CONTINUOUS
 62
               4
100
AcDbLine
 10
-113.36491262939452
 20
-41.000022888183587
 30
0.0
 11
-113.79999862939454
 21
-41.75361328818358
 31
0.0
  0
LINE
  5
2B0
100
AcDbEntity
  8
0
  6
CONTINUOUS
 62
               4
100
AcDbLine
 10
-110.79999962939453
 20
-41.200022888183589
 30
0.0
 11
-110.99999962939452
 21
-41.000022888183587
 31
0.0
  0
LINE
  5
2B1
100
AcDbEntity
  8
0
  6
CONTINUOUS
 62
               4
100
AcDbLine
 10
-114.39999862939453
 20
-42.100022888183581
 30
0.0
 11
-114.39999862939453
 21
-57.90002208818359
 31
0.0
  0
LINE
  5
2B2
100
AcDbEntity
  8
0
  6
CONTINUOUS
 62
               4
100
AcDbLine
 10
-109.89999962939453
 20
-58.900022888183585
 30
0.0
 11
-109.89999962939453
 21
-41.100022888183581
 31
0.0
  0
LINE
  5
2B3
100
AcDbEntity
  8
0
  6
CONTINUOUS
 62
               4
100
AcDbLine
 10
-115.39999962939453
 20
-42.900022888183599
 30
0.0
 11
-114.39999862939453
 21
-42.900022888183592
 31
0.0
  0
LINE
  5
2B4
100
AcDbEntity
  8
0
  6
CONTINUOUS
 62
               4
100
AcDbLine
 10
-115.49999962939452
 20
-43.000022888183594
 30
0.0
 11
-115.49999962939452
 21
-57.000022888183587
 31
0.0
  0
LINE
  5
2B5
100
AcDbEntity
  8
0
  6
CONTINUOUS
 62
               4
100
AcDbLine
 10
-115.49999962939452
 20
-43.000022888183594
 30
0.0
 11
-115.39999962939453
 21
-42.900022888183599
 31
0.0
  0
LINE
  5
2B6
100
AcDbEntity
  8
0
  6
CONTINUOUS
 62
               4
100
AcDbLine
 10
-115.49999962939452
 20
-57.000022888183587
 30
0.0
 11
-115.39999962939453
 21
-57.100022888183588
 31
0.0
  0
LINE
  5
2B7
100
AcDbEntity
  8
0
  6
CONTINUOUS
 62
               4
100
AcDbLine
 10
-115.39999962939453
 20
-57.100022888183588
 30
0.0
 11
-114.39999862939453
 21
-57.100022888183588
 31
0.0
  0
LINE
  5
2B8
100
AcDbEntity
  8
0
  6
CONTINUOUS
 62
               4
100
AcDbLine
 10
-115.89999962939453
 20
-44.000022888183594
 30
0.0
 11
-115.49999962939452
 21
-44.000022888183594
 31
0.0
  0
LINE
  5
2B9
100
AcDbEntity
  8
0
  6
CONTINUOUS
 62
               4
100
AcDbLine
 10
-117.30068062939452
 20
-41.600022888183588
 30
0.0
 11
-116.39999962939453
 21
-41.600022888183588
 31
0.0
  0
LINE
  5
2BA
100
AcDbEntity
  8
0
  6
CONTINUOUS
 62
               4
100
AcDbLine
 10
-116.39999962939453
 20
-58.400022888183585
 30
0.0
 11
-116.39999962939453
 21
-41.600022888183588
 31
0.0
  0
LINE
  5
2BB
100
AcDbEntity
  8
0
  6
CONTINUOUS
 62
               4
100
AcDbLine
 10
-117.59999962939452
 20
-41.900022888183599
 30
0.0
 11
-117.59999962939452
 21
-58.100022888183588
 31
0.0
  0
LINE
  5
2BC
100
AcDbEntity
  8
0
  6
CONTINUOUS
 62
               4
100
AcDbLine
 10
-117.30068062939452
 20
-58.400022888183585
 30
0.0
 11
-116.39999962939453
 21
-58.400022888183585
 31
0.0
  0
ARC
  5
2BD
100
AcDbEntity
  8
0
  6
CONTINUOUS
 62
               4
100
AcDbCircle
 10
-115.89999962939453
 20
-56.500022888183587
 30
0.0
 40
0.5
100
AcDbArc
 50
89.999999999999602
 51
179.99999999999963
  0
ARC
  5
2BE
100
AcDbEntity
  8
0
  6
CONTINUOUS
 62
               4
100
AcDbCircle
 10
-117.29999962939453
 20
-41.900022888183599
 30
0.0
 40
0.3
100
AcDbArc
 50
89.999999999999602
 51
179.99999999999963
  0
ARC
  5
2BF
100
AcDbEntity
  8
0
  6
CONTINUOUS
 62
               4
100
AcDbCircle
 10
-115.89999962939453
 20
-43.500022888183594
 30
0.0
 40
0.5
100
AcDbArc
 50
179.99999999999878
 51
269.99999999999881
  0
ARC
  5
2C0
100
AcDbEntity
  8
0
  6
CONTINUOUS
 62
               4
100
AcDbCircle
 10
-117.29999962939453
 20
-58.100022888183588
 30
0.0
 40
0.3
100
AcDbArc
 50
179.99999999999878
 51
269.99999999999881
  0
LINE
  5
2C1
100
AcDbEntity
  8
0
  6
CONTINUOUS
 62
               4
100
AcDbLine
 10
-93.999999629394523
 20
-57.300018310546875
 30
0.0
 11
-93.999999629394523
 21
-49.300079345703125
 31
0.0
  0
LINE
  5
2C2
100
AcDbEntity
  8
0
  6
CONTINUOUS
 62
               4
100
AcDbLine
 10
-104.69999942939455
 20
-22.000022888183594
 30
0.0
 11
-104.69999942939452
 21
-40.500022888183594
 31
0.0
  0
LINE
  5
2C3
100
AcDbEntity
  8
0
  6
CONTINUOUS
 62
               4
100
AcDbLine
 10
-93.999999629394551
 20
-22.860276926027993
 30
0.0
 11
-93.999999629394551
 21
-33.300079345703125
 31
0.0
  0
ARC
  5
2C4
100
AcDbEntity
  8
0
  6
CONTINUOUS
 62
               4
100
AcDbCircle
 10
-117.29999962939456
 20
-22.900022888183585
 30
0.0
 40
0.3
100
AcDbArc
 50
90.000000000000426
 51
180.0000000000004
  0
ARC
  5
2C5
100
AcDbEntity
  8
0
  6
CONTINUOUS
 62
               4
100
AcDbCircle
 10
-115.89999962939453
 20
-37.500022888183594
 30
0.0
 40
0.5
100
AcDbArc
 50
90.000000000000426
 51
180.0000000000004
  0
ARC
  5
2C6
100
AcDbEntity
  8
0
  6
CONTINUOUS
 62
               4
100
AcDbCircle
 10
-117.29999962939453
 20
-39.100022888183588
 30
0.0
 40
0.3
100
AcDbArc
 50
179.99999999999963
 51
269.9999999999996
  0
ARC
  5
2C7
100
AcDbEntity
  8
0
  6
CONTINUOUS
 62
               4
100
AcDbCircle
 10
-115.89999962939453
 20
-24.500022888183594
 30
0.0
 40
0.5
100
AcDbArc
 50
179.99999999999963
 51
269.9999999999996
  0
LINE
  5
2C8
100
AcDbEntity
  8
0
  6
CONTINUOUS
 62
               4
100
AcDbLine
 10
-117.30068062939455
 20
-22.600022888183588
 30
0.0
 11
-116.39999962939453
 21
-22.600022888183588
 31
0.0
  0
LINE
  5
2C9
100
AcDbEntity
  8
0
  6
CONTINUOUS
 62
               4
100
AcDbLine
 10
-117.59999962939452
 20
-39.100022888183588
 30
0.0
 11
-117.59999962939452
 21
-22.900022888183585
 31
0.0
  0
LINE
  5
2CA
100
AcDbEntity
  8
0
  6
CONTINUOUS
 62
               4
100
AcDbLine
 10
-116.39999962939453
 20
-22.600022888183588
 30
0.0
 11
-116.39999962939453
 21
-39.400022888183599
 31
0.0
  0
LINE
  5
2CB
100
AcDbEntity
  8
0
  6
CONTINUOUS
 62
               4
100
AcDbLine
 10
-117.30068062939452
 20
-39.400022888183599
 30
0.0
 11
-116.39999962939453
 21
-39.400022888183599
 31
0.0
  0
LINE
  5
2CC
100
AcDbEntity
  8
0
  6
CONTINUOUS
 62
               4
100
AcDbLine
 10
-115.89999962939453
 20
-37.000022888183594
 30
0.0
 11
-115.49999962939455
 21
-37.000022888183594
 31
0.0
  0
LINE
  5
2CD
100
AcDbEntity
  8
0
  6
CONTINUOUS
 62
               4
100
AcDbLine
 10
-115.39999962939453
 20
-23.900022888183585
 30
0.0
 11
-114.39999862939453
 21
-23.900022888183585
 31
0.0
  0
LINE
  5
2CE
100
AcDbEntity
  8
0
  6
CONTINUOUS
 62
               4
100
AcDbLine
 10
-115.49999962939455
 20
-24.000022888183594
 30
0.0
 11
-115.39999962939453
 21
-23.900022888183585
 31
0.0
  0
LINE
  5
2CF
100
AcDbEntity
  8
0
  6
CONTINUOUS
 62
               4
100
AcDbLine
 10
-115.49999962939452
 20
-38.000022888183594
 30
0.0
 11
-115.39999962939453
 21
-38.100022888183588
 31
0.0
  0
LINE
  5
2D0
100
AcDbEntity
  8
0
  6
CONTINUOUS
 62
               4
100
AcDbLine
 10
-115.49999962939452
 20
-38.000022888183594
 30
0.0
 11
-115.49999962939455
 21
-24.000022888183594
 31
0.0
  0
LINE
  5
2D1
100
AcDbEntity
  8
0
  6
CONTINUOUS
 62
               4
100
AcDbLine
 10
-115.39999962939453
 20
-38.100022888183588
 30
0.0
 11
-114.39999862939453
 21
-38.100022888183588
 31
0.0
  0
LINE
  5
2D2
100
AcDbEntity
  8
0
  6
CONTINUOUS
 62
               4
100
AcDbLine
 10
-109.89999962939453
 20
-22.100022888183588
 30
0.0
 11
-109.89999962939453
 21
-39.900022888183599
 31
0.0
  0
LINE
  5
2D3
100
AcDbEntity
  8
0
  6
CONTINUOUS
 62
               4
100
AcDbLine
 10
-114.39999862939453
 20
-38.900022888183599
 30
0.0
 11
-114.39999862939453
 21
-23.100023688183583
 31
0.0
  0
LINE
  5
2D4
100
AcDbEntity
  8
0
  6
CONTINUOUS
 62
               4
100
AcDbLine
 10
-110.79999962939453
 20
-39.800022888183577
 30
0.0
 11
-110.99999962939452
 21
-40.000022888183594
 31
0.0
  0
LINE
  5
2D5
100
AcDbEntity
  8
0
  6
CONTINUOUS
 62
               4
100
AcDbLine
 10
-113.36491262939452
 20
-40.000022888183594
 30
0.0
 11
-113.79999862939454
 21
-39.246432488183586
 31
0.0
  0
LINE
  5
2D6
100
AcDbEntity
  8
0
  6
CONTINUOUS
 62
               4
100
AcDbLine
 10
-113.36491262939455
 20
-22.000022888183594
 30
0.0
 11
-113.79999862939457
 21
-22.753613288183587
 31
0.0
  0
LINE
  5
2D7
100
AcDbEntity
  8
0
  6
CONTINUOUS
 62
               4
100
AcDbLine
 10
-113.79999862939457
 20
-22.753613288183587
 30
0.0
 11
-114.39999862939453
 21
-23.100023688183583
 31
0.0
  0
LINE
  5
2D8
100
AcDbEntity
  8
0
  6
CONTINUOUS
 62
               4
100
AcDbLine
 10
-113.79999862939454
 20
-39.246432488183586
 30
0.0
 11
-114.39999862939453
 21
-38.90002208818359
 31
0.0
  0
LINE
  5
2D9
100
AcDbEntity
  8
0
  6
CONTINUOUS
 62
               4
100
AcDbLine
 10
-110.79999962939456
 20
-22.200022888183582
 30
0.0
 11
-110.79999962939453
 21
-39.800022888183577
 31
0.0
  0
LINE
  5
2DA
100
AcDbEntity
  8
0
  6
CONTINUOUS
 62
               4
100
AcDbLine
 10
-113.36491362939455
 20
-22.000022888183594
 30
0.0
 11
-110.99999962939455
 21
-22.000022888183594
 31
0.0
  0
LINE
  5
2DB
100
AcDbEntity
  8
0
  6
CONTINUOUS
 62
               4
100
AcDbLine
 10
-110.79999962939456
 20
-22.200022888183582
 30
0.0
 11
-110.99999962939455
 21
-22.000022888183594
 31
0.0
  0
LINE
  5
2DC
100
AcDbEntity
  8
0
  6
CONTINUOUS
 62
               4
100
AcDbLine
 10
-113.36491362939452
 20
-40.000022888183594
 30
0.0
 11
-110.99999962939452
 21
-40.000022888183594
 31
0.0
  0
LINE
  5
2DD
100
AcDbEntity
  8
0
  6
CONTINUOUS
 62
               4
100
AcDbLine
 10
-104.89999902939456
 20
-22.200022888183582
 30
0.0
 11
-105.09999922939454
 21
-22.000022888183594
 31
0.0
  0
LINE
  5
2DE
100
AcDbEntity
  8
0
  6
CONTINUOUS
 62
               4
100
AcDbLine
 10
-104.89999922939452
 20
-39.800022888183577
 30
0.0
 11
-104.89999922939455
 21
-22.200022888183582
 31
0.0
  0
LINE
  5
2DF
100
AcDbEntity
  8
0
  6
CONTINUOUS
 62
               4
100
AcDbLine
 10
-109.79999962939456
 20
-22.000022888183594
 30
0.0
 11
-105.09999922939454
 21
-22.000022888183594
 31
0.0
  0
LINE
  5
2E0
100
AcDbEntity
  8
0
  6
CONTINUOUS
 62
               4
100
AcDbLine
 10
-109.79999962939453
 20
-40.000022888183594
 30
0.0
 11
-105.09999922939451
 21
-40.000022888183594
 31
0.0
  0
LINE
  5
2E1
100
AcDbEntity
  8
0
  6
CONTINUOUS
 62
               4
100
AcDbLine
 10
-104.89999902939454
 20
-39.800022888183577
 30
0.0
 11
-105.09999922939451
 21
-40.000022888183594
 31
0.0
  0
LINE
  5
2E2
100
AcDbEntity
  8
0
  6
CONTINUOUS
 62
               4
100
AcDbLine
 10
-109.79999962939456
 20
-22.000022888183594
 30
0.0
 11
-109.89999962939453
 21
-22.100022888183588
 31
0.0
  0
LINE
  5
2E3
100
AcDbEntity
  8
0
  6
CONTINUOUS
 62
               4
100
AcDbLine
 10
-109.79999962939453
 20
-40.000022888183594
 30
0.0
 11
-109.89999962939453
 21
-39.900022888183599
 31
0.0
  0
LINE
  5
2E4
100
AcDbEntity
  8
0
  6
CONTINUOUS
 62
               4
100
AcDbLine
 10
-104.89999962939453
 20
-39.800022888183577
 30
0.0
 11
-104.69999942939452
 21
-40.000022888183594
 31
0.0
  0
LINE
  5
2E5
100
AcDbEntity
  8
0
  6
CONTINUOUS
 62
               4
100
AcDbLine
 10
-104.69999962939454
 20
-22.000022888183594
 30
0.0
 11
-93.50329402939451
 21
-22.000022888183594
 31
0.0
  0
LINE
  5
2E6
100
AcDbEntity
  8
0
  6
CONTINUOUS
 62
               4
100
AcDbLine
 10
-110.79999962939456
 20
-22.700022888183582
 30
0.0
 11
-109.89999962939453
 21
-22.700022888183582
 31
0.0
  0
LINE
  5
2E7
100
AcDbEntity
  8
0
  6
CONTINUOUS
 62
               4
100
AcDbLine
 10
-110.79999962939453
 20
-39.300022888183577
 30
0.0
 11
-109.89999962939453
 21
-39.300022888183577
 31
0.0
  0
LINE
  5
2E8
100
AcDbEntity
  8
0
  6
CONTINUOUS
 62
               4
100
AcDbLine
 10
-104.89999962939453
 20
-22.200022888183582
 30
0.0
 11
-104.69999942939455
 21
-22.000022888183594
 31
0.0
  0
LINE
  5
2E9
100
AcDbEntity
  8
0
  6
CONTINUOUS
 62
               4
100
AcDbLine
 10
-105.09999922939451
 20
-40.000022888183594
 30
0.0
 11
-105.09999922939454
 21
-22.000022888183594
 31
0.0
  0
LINE
  5
2EA
100
AcDbEntity
  8
0
  6
CONTINUOUS
 62
               4
100
AcDbLine
 10
-115.89999962939453
 20
-25.000022888183594
 30
0.0
 11
-115.49999962939455
 21
-25.000022888183594
 31
0.0
  0
LINE
  5
2EB
100
AcDbEntity
  8
0
  6
CONTINUOUS
 62
               4
100
AcDbLine
 10
-115.39999962939453
 20
-38.100022888183588
 30
0.0
 11
-115.39999962939453
 21
-23.900022888183585
 31
0.0
  0
LINE
  5
2EC
100
AcDbEntity
  8
0
  6
CONTINUOUS
 62
               4
100
AcDbLine
 10
-113.79999862939454
 20
-39.246432488183586
 30
0.0
 11
-113.79999862939457
 21
-22.753613288183587
 31
0.0
  0
LINE
  5
2ED
100
AcDbEntity
  8
0
  6
CONTINUOUS
 62
               4
100
AcDbLine
 10
-113.36491262939452
 20
-40.000022888183594
 30
0.0
 11
-113.36491262939455
 21
-22.000022888183594
 31
0.0
  0
LINE
  5
2EE
100
AcDbEntity
  8
0
  6
CONTINUOUS
 62
               4
100
AcDbLine
 10
-110.99999962939452
 20
-40.000022888183594
 30
0.0
 11
-110.99999962939455
 21
-22.000022888183594
 31
0.0
  0
LINE
  5
2EF
100
AcDbEntity
  8
0
  6
CONTINUOUS
 62
               4
100
AcDbLine
 10
-109.79999962939453
 20
-40.000022888183594
 30
0.0
 11
-109.79999962939456
 21
-22.000022888183594
 31
0.0
  0
LINE
  5
2F0
100
AcDbEntity
  8
0
  6
CONTINUOUS
 62
               4
100
AcDbLine
 10
-88.999999629394551
 20
-14.200022888183582
 30
0.0
 11
-93.999999629394551
 21
-22.860276926028007
 31
0.0
  0
LINE
  5
2F1
100
AcDbEntity
  8
0
  6
CONTINUOUS
 62
               4
100
AcDbLine
 10
-87.199988948242179
 20
-23.250030517578111
 30
0.0
 11
-86.699988948242179
 21
-23.250030517578111
 31
0.0
  0
LINE
  5
2F2
100
AcDbEntity
  8
0
  6
CONTINUOUS
 62
               4
100
AcDbLine
 10
-87.199988948242179
 20
-17.750045776367173
 30
0.0
 11
-86.699988948242179
 21
-17.750045776367173
 31
0.0
  0
LINE
  5
2F3
100
AcDbEntity
  8
0
  6
CONTINUOUS
 62
               4
100
AcDbLine
 10
-88.999999629394551
 20
-14.200022888183582
 30
0.0
 11
-86.0
 21
-14.200022888183582
 31
0.0
  0
LINE
  5
2F4
100
AcDbEntity
  8
0
  6
CONTINUOUS
 62
               4
100
AcDbLine
 10
-90.905259922553284
 20
-17.500030517578125
 30
0.0
 11
-86.0
 21
-17.500030517578125
 31
0.0
  0
LINE
  5
2F5
100
AcDbEntity
  8
0
  6
CONTINUOUS
 62
               4
100
AcDbLine
 10
-93.999999629394551
 20
-23.500030517578125
 30
0.0
 11
-86.0
 21
-23.500030517578125
 31
0.0
  0
LINE
  5
2F6
100
AcDbEntity
  8
0
  6
CONTINUOUS
 62
               4
100
AcDbLine
 10
-58.099999999999994
 20
26.499984741210938
 30
0.0
 11
-58.099999999999994
 21
33.499984741210938
 31
0.0
  0
LINE
  5
2F7
100
AcDbEntity
  8
0
  6
CONTINUOUS
 62
               4
100
AcDbLine
 10
-57.199999999999989
 20
26.499984741210938
 30
0.0
 11
-57.199999999999989
 21
33.499984741210938
 31
0.0
  0
LINE
  5
2F8
100
AcDbEntity
  8
0
  6
CONTINUOUS
 62
               4
100
AcDbLine
 10
-56.5
 20
26.499984741210938
 30
0.0
 11
-58.099999999999994
 21
26.499984741210938
 31
0.0
  0
LINE
  5
2F9
100
AcDbEntity
  8
0
  6
CONTINUOUS
 62
               4
100
AcDbLine
 10
-56.5
 20
33.499984741210938
 30
0.0
 11
-83.499992370605469
 21
33.499984741210938
 31
0.0
  0
LINE
  5
2FA
100
AcDbEntity
  8
0
  6
CONTINUOUS
 62
               4
100
AcDbLine
 10
-67.599999999999994
 20
46.999984741210937
 30
0.0
 11
-67.599999999999994
 21
42.499984741210937
 31
0.0
  0
LINE
  5
2FB
100
AcDbEntity
  8
0
  6
CONTINUOUS
 62
               4
100
AcDbLine
 10
-58.649987792968744
 20
53.499984741210938
 30
0.0
 11
-67.649987792968744
 21
53.499984741210938
 31
0.0
  0
LINE
  5
2FC
100
AcDbEntity
  8
0
  6
CONTINUOUS
 62
               4
100
AcDbLine
 10
-59.0
 20
46.999984741210937
 30
0.0
 11
-67.650003051757807
 21
46.999984741210937
 31
0.0
  0
LINE
  5
2FD
100
AcDbEntity
  8
0
  6
CONTINUOUS
 62
               4
100
AcDbLine
 10
-68.227349853515619
 20
53.499984741210938
 30
0.0
 11
-69.649995422363276
 21
53.499984741210938
 31
0.0
  0
LINE
  5
2FE
100
AcDbEntity
  8
0
  6
CONTINUOUS
 62
               4
100
AcDbLine
 10
-67.599999999999994
 20
44.498443603515625
 30
0.0
 11
-67.650003051757807
 21
44.498443603515625
 31
0.0
  0
LINE
  5
2FF
100
AcDbEntity
  8
0
  6
CONTINUOUS
 62
               4
100
AcDbLine
 10
-67.650003051757807
 20
42.998443603515625
 30
0.0
 11
-68.649995422363276
 21
42.998443603515625
 31
0.0
  0
LINE
  5
300
100
AcDbEntity
  8
0
  6
CONTINUOUS
 62
               4
100
AcDbLine
 10
-67.650003051757807
 20
44.498443603515625
 30
0.0
 11
-67.650003051757807
 21
46.999984741210937
 31
0.0
  0
LINE
  5
301
100
AcDbEntity
  8
0
  6
CONTINUOUS
 62
               4
100
AcDbLine
 10
-69.149995422363276
 20
51.999984741210937
 30
0.0
 11
-69.649995422363276
 21
51.999984741210937
 31
0.0
  0
LINE
  5
302
100
AcDbEntity
  8
0
  6
CONTINUOUS
 62
               4
100
AcDbLine
 10
-67.650000209407693
 20
42.998458893081079
 30
0.0
 11
-67.599979656101453
 21
43.048479446387319
 31
0.0
  0
LINE
  5
303
100
AcDbEntity
  8
0
  6
CONTINUOUS
 62
               4
100
AcDbLine
 10
-59.150003051757807
 20
46.999984741210937
 30
0.0
 11
-59.150003051757807
 21
52.499984741210937
 31
0.0
  0
LINE
  5
304
100
AcDbEntity
  8
0
  6
CONTINUOUS
 62
               4
100
AcDbLine
 10
-58.650003051757807
 20
52.499984741210937
 30
0.0
 11
-58.650003051757807
 21
53.499984741210938
 31
0.0
  0
LINE
  5
305
100
AcDbEntity
  8
0
  6
CONTINUOUS
 62
               4
100
AcDbLine
 10
-58.649987792968744
 20
52.499984741210937
 30
0.0
 11
-59.149987792968744
 21
52.499984741210937
 31
0.0
  0
LINE
  5
306
100
AcDbEntity
  8
0
  6
CONTINUOUS
 62
               4
100
AcDbLine
 10
-69.150003051757807
 20
46.556137084960938
 30
0.0
 11
-69.150003051757807
 21
51.999984741210937
 31
0.0
  0
LINE
  5
307
100
AcDbEntity
  8
0
  6
CONTINUOUS
 62
               4
100
AcDbLine
 10
-68.650001302236518
 20
42.998435482970308
 30
0.0
 11
-69.150000411113609
 21
46.556123566659153
 31
0.0
  0
LINE
  5
308
100
AcDbEntity
  8
0
  6
CONTINUOUS
 62
               4
100
AcDbLine
 10
-67.650003051757807
 20
46.999984741210937
 30
0.0
 11
-67.650003051757807
 21
53.499984741210938
 31
0.0
  0
LINE
  5
309
100
AcDbEntity
  8
0
  6
CONTINUOUS
 62
               4
100
AcDbLine
 10
-67.650044511604023
 20
52.499943684112623
 30
0.0
 11
-68.227396327367927
 21
53.499952389067403
 31
0.0
  0
LINE
  5
30A
100
AcDbEntity
  8
0
  6
CONTINUOUS
 62
               4
100
AcDbLine
 10
-69.650003051757807
 20
51.999984741210937
 30
0.0
 11
-69.650003051757807
 21
53.499984741210938
 31
0.0
  0
LINE
  5
30B
100
AcDbEntity
  8
0
  6
CONTINUOUS
 62
               4
100
AcDbLine
 10
-64.500009155273432
 20
66.499984741210938
 30
0.0
 11
-63.700006103515619
 21
66.499984741210938
 31
0.0
  0
LINE
  5
30C
100
AcDbEntity
  8
0
  6
CONTINUOUS
 62
               4
100
AcDbLine
 10
-63.700006103515619
 20
61.499984741210937
 30
0.0
 11
-63.700006103515619
 21
66.499984741210938
 31
0.0
  0
LINE
  5
30D
100
AcDbEntity
  8
0
  6
CONTINUOUS
 62
               4
100
AcDbLine
 10
-64.500009155273432
 20
61.499984741210937
 30
0.0
 11
-64.500009155273432
 21
66.499984741210938
 31
0.0
  0
LINE
  5
30E
100
AcDbEntity
  8
0
  6
CONTINUOUS
 62
               4
100
AcDbLine
 10
-64.815011596679682
 20
53.499984741210938
 30
0.0
 11
-64.815011596679682
 21
58.098388671875
 31
0.0
  0
LINE
  5
30F
100
AcDbEntity
  8
0
  6
CONTINUOUS
 62
               4
100
AcDbLine
 10
-63.385003662109369
 20
53.499984741210938
 30
0.0
 11
-63.385003662109369
 21
57.272781372070313
 31
0.0
  0
LINE
  5
310
100
AcDbEntity
  8
0
  6
CONTINUOUS
 62
               4
100
AcDbLine
 10
-64.815011596679682
 20
61.499984741210937
 30
0.0
 11
-63.385003662109369
 21
61.499984741210937
 31
0.0
  0
LINE
  5
311
100
AcDbEntity
  8
0
  6
CONTINUOUS
 62
               4
100
AcDbLine
 10
-63.385003662109369
 20
58.427474975585938
 30
0.0
 11
-63.385003662109369
 21
61.499984741210937
 31
0.0
  0
LINE
  5
312
100
AcDbEntity
  8
0
  6
CONTINUOUS
 62
               4
100
AcDbLine
 10
-64.815011596679682
 20
59.253097534179688
 30
0.0
 11
-64.815011596679682
 21
61.499984741210937
 31
0.0
  0
LINE
  5
313
100
AcDbEntity
  8
0
  6
CONTINUOUS
 62
               7
100
AcDbLine
 10
-83.5
 20
9.4999847412109375
 30
0.0
 11
-56.5
 21
9.4999847412109375
 31
0.0
  0
LINE
  5
314
100
AcDbEntity
  8
0
  6
CONTINUOUS
 62
               4
100
AcDbLine
 10
-62.315011596679682
 20
57.809722900390625
 30
0.0
 11
-62.315011596679682
 21
61.499984741210937
 31
0.0
  0
LINE
  5
315
100
AcDbEntity
  8
0
  6
CONTINUOUS
 62
               4
100
AcDbLine
 10
-60.885003662109369
 20
56.984100341796875
 30
0.0
 11
-60.885003662109369
 21
61.499984741210937
 31
0.0
  0
LINE
  5
316
100
AcDbEntity
  8
0
  6
CONTINUOUS
 62
               4
100
AcDbLine
 10
-60.885003662109369
 20
61.499984741210937
 30
0.0
 11
-62.315011596679682
 21
61.499984741210937
 31
0.0
  0
LINE
  5
317
100
AcDbEntity
  8
0
  6
CONTINUOUS
 62
               4
100
AcDbLine
 10
-62.000009155273432
 20
61.499984741210937
 30
0.0
 11
-62.000009155273432
 21
66.499984741210938
 31
0.0
  0
LINE
  5
318
100
AcDbEntity
  8
0
  6
CONTINUOUS
 62
               4
100
AcDbLine
 10
-61.200006103515619
 20
61.499984741210937
 30
0.0
 11
-61.200006103515619
 21
66.499969482421875
 31
0.0
  0
LINE
  5
319
100
AcDbEntity
  8
0
  6
CONTINUOUS
 62
               4
100
AcDbLine
 10
-61.200006103515619
 20
66.499984741210938
 30
0.0
 11
-62.000009155273432
 21
66.499984741210938
 31
0.0
  0
LINE
  5
31A
100
AcDbEntity
  8
0
  6
CONTINUOUS
 62
               4
100
AcDbLine
 10
-62.315011596679682
 20
53.499984741210938
 30
0.0
 11
-62.315011596679682
 21
56.655014038085938
 31
0.0
  0
LINE
  5
31B
100
AcDbEntity
  8
0
  6
CONTINUOUS
 62
               4
100
AcDbLine
 10
-60.885003662109369
 20
53.499984741210938
 30
0.0
 11
-60.885003662109369
 21
55.82940673828125
 31
0.0
  0
LINE
  5
31C
100
AcDbEntity
  8
0
  6
CONTINUOUS
 62
             200
100
AcDbLine
 10
-66.315018891472022
 20
60.119090551145746
 30
0.0
 11
-59.384989799908539
 21
56.11804198736445
 31
0.0
  0
LINE
  5
31D
100
AcDbEntity
  8
0
  6
CONTINUOUS
 62
             200
100
AcDbLine
 10
-66.314994343097709
 20
58.964449556289765
 30
0.0
 11
-59.384984189578603
 21
54.963397651774358
 31
0.0
  0
LINE
  5
31E
100
AcDbEntity
  8
0
  6
CONTINUOUS
 62
               4
100
AcDbLine
 10
-68.75
 20
33.999984741210937
 30
0.0
 11
-71.25
 21
33.999984741210937
 31
0.0
  0
LINE
  5
31F
100
AcDbEntity
  8
0
  6
CONTINUOUS
 62
               4
100
AcDbLine
 10
-68.75
 20
33.999984741210937
 30
0.0
 11
-68.75
 21
33.499984741210938
 31
0.0
  0
LINE
  5
320
100
AcDbEntity
  8
0
  6
CONTINUOUS
 62
               4
100
AcDbLine
 10
-71.25
 20
33.999984741210937
 30
0.0
 11
-71.25
 21
33.499984741210938
 31
0.0
  0
ARC
  5
321
100
AcDbEntity
  8
0
  6
CONTINUOUS
 62
               4
100
AcDbCircle
 10
-57.0
 20
41.999984741210938
 30
0.0
 40
0.5
100
AcDbArc
 50
0.0
 51
89.999999999999815
  0
LINE
  5
322
100
AcDbEntity
  8
0
  6
CONTINUOUS
 62
               4
100
AcDbLine
 10
-59.0
 20
42.499984741210937
 30
0.0
 11
-57.0
 21
42.499984741210937
 31
0.0
  0
LINE
  5
323
100
AcDbEntity
  8
0
  6
CONTINUOUS
 62
               4
100
AcDbLine
 10
-59.0
 20
46.999984741210937
 30
0.0
 11
-59.0
 21
42.499984741210937
 31
0.0
  0
LINE
  5
324
100
AcDbEntity
  8
0
  6
CONTINUOUS
 62
               4
100
AcDbLine
 10
-78.599999999999994
 20
34.949984741210955
 30
0.0
 11
-76.5
 21
34.949984741210955
 31
0.0
  0
LINE
  5
325
100
AcDbEntity
  8
0
  6
CONTINUOUS
 62
               4
100
AcDbLine
 10
-63.599999999999994
 20
34.949984741210955
 30
0.0
 11
-61.5
 21
34.949984741210955
 31
0.0
  0
LINE
  5
326
100
AcDbEntity
  8
0
  6
CONTINUOUS
 62
               4
100
AcDbLine
 10
-61.5
 20
35.899984741210943
 30
0.0
 11
-61.5
 21
34.949984741210955
 31
0.0
  0
LINE
  5
327
100
AcDbEntity
  8
0
  6
CONTINUOUS
 62
               4
100
AcDbLine
 10
-78.599999999999994
 20
35.899984741210943
 30
0.0
 11
-78.599999999999994
 21
34.949984741210955
 31
0.0
  0
ARC
  5
328
100
AcDbEntity
  8
0
  6
CONTINUOUS
 62
               4
100
AcDbCircle
 10
-82.002020395360574
 20
37.679595645140239
 30
0.0
 40
1.4979796551727449
100
AcDbArc
 50
155.95369022728892
 51
179.98511757963411
  0
ARC
  5
329
100
AcDbEntity
  8
0
  6
CONTINUOUS
 62
               4
100
AcDbCircle
 10
-81.174020838564047
 20
42.000084678657203
 30
0.0
 40
0.4999010215015999
100
AcDbArc
 50
90.112225923134773
 51
155.80262379109485
  0
LINE
  5
32A
100
AcDbEntity
  8
0
  6
CONTINUOUS
 62
               4
100
AcDbLine
 10
-81.629999999999995
 20
42.20498474121095
 30
0.0
 11
-83.370000000000005
 21
38.28998474121093
 31
0.0
  0
LINE
  5
32B
100
AcDbEntity
  8
0
  6
CONTINUOUS
 62
               4
100
AcDbLine
 10
-83.5
 20
37.679984741210944
 30
0.0
 11
-83.5
 21
33.499984741210938
 31
0.0
  0
LINE
  5
32C
100
AcDbEntity
  8
0
  6
CONTINUOUS
 62
               4
100
AcDbLine
 10
-63.599999999999994
 20
35.899984741210943
 30
0.0
 11
-61.5
 21
35.899984741210943
 31
0.0
  0
LINE
  5
32D
100
AcDbEntity
  8
0
  6
CONTINUOUS
 62
               4
100
AcDbLine
 10
-78.599999999999994
 20
35.899984741210943
 30
0.0
 11
-76.5
 21
35.899984741210943
 31
0.0
  0
LINE
  5
32E
100
AcDbEntity
  8
0
  6
CONTINUOUS
 62
               4
100
AcDbLine
 10
-63.599999999999994
 20
35.899984741210943
 30
0.0
 11
-63.599999999999994
 21
34.949984741210955
 31
0.0
  0
LINE
  5
32F
100
AcDbEntity
  8
0
  6
CONTINUOUS
 62
               4
100
AcDbLine
 10
-76.5
 20
35.899984741210943
 30
0.0
 11
-76.5
 21
34.949984741210955
 31
0.0
  0
LINE
  5
330
100
AcDbEntity
  8
0
  6
CONTINUOUS
 62
               4
100
AcDbLine
 10
-56.5
 20
41.999984741210938
 30
0.0
 11
-56.5
 21
33.499984741210938
 31
0.0
  0
LINE
  5
331
100
AcDbEntity
  8
0
  6
CONTINUOUS
 62
               4
100
AcDbLine
 10
-56.5
 20
9.4999847412109375
 30
0.0
 11
-56.5
 21
33.499984741210938
 31
0.0
  0
LINE
  5
332
100
AcDbEntity
  8
0
  6
CONTINUOUS
 62
               4
100
AcDbLine
 10
-83.5
 20
9.4999847412109375
 30
0.0
 11
-83.5
 21
33.499984741210938
 31
0.0
  0
LINE
  5
333
100
AcDbEntity
  8
0
  6
CONTINUOUS
 62
               4
100
AcDbLine
 10
-67.599999999999994
 20
42.499984741210937
 30
0.0
 11
-81.174999999999983
 21
42.499984741210937
 31
0.0
  0
ARC
  5
334
100
AcDbEntity
  8
0
  6
CONTINUOUS
 62
               7
100
AcDbCircle
 10
-54.5
 20
-89.500015258789063
 30
0.0
 40
0.5
100
AcDbArc
 50
270.00001798608872
 51
0.0
  0
ARC
  5
335
100
AcDbEntity
  8
0
  6
CONTINUOUS
 62
               7
100
AcDbCircle
 10
-70.537261962890625
 20
-71.966217041015625
 30
0.0
 40
1.0
100
AcDbArc
 50
225.00005429989022
 51
314.99988263454435
  0
ARC
  5
336
100
AcDbEntity
  8
0
  6
CONTINUOUS
 62
               7
100
AcDbCircle
 10
-63.466217041015625
 20
-79.037261962890625
 30
0.0
 40
1.0
100
AcDbArc
 50
135.00000034162235
 51
225.00003699704618
  0
ARC
  5
337
100
AcDbEntity
  8
0
  6
CONTINUOUS
 62
               7
100
AcDbCircle
 10
-63.8076171875
 20
-81.5
 30
0.0
 40
1.0
100
AcDbArc
 50
134.99994570010901
 51
270.00000068324471
  0
ARC
  5
338
100
AcDbEntity
  8
0
  6
CONTINUOUS
 62
               7
100
AcDbCircle
 10
-73.000030517578125
 20
-72.307632446289063
 30
0.0
 40
1.0
100
AcDbArc
 50
179.99998133066492
 51
314.99999874776023
  0
ARC
  5
339
100
AcDbEntity
  8
0
  6
CONTINUOUS
 62
               7
100
AcDbCircle
 10
-68.592742919921875
 20
-78.8604736328125
 30
0.0
 40
1.5
100
AcDbArc
 50
224.99956252626995
 51
315.00007729493569
  0
ARC
  5
33A
100
AcDbEntity
  8
0
  6
CONTINUOUS
 62
               7
100
AcDbCircle
 10
-70.360504150390625
 20
-77.092697143554688
 30
0.0
 40
1.5
100
AcDbArc
 50
135.00038283221588
 51
224.99965450645266
  0
ARC
  5
33B
100
AcDbEntity
  8
0
  6
CONTINUOUS
 62
               7
100
AcDbCircle
 10
-71.000030517578125
 20
0.5
 30
0.0
 40
3.0
100
AcDbArc
 50
89.999982013910454
 51
179.99996402782091
  0
ARC
  5
33C
100
AcDbEntity
  8
0
  6
CONTINUOUS
 62
               7
100
AcDbCircle
 10
-71.000030517578125
 20
0.5
 30
0.0
 40
5.0
100
AcDbArc
 50
89.999982013910454
 51
179.99996402782091
  0
CIRCLE
  5
33D
100
AcDbEntity
  8
0
  6
CONTINUOUS
 62
               7
100
AcDbCircle
 10
-23.0
 20
-11.5
 30
0.0
 40
3.5
  0
CIRCLE
  5
33E
100
AcDbEntity
  8
0
  6
CONTINUOUS
 62
               7
100
AcDbCircle
 10
-17.0
 20
-69.5
 30
0.0
 40
3.5
  0
CIRCLE
  5
33F
100
AcDbEntity
  8
0
  6
CONTINUOUS
 62
               7
100
AcDbCircle
 10
-28.0
 20
-56.5
 30
0.0
 40
8.0
  0
CIRCLE
  5
340
100
AcDbEntity
  8
0
  6
CONTINUOUS
 62
               7
100
AcDbCircle
 10
-15.0
 20
-35.5
 30
0.0
 40
8.0
  0
CIRCLE
  5
341
100
AcDbEntity
  8
0
  6
CONTINUOUS
 62
               7
100
AcDbCircle
 10
-28.0
 20
-56.5
 30
0.0
 40
7.0
  0
CIRCLE
  5
342
100
AcDbEntity
  8
0
  6
CONTINUOUS
 62
               7
100
AcDbCircle
 10
-15.0
 20
-35.5
 30
0.0
 40
7.0
  0
CIRCLE
  5
343
100
AcDbEntity
  8
0
  6
CONTINUOUS
 62
               7
100
AcDbCircle
 10
-17.0
 20
-69.5
 30
0.0
 40
5.0
  0
CIRCLE
  5
344
100
AcDbEntity
  8
0
  6
CONTINUOUS
 62
               7
100
AcDbCircle
 10
-23.0
 20
-11.5
 30
0.0
 40
5.0
  0
CIRCLE
  5
345
100
AcDbEntity
  8
0
  6
CONTINUOUS
 62
               7
100
AcDbCircle
 10
-17.0
 20
-69.5
 30
0.0
 40
4.0
  0
CIRCLE
  5
346
100
AcDbEntity
  8
0
  6
CONTINUOUS
 62
               7
100
AcDbCircle
 10
-23.0
 20
-11.5
 30
0.0
 40
4.0
  0
ARC
  5
347
100
AcDbEntity
  8
0
  6
CONTINUOUS
 62
               7
100
AcDbCircle
 10
-0.5
 20
-84.0
 30
0.0
 40
0.5
100
AcDbArc
 50
270.00001798608872
 51
0.0000546415133601
  0
ARC
  5
348
100
AcDbEntity
  8
0
  6
CONTINUOUS
 62
               7
100
AcDbCircle
 10
-0.5
 20
5.0
 30
0.0
 40
0.5
100
AcDbArc
 50
0.0000546415133601
 51
90.000036655423813
  0
ARC
  5
349
100
AcDbEntity
  8
0
  6
CONTINUOUS
 62
               7
100
AcDbCircle
 10
-58.25
 20
-88.000015258789063
 30
0.0
 40
1.5
100
AcDbArc
 50
180.0000359721783
 51
270.00001798608872
  0
ARC
  5
34A
100
AcDbEntity
  8
0
  6
CONTINUOUS
 62
               7
100
AcDbCircle
 10
-55.75
 20
-88.000015258789063
 30
0.0
 40
1.5
100
AcDbArc
 50
270.00001798608872
 51
0.0000546415133601
  0
ARC
  5
34B
100
AcDbEntity
  8
0
  6
CONTINUOUS
 62
               7
100
AcDbCircle
 10
-87.5
 20
-89.500015258789063
 30
0.0
 40
0.5
100
AcDbArc
 50
180.0000359721783
 51
269.99996334457541
  0
LINE
  5
34C
100
AcDbEntity
  8
0
  6
CONTINUOUS
 62
               7
100
AcDbLine
 10
-84.000028340540666
 20
-1.5000022556978365
 30
0.0
 11
-86.00004332629851
 21
-3.9999790535630382
 31
0.0
  0
LINE
  5
34D
100
AcDbEntity
  8
0
  6
CONTINUOUS
 62
               7
100
AcDbLine
 10
-84.000030517578125
 20
-1.5000152587890625
 30
0.0
 11
-76.000030517578125
 21
-1.5000152587890625
 31
0.0
  0
LINE
  5
34E
100
AcDbEntity
  8
0
  6
CONTINUOUS
 62
               7
100
AcDbLine
 10
-60.0
 20
-90.000015258789063
 30
0.0
 11
-60.0
 21
-87.500015258789063
 31
0.0
  0
LINE
  5
34F
100
AcDbEntity
  8
0
  6
CONTINUOUS
 62
               7
100
AcDbLine
 10
-86.0
 20
-55.300018310546875
 30
0.0
 11
-86.0
 21
-51.300079345703125
 31
0.0
  0
LINE
  5
350
100
AcDbEntity
  8
0
  6
CONTINUOUS
 62
               7
100
AcDbLine
 10
-74.000030517578125
 20
-15.5
 30
0.0
 11
-63.000030517578125
 21
-15.5
 31
0.0
  0
LINE
  5
351
100
AcDbEntity
  8
0
  6
CONTINUOUS
 62
               7
100
AcDbLine
 10
-74.000030517578125
 20
-2.8000030517578125
 30
0.0
 11
-63.000030517578125
 21
-2.8000030517578125
 31
0.0
  0
LINE
  5
352
100
AcDbEntity
  8
0
  6
CONTINUOUS
 62
               7
100
AcDbLine
 10
-63.000030517578125
 20
-14.0
 30
0.0
 11
-54.0
 21
-14.0
 31
0.0
  0
LINE
  5
353
100
AcDbEntity
  8
0
  6
CONTINUOUS
 62
               7
100
AcDbLine
 10
-63.000030517578125
 20
-5.0
 30
0.0
 11
-54.0
 21
-5.0
 31
0.0
  0
LINE
  5
354
100
AcDbEntity
  8
0
  6
CONTINUOUS
 62
               7
100
AcDbLine
 10
-63.000030517578125
 20
-26.0
 30
0.0
 11
-54.0
 21
-26.0
 31
0.0
  0
LINE
  5
355
100
AcDbEntity
  8
0
  6
CONTINUOUS
 62
               7
100
AcDbLine
 10
-63.000030517578125
 20
-17.0
 30
0.0
 11
-54.0
 21
-17.0
 31
0.0
  0
LINE
  5
356
100
AcDbEntity
  8
0
  6
CONTINUOUS
 62
               2
100
AcDbLine
 10
-69.992421462843595
 20
-76.753693779403875
 30
0.0
 11
-53.999955844471515
 21
-60.761229509095756
 31
0.0
  0
LINE
  5
357
100
AcDbEntity
  8
0
  6
CONTINUOUS
 62
               2
100
AcDbLine
 10
-68.253646176613984
 20
-78.492469212201286
 30
0.0
 11
-53.999966780633258
 21
-64.238791017715812
 31
0.0
  0
LINE
  5
358
100
AcDbEntity
  8
0
  6
CONTINUOUS
 62
               7
100
AcDbLine
 10
-68.062368271304877
 20
-78.683747133633915
 30
0.0
 11
-53.99996679675678
 21
-64.621346844457548
 31
0.0
  0
LINE
  5
359
100
AcDbEntity
  8
0
  6
CONTINUOUS
 62
               7
100
AcDbLine
 10
-70.183710157745736
 20
-76.562405068377302
 30
0.0
 11
-53.999988197128914
 21
-60.378684471946144
 31
0.0
  0
LINE
  5
35A
100
AcDbEntity
  8
0
  6
CONTINUOUS
 62
               2
100
AcDbLine
 10
-71.479076527243706
 20
-79.979113215124926
 30
0.0
 11
-53.999977496942847
 21
-62.500015658201846
 31
0.0
  0
LINE
  5
35B
100
AcDbEntity
  8
0
  6
CONTINUOUS
 62
               7
100
AcDbLine
 10
-71.421209561658543
 20
-78.153381091502524
 30
0.0
 11
-69.653443384004277
 21
-79.92114875927291
 31
0.0
  0
LINE
  5
35C
100
AcDbEntity
  8
0
  6
CONTINUOUS
 62
               7
100
AcDbLine
 10
-71.421136243853653
 20
-76.032085706651742
 30
0.0
 11
-71.067561250320978
 21
-75.678510742923208
 31
0.0
  0
LINE
  5
35D
100
AcDbEntity
  8
0
  6
CONTINUOUS
 62
               7
100
AcDbLine
 10
-67.532070593072604
 20
-79.921151685256518
 30
0.0
 11
-67.178517178727816
 21
-79.567598300714053
 31
0.0
  0
LINE
  5
35E
100
AcDbEntity
  8
0
  6
CONTINUOUS
 62
               7
100
AcDbLine
 10
-63.000030517578125
 20
-2.8750457763671875
 30
0.0
 11
-63.000030517578125
 21
-27.5
 31
0.0
  0
LINE
  5
35F
100
AcDbEntity
  8
0
  6
CONTINUOUS
 62
               7
100
AcDbLine
 10
-71.000030517578125
 20
3.5
 30
0.0
 11
-54.0
 21
3.5
 31
0.0
  0
LINE
  5
360
100
AcDbEntity
  8
0
  6
CONTINUOUS
 62
               7
100
AcDbLine
 10
-74.000030517578125
 20
0.5
 30
0.0
 11
-74.000030517578125
 21
-27.5
 31
0.0
  0
LINE
  5
361
100
AcDbEntity
  8
0
  6
CONTINUOUS
 62
               7
100
AcDbLine
 10
-74.000030517578125
 20
-27.5
 30
0.0
 11
-54.0
 21
-27.5
 31
0.0
  0
LINE
  5
362
100
AcDbEntity
  8
0
  6
CONTINUOUS
 62
               7
100
AcDbLine
 10
-56.79998779296875
 20
-71.0
 30
0.0
 11
-54.0
 21
-71.0
 31
0.0
  0
LINE
  5
363
100
AcDbEntity
  8
0
  6
CONTINUOUS
 62
               7
100
AcDbLine
 10
-63.728179931640625
 20
-35.60028076171875
 30
0.0
 11
-63.728179931640625
 21
-66.571273803710938
 31
0.0
  0
LINE
  5
364
100
AcDbEntity
  8
0
  6
CONTINUOUS
 62
               7
100
AcDbLine
 10
-69.830145804796302
 20
-72.673328478992516
 30
0.0
 11
-53.999955679336381
 21
-56.843139687917756
 31
0.0
  0
LINE
  5
365
100
AcDbEntity
  8
0
  6
CONTINUOUS
 62
               7
100
AcDbLine
 10
-64.173302441708984
 20
-78.330150739728197
 30
0.0
 11
-53.999966945765664
 21
-68.156816101332879
 31
0.0
  0
LINE
  5
366
100
AcDbEntity
  8
0
  6
CONTINUOUS
 62
               7
100
AcDbLine
 10
-66.577501955669504
 20
-77.340193085175997
 30
0.0
 11
-63.819791034364243
 21
-80.097906331058766
 31
0.0
  0
LINE
  5
367
100
AcDbEntity
  8
0
  6
CONTINUOUS
 62
               7
100
AcDbLine
 10
-72.292892112209302
 20
-73.014732692370671
 30
0.0
 11
-71.597891207924476
 21
-72.319731846670038
 31
0.0
  0
LINE
  5
368
100
AcDbEntity
  8
0
  6
CONTINUOUS
 62
               7
100
AcDbLine
 10
-64.51469607308718
 20
-80.79288622876993
 30
0.0
 11
-63.819716747990242
 21
-80.097906962255365
 31
0.0
  0
LINE
  5
369
100
AcDbEntity
  8
0
  6
CONTINUOUS
 62
               7
100
AcDbLine
 10
-63.8076171875
 20
-82.5
 30
0.0
 11
-54.0
 21
-82.5
 31
0.0
  0
LINE
  5
36A
100
AcDbEntity
  8
0
  6
CONTINUOUS
 62
               7
100
AcDbLine
 10
-71.597962216043015
 20
-72.319728592869069
 30
0.0
 11
-68.840262084326241
 21
-75.077431049154256
 31
0.0
  0
LINE
  5
36B
100
AcDbEntity
  8
0
  6
CONTINUOUS
 62
               7
100
AcDbLine
 10
-71.597963408135911
 20
-75.148155669208791
 30
0.0
 11
-66.648218110703965
 21
-80.097905138965871
 31
0.0
  0
LINE
  5
36C
100
AcDbEntity
  8
0
  6
CONTINUOUS
 62
               7
100
AcDbLine
 10
-75.274855467993802
 20
-78.825101293948137
 30
0.0
 11
-71.597891327132857
 21
-75.148137463032072
 31
0.0
  0
LINE
  5
36D
100
AcDbEntity
  8
0
  6
CONTINUOUS
 62
               7
100
AcDbLine
 10
-70.32514045318203
 20
-83.774903042741244
 30
0.0
 11
-66.648176312321084
 21
-80.097939211825178
 31
0.0
  0
LINE
  5
36E
100
AcDbEntity
  8
0
  6
CONTINUOUS
 62
               7
100
AcDbLine
 10
-70.254403571303556
 20
-76.491668490484699
 30
0.0
 11
-53.999945032792311
 21
-60.237211322121766
 31
0.0
  0
LINE
  5
36F
100
AcDbEntity
  8
0
  6
CONTINUOUS
 62
               7
100
AcDbLine
 10
-67.991685647338272
 20
-78.754429763558619
 30
0.0
 11
-53.999977592308824
 21
-64.762722887941891
 31
0.0
  0
LINE
  5
370
100
AcDbEntity
  8
0
  6
CONTINUOUS
 62
               7
100
AcDbLine
 10
-74.000030517578125
 20
-32.5
 30
0.0
 11
-74.000030517578125
 21
-72.307632446289063
 31
0.0
  0
LINE
  5
371
100
AcDbEntity
  8
0
  6
CONTINUOUS
 62
               7
100
AcDbLine
 10
-74.000030517578125
 20
-32.5
 30
0.0
 11
-66.828460693359375
 21
-32.5
 31
0.0
  0
LINE
  5
372
100
AcDbEntity
  8
0
  6
CONTINUOUS
 62
               7
100
AcDbLine
 10
-66.828420576744975
 20
-32.499944269538901
 30
0.0
 11
-53.9999602239659
 21
-45.328403540959698
 31
0.0
  0
LINE
  5
373
100
AcDbEntity
  8
0
  6
CONTINUOUS
 62
               7
100
AcDbLine
 10
-65.999984883367688
 20
-30.499974395930622
 30
0.0
 11
-53.99996034317428
 21
-42.499997924597665
 31
0.0
  0
LINE
  5
374
100
AcDbEntity
  8
0
  6
CONTINUOUS
 62
               7
100
AcDbLine
 10
-76.000030517578125
 20
-30.5
 30
0.0
 11
-66.000030517578125
 21
-30.5
 31
0.0
  0
LINE
  5
375
100
AcDbEntity
  8
0
  6
CONTINUOUS
 62
               7
100
AcDbLine
 10
-76.000032293424738
 20
-78.099992255340112
 30
0.0
 11
-69.600036828323937
 21
-84.499993115236066
 31
0.0
  0
LINE
  5
376
100
AcDbEntity
  8
0
  6
CONTINUOUS
 62
               7
100
AcDbLine
 10
-69.60003662109375
 20
-84.5
 30
0.0
 11
-54.0
 21
-84.5
 31
0.0
  0
LINE
  5
377
100
AcDbEntity
  8
0
  6
CONTINUOUS
 62
               7
100
AcDbLine
 10
-71.000030517578125
 20
5.5
 30
0.0
 11
-54.0
 21
5.5
 31
0.0
  0
LINE
  5
378
100
AcDbEntity
  8
0
  6
CONTINUOUS
 62
               7
100
AcDbLine
 10
-76.000030517578125
 20
0.5
 30
0.0
 11
-76.000030517578125
 21
-78.100006103515625
 31
0.0
  0
LINE
  5
379
100
AcDbEntity
  8
0
  6
CONTINUOUS
 62
               2
100
AcDbLine
 10
-85.5
 20
6.199981689453125
 30
0.0
 11
-82.79998779296875
 21
6.199981689453125
 31
0.0
  0
LINE
  5
37A
100
AcDbEntity
  8
0
  6
CONTINUOUS
 62
               7
100
AcDbLine
 10
-84.5
 20
4.2499847412109375
 30
0.0
 11
-83.5
 21
4.2499847412109375
 31
0.0
  0
LINE
  5
37B
100
AcDbEntity
  8
0
  6
CONTINUOUS
 62
               7
100
AcDbLine
 10
-84.5
 20
6.4999847412109375
 30
0.0
 11
-83.899993896484375
 21
6.4999847412109375
 31
0.0
  0
LINE
  5
37C
100
AcDbEntity
  8
0
  6
CONTINUOUS
 62
               7
100
AcDbLine
 10
-84.5
 20
5.8999786376953125
 30
0.0
 11
-83.899993896484375
 21
5.8999786376953125
 31
0.0
  0
LINE
  5
37D
100
AcDbEntity
  8
0
  6
CONTINUOUS
 62
               7
100
AcDbLine
 10
-83.899993896484375
 20
5.8999786376953125
 30
0.0
 11
-83.899993896484375
 21
6.4999847412109375
 31
0.0
  0
LINE
  5
37E
100
AcDbEntity
  8
0
  6
CONTINUOUS
 62
               7
100
AcDbLine
 10
-84.5
 20
8.1499786376953125
 30
0.0
 11
-83.5
 21
8.1499786376953125
 31
0.0
  0
LINE
  5
37F
100
AcDbEntity
  8
0
  6
CONTINUOUS
 62
               4
100
AcDbLine
 10
-95.600033724609375
 20
-32.300079345703125
 30
0.0
 11
-97.800030672851562
 21
-32.300079345703125
 31
0.0
  0
LINE
  5
380
100
AcDbEntity
  8
0
  6
CONTINUOUS
 62
               4
100
AcDbLine
 10
-97.800030672851562
 20
-50.300079345703125
 30
0.0
 11
-97.800030672851562
 21
-32.300079345703125
 31
0.0
  0
LINE
  5
381
100
AcDbEntity
  8
0
  6
CONTINUOUS
 62
               4
100
AcDbLine
 10
-95.600033724609375
 20
-48.300079345703125
 30
0.0
 11
-94.600033724609375
 21
-48.300079345703125
 31
0.0
  0
LINE
  5
382
100
AcDbEntity
  8
0
  6
CONTINUOUS
 62
               4
100
AcDbLine
 10
-95.600033724609375
 20
-34.300079345703125
 30
0.0
 11
-94.600033724609375
 21
-34.300079345703125
 31
0.0
  0
LINE
  5
383
100
AcDbEntity
  8
0
  6
CONTINUOUS
 62
               4
100
AcDbLine
 10
-95.600033724609375
 20
-50.300079345703125
 30
0.0
 11
-95.600033724609375
 21
-32.300079345703125
 31
0.0
  0
LINE
  5
384
100
AcDbEntity
  8
0
  6
CONTINUOUS
 62
               4
100
AcDbLine
 10
-94.600033724609375
 20
-49.300079345703125
 30
0.0
 11
-94.600033724609375
 21
-33.300079345703125
 31
0.0
  0
LINE
  5
385
100
AcDbEntity
  8
0
  6
CONTINUOUS
 62
               4
100
AcDbLine
 10
-92.100033724609375
 20
-51.300079345703125
 30
0.0
 11
-92.100033724609375
 21
-31.300079345703125
 31
0.0
  0
LINE
  5
386
100
AcDbEntity
  8
0
  6
CONTINUOUS
 62
               4
100
AcDbLine
 10
-93.600033724609375
 20
-49.800079345703125
 30
0.0
 11
-93.600033724609375
 21
-32.800079345703125
 31
0.0
  0
LINE
  5
387
100
AcDbEntity
  8
0
  6
CONTINUOUS
 62
               4
100
AcDbLine
 10
-94.600033724609375
 20
-33.300079345703125
 30
0.0
 11
-93.600033724609375
 21
-33.300079345703125
 31
0.0
  0
LINE
  5
388
100
AcDbEntity
  8
0
  6
CONTINUOUS
 62
               4
100
AcDbLine
 10
-95.600033724609375
 20
-50.300079345703125
 30
0.0
 11
-97.800030672851562
 21
-50.300079345703125
 31
0.0
  0
LINE
  5
389
100
AcDbEntity
  8
0
  6
CONTINUOUS
 62
               4
100
AcDbLine
 10
-94.600033724609375
 20
-49.300079345703125
 30
0.0
 11
-93.600033724609375
 21
-49.300079345703125
 31
0.0
  0
LINE
  5
38A
100
AcDbEntity
  8
0
  6
CONTINUOUS
 62
               4
100
AcDbLine
 10
-93.600033584753646
 20
-49.800048668212185
 30
0.0
 11
-92.100020064802038
 21
-51.300060038656738
 31
0.0
  0
LINE
  5
38B
100
AcDbEntity
  8
0
  6
CONTINUOUS
 62
               4
100
AcDbLine
 10
-76.000030517578125
 20
-51.300079345703125
 30
0.0
 11
-92.100033724609375
 21
-51.300079345703125
 31
0.0
  0
LINE
  5
38C
100
AcDbEntity
  8
0
  6
CONTINUOUS
 62
               4
100
AcDbLine
 10
-92.100044526957163
 20
-31.300056103888892
 30
0.0
 11
-93.600046877985505
 21
-32.800057064069733
 31
0.0
  0
LINE
  5
38D
100
AcDbEntity
  8
0
  6
CONTINUOUS
 62
               4
100
AcDbLine
 10
-76.000030517578125
 20
-31.300079345703125
 30
0.0
 11
-92.100033724609375
 21
-31.300079345703125
 31
0.0
  0
LINE
  5
38E
100
AcDbEntity
  8
0
  6
CONTINUOUS
 62
               7
100
AcDbLine
 10
-40.0
 20
-5.5
 30
0.0
 11
-40.0
 21
5.5
 31
0.0
  0
LINE
  5
38F
100
AcDbEntity
  8
0
  6
CONTINUOUS
 62
               7
100
AcDbLine
 10
-40.0
 20
-73.5
 30
0.0
 11
-54.0
 21
-73.5
 31
0.0
  0
LINE
  5
390
100
AcDbEntity
  8
0
  6
CONTINUOUS
 62
               7
100
AcDbLine
 10
-40.0
 20
-5.5
 30
0.0
 11
-54.0
 21
-5.5
 31
0.0
  0
LINE
  5
391
100
AcDbEntity
  8
0
  6
CONTINUOUS
 62
               7
100
AcDbLine
 10
-40.0
 20
-84.5
 30
0.0
 11
-40.0
 21
-73.5
 31
0.0
  0
LINE
  5
392
100
AcDbEntity
  8
0
  6
CONTINUOUS
 62
               4
100
AcDbLine
 10
-94.600018465820312
 20
-57.300018310546875
 30
0.0
 11
-93.600018465820312
 21
-57.300018310546875
 31
0.0
  0
LINE
  5
393
100
AcDbEntity
  8
0
  6
CONTINUOUS
 62
               4
100
AcDbLine
 10
-94.600018465820312
 20
-73.300018310546875
 30
0.0
 11
-93.600018465820312
 21
-73.300018310546875
 31
0.0
  0
LINE
  5
394
100
AcDbEntity
  8
0
  6
CONTINUOUS
 62
               4
100
AcDbLine
 10
-95.60000320703125
 20
-72.300018310546875
 30
0.0
 11
-94.600018465820312
 21
-72.300018310546875
 31
0.0
  0
LINE
  5
395
100
AcDbEntity
  8
0
  6
CONTINUOUS
 62
               4
100
AcDbLine
 10
-95.60000320703125
 20
-58.300018310546875
 30
0.0
 11
-94.600018465820312
 21
-58.300018310546875
 31
0.0
  0
LINE
  5
396
100
AcDbEntity
  8
0
  6
CONTINUOUS
 62
               4
100
AcDbLine
 10
-92.100042724609381
 20
-75.300018310546875
 30
0.0
 11
-92.100033724609375
 21
-55.300018310546875
 31
0.0
  0
LINE
  5
397
100
AcDbEntity
  8
0
  6
CONTINUOUS
 62
               4
100
AcDbLine
 10
-92.100023284941699
 20
-55.300050224796905
 30
0.0
 11
-93.60001484637155
 21
-56.80004039538926
 31
0.0
  0
LINE
  5
398
100
AcDbEntity
  8
0
  6
CONTINUOUS
 62
               4
100
AcDbLine
 10
-93.600059547210321
 20
-73.800053578729603
 30
0.0
 11
-92.100055027258719
 21
-75.300064949174157
 31
0.0
  0
LINE
  5
399
100
AcDbEntity
  8
0
  6
CONTINUOUS
 62
               4
100
AcDbLine
 10
-94.600033724609375
 20
-73.300018310546875
 30
0.0
 11
-94.600033724609375
 21
-57.300018310546875
 31
0.0
  0
LINE
  5
39A
100
AcDbEntity
  8
0
  6
CONTINUOUS
 62
               4
100
AcDbLine
 10
-93.600033724609375
 20
-73.800018310546875
 30
0.0
 11
-93.600033724609375
 21
-56.800018310546875
 31
0.0
  0
LINE
  5
39B
100
AcDbEntity
  8
0
  6
CONTINUOUS
 62
               4
100
AcDbLine
 10
-95.600033724609375
 20
-74.300018310546875
 30
0.0
 11
-95.600033724609375
 21
-56.300018310546875
 31
0.0
  0
LINE
  5
39C
100
AcDbEntity
  8
0
  6
CONTINUOUS
 62
               4
100
AcDbLine
 10
-76.000030517578125
 20
-55.300018310546875
 30
0.0
 11
-92.100018465820312
 21
-55.300018310546875
 31
0.0
  0
LINE
  5
39D
100
AcDbEntity
  8
0
  6
CONTINUOUS
 62
               4
100
AcDbLine
 10
-95.60000320703125
 20
-56.300018310546875
 30
0.0
 11
-97.800030672851562
 21
-56.300018310546875
 31
0.0
  0
LINE
  5
39E
100
AcDbEntity
  8
0
  6
CONTINUOUS
 62
               4
100
AcDbLine
 10
-95.60000320703125
 20
-74.300018310546875
 30
0.0
 11
-97.800030672851562
 21
-74.300018310546875
 31
0.0
  0
LINE
  5
39F
100
AcDbEntity
  8
0
  6
CONTINUOUS
 62
               4
100
AcDbLine
 10
-76.000021517578119
 20
-75.300018310546875
 30
0.0
 11
-92.100018465820312
 21
-75.300018310546875
 31
0.0
  0
LINE
  5
3A0
100
AcDbEntity
  8
0
  6
CONTINUOUS
 62
               4
100
AcDbLine
 10
-97.800030672851562
 20
-74.300018310546875
 30
0.0
 11
-97.800030672851562
 21
-56.300018310546875
 31
0.0
  0
LINE
  5
3A1
100
AcDbEntity
  8
0
  6
CONTINUOUS
 62
               7
100
AcDbLine
 10
-24.732054628933838
 20
-11.500024875544113
 30
0.0
 11
-23.865993367806368
 21
-10.000004694900781
 31
0.0
  0
LINE
  5
3A2
100
AcDbEntity
  8
0
  6
CONTINUOUS
 62
               7
100
AcDbLine
 10
-23.865986246016291
 20
-12.999957648369673
 30
0.0
 11
-24.731988691776678
 21
-11.499956360178658
 31
0.0
  0
LINE
  5
3A3
100
AcDbEntity
  8
0
  6
CONTINUOUS
 62
               7
100
AcDbLine
 10
-22.13397216796875
 20
-13.0
 30
0.0
 11
-23.86602783203125
 21
-13.0
 31
0.0
  0
LINE
  5
3A4
100
AcDbEntity
  8
0
  6
CONTINUOUS
 62
               7
100
AcDbLine
 10
-22.133875582288056
 20
-13.000047941111006
 30
0.0
 11
-21.267842588328676
 21
-11.500046652866331
 31
0.0
  0
LINE
  5
3A5
100
AcDbEntity
  8
0
  6
CONTINUOUS
 62
               7
100
AcDbLine
 10
-21.267834133723227
 20
-11.499942472411931
 30
0.0
 11
-22.133863824048603
 21
-9.9999392226345662
 31
0.0
  0
LINE
  5
3A6
100
AcDbEntity
  8
0
  6
CONTINUOUS
 62
               7
100
AcDbLine
 10
-22.13397216796875
 20
-10.0
 30
0.0
 11
-23.86602783203125
 21
-10.0
 31
0.0
  0
LINE
  5
3A7
100
AcDbEntity
  8
0
  6
CONTINUOUS
 62
               7
100
AcDbLine
 10
-17.865935339095813
 20
-70.999976397222781
 30
0.0
 11
-18.731931807405999
 21
-69.49998925275213
 31
0.0
  0
LINE
  5
3A8
100
AcDbEntity
  8
0
  6
CONTINUOUS
 62
               7
100
AcDbLine
 10
-15.267912771450938
 20
-69.500007061371434
 30
0.0
 11
-16.133941635867814
 21
-68.000003398639819
 31
0.0
  0
LINE
  5
3A9
100
AcDbEntity
  8
0
  6
CONTINUOUS
 62
               7
100
AcDbLine
 10
-16.13397216796875
 20
-71.0
 30
0.0
 11
-17.86602783203125
 21
-71.0
 31
0.0
  0
LINE
  5
3AA
100
AcDbEntity
  8
0
  6
CONTINUOUS
 62
               7
100
AcDbLine
 10
-16.13397216796875
 20
-68.0
 30
0.0
 11
-17.86602783203125
 21
-68.0
 31
0.0
  0
LINE
  5
3AB
100
AcDbEntity
  8
0
  6
CONTINUOUS
 62
               7
100
AcDbLine
 10
-18.732019126947307
 20
-69.500007959320101
 30
0.0
 11
-17.865981714347981
 21
-67.999974047706019
 31
0.0
  0
LINE
  5
3AC
100
AcDbEntity
  8
0
  6
CONTINUOUS
 62
               7
100
AcDbLine
 10
-16.13389074036786
 20
-71.00005678427533
 30
0.0
 11
-15.267857746408481
 21
-69.500055496030654
 31
0.0
  0
LINE
  5
3AD
100
AcDbEntity
  8
0
  6
CONTINUOUS
 62
               7
100
AcDbLine
 10
-3.0
 20
-2.4000091552734375
 30
0.0
 11
-3.0
 21
2.399993896484375
 31
0.0
  0
LINE
  5
3AE
100
AcDbEntity
  8
0
  6
CONTINUOUS
 62
               7
100
AcDbLine
 10
-3.0
 20
-81.400009155273438
 30
0.0
 11
-3.0
 21
-76.600006103515625
 31
0.0
  0
LINE
  5
3AF
100
AcDbEntity
  8
0
  6
CONTINUOUS
 62
               7
100
AcDbLine
 10
0.0
 20
2.399993896484375
 30
0.0
 11
-3.0
 21
2.399993896484375
 31
0.0
  0
LINE
  5
3B0
100
AcDbEntity
  8
0
  6
CONTINUOUS
 62
               7
100
AcDbLine
 10
0.0
 20
-2.4000091552734375
 30
0.0
 11
-3.0
 21
-2.4000091552734375
 31
0.0
  0
LINE
  5
3B1
100
AcDbEntity
  8
0
  6
CONTINUOUS
 62
               7
100
AcDbLine
 10
0.0
 20
-76.600006103515625
 30
0.0
 11
-3.0
 21
-76.600006103515625
 31
0.0
  0
LINE
  5
3B2
100
AcDbEntity
  8
0
  6
CONTINUOUS
 62
               7
100
AcDbLine
 10
0.0
 20
-81.400009155273438
 30
0.0
 11
-3.0
 21
-81.400009155273438
 31
0.0
  0
LINE
  5
3B3
100
AcDbEntity
  8
0
  6
CONTINUOUS
 62
               2
100
AcDbLine
 10
-19.0
 20
-56.5
 30
0.0
 11
-37.0
 21
-56.5
 31
0.0
  0
LINE
  5
3B4
100
AcDbEntity
  8
0
  6
CONTINUOUS
 62
               2
100
AcDbLine
 10
-6.0
 20
-35.5
 30
0.0
 11
-24.0
 21
-35.5
 31
0.0
  0
LINE
  5
3B5
100
AcDbEntity
  8
0
  6
CONTINUOUS
 62
               2
100
AcDbLine
 10
-28.0
 20
-65.5
 30
0.0
 11
-28.0
 21
-47.5
 31
0.0
  0
LINE
  5
3B6
100
AcDbEntity
  8
0
  6
CONTINUOUS
 62
               2
100
AcDbLine
 10
-15.0
 20
-44.5
 30
0.0
 11
-15.0
 21
-26.5
 31
0.0
  0
LINE
  5
3B7
100
AcDbEntity
  8
0
  6
CONTINUOUS
 62
               2
100
AcDbLine
 10
-11.0
 20
-69.5
 30
0.0
 11
-23.0
 21
-69.5
 31
0.0
  0
LINE
  5
3B8
100
AcDbEntity
  8
0
  6
CONTINUOUS
 62
               2
100
AcDbLine
 10
-17.0
 20
-11.5
 30
0.0
 11
-29.0
 21
-11.5
 31
0.0
  0
LINE
  5
3B9
100
AcDbEntity
  8
0
  6
CONTINUOUS
 62
               2
100
AcDbLine
 10
-23.0
 20
-17.5
 30
0.0
 11
-23.0
 21
-5.5
 31
0.0
  0
LINE
  5
3BA
100
AcDbEntity
  8
0
  6
CONTINUOUS
 62
               2
100
AcDbLine
 10
-17.0
 20
-75.5
 30
0.0
 11
-17.0
 21
-63.5
 31
0.0
  0
LINE
  5
3BB
100
AcDbEntity
  8
0
  6
CONTINUOUS
 62
               7
100
AcDbLine
 10
0.0
 20
-20.0
 30
0.0
 11
0.0
 21
5.0
 31
0.0
  0
LINE
  5
3BC
100
AcDbEntity
  8
0
  6
CONTINUOUS
 62
               7
100
AcDbLine
 10
-3.0
 20
-56.0
 30
0.0
 11
-3.0
 21
-20.0
 31
0.0
  0
LINE
  5
3BD
100
AcDbEntity
  8
0
  6
CONTINUOUS
 62
               7
100
AcDbLine
 10
0.0
 20
-20.0
 30
0.0
 11
-3.0
 21
-20.0
 31
0.0
  0
LINE
  5
3BE
100
AcDbEntity
  8
0
  6
CONTINUOUS
 62
               7
100
AcDbLine
 10
0.0
 20
-56.0
 30
0.0
 11
-3.0
 21
-56.0
 31
0.0
  0
LINE
  5
3BF
100
AcDbEntity
  8
0
  6
CONTINUOUS
 62
               7
100
AcDbLine
 10
0.0
 20
-84.0
 30
0.0
 11
0.0
 21
-56.0
 31
0.0
  0
LINE
  5
3C0
100
AcDbEntity
  8
0
  6
CONTINUOUS
 62
               7
100
AcDbLine
 10
-0.5
 20
-84.5
 30
0.0
 11
-54.0
 21
-84.5
 31
0.0
  0
LINE
  5
3C1
100
AcDbEntity
  8
0
  6
CONTINUOUS
 62
               7
100
AcDbLine
 10
-0.5
 20
5.5
 30
0.0
 11
-54.0
 21
5.5
 31
0.0
  0
LINE
  5
3C2
100
AcDbEntity
  8
0
  6
CONTINUOUS
 62
               7
100
AcDbLine
 10
-83.5
 20
-0.0000152587890625
 30
0.0
 11
-82.20001220703125
 21
-0.0000152587890625
 31
0.0
  0
LINE
  5
3C3
100
AcDbEntity
  8
0
  6
CONTINUOUS
 62
               7
100
AcDbLine
 10
-82.20001220703125
 20
-1.5000152587890625
 30
0.0
 11
-82.20001220703125
 21
-0.0000152587890625
 31
0.0
  0
LINE
  5
3C4
100
AcDbEntity
  8
0
  6
CONTINUOUS
 62
               7
100
AcDbLine
 10
-79.20001220703125
 20
-1.5000152587890625
 30
0.0
 11
-79.20001220703125
 21
-0.0000152587890625
 31
0.0
  0
LINE
  5
3C5
100
AcDbEntity
  8
0
  6
CONTINUOUS
 62
               7
100
AcDbLine
 10
-79.20001220703125
 20
-0.0000152587890625
 30
0.0
 11
-76.000030517578125
 21
-0.0000152587890625
 31
0.0
  0
LINE
  5
3C6
100
AcDbEntity
  8
0
  6
CONTINUOUS
 62
               7
100
AcDbLine
 10
-54.25
 20
-88.000015258789063
 30
0.0
 11
-54.25
 21
-87.500015258789063
 31
0.0
  0
LINE
  5
3C7
100
AcDbEntity
  8
0
  6
CONTINUOUS
 62
               7
100
AcDbLine
 10
-59.75
 20
-88.000015258789063
 30
0.0
 11
-59.75
 21
-87.500015258789063
 31
0.0
  0
LINE
  5
3C8
100
AcDbEntity
  8
0
  6
CONTINUOUS
 62
               7
100
AcDbLine
 10
-58.25
 20
-89.500015258789063
 30
0.0
 11
-55.75
 21
-89.500015258789063
 31
0.0
  0
LINE
  5
3C9
100
AcDbEntity
  8
0
  6
CONTINUOUS
 62
               7
100
AcDbLine
 10
-60.0
 20
-87.500015258789063
 30
0.0
 11
-54.0
 21
-87.500015258789063
 31
0.0
  0
LINE
  5
3CA
100
AcDbEntity
  8
0
  6
CONTINUOUS
 62
               7
100
AcDbLine
 10
-86.0
 20
-4.0000152587890625
 30
0.0
 11
-76.000030517578125
 21
-4.0000152587890625
 31
0.0
  0
LINE
  5
3CB
100
AcDbEntity
  8
0
  6
CONTINUOUS
 62
               4
100
AcDbLine
 10
-95.600033724609375
 20
-57.500030517578125
 30
0.0
 11
-94.600033724609375
 21
-57.500030517578125
 31
0.0
  0
LINE
  5
3CC
100
AcDbEntity
  8
0
  6
CONTINUOUS
 62
               7
100
AcDbLine
 10
-89.0
 20
-78.000015258789063
 30
0.0
 11
-88.0
 21
-78.000015258789063
 31
0.0
  0
LINE
  5
3CD
100
AcDbEntity
  8
0
  6
CONTINUOUS
 62
               7
100
AcDbLine
 10
-88.79998779296875
 20
-76.100021362304688
 30
0.0
 11
-88.0
 21
-76.100021362304688
 31
0.0
  0
LINE
  5
3CE
100
AcDbEntity
  8
0
  6
CONTINUOUS
 62
               7
100
AcDbLine
 10
-86.0
 20
-79.000015258789063
 30
0.0
 11
-86.0
 21
-76.000015258789063
 31
0.0
  0
LINE
  5
3CF
100
AcDbEntity
  8
0
  6
CONTINUOUS
 62
               7
100
AcDbLine
 10
-87.0
 20
-79.000015258789063
 30
0.0
 11
-87.0
 21
-76.000015258789063
 31
0.0
  0
LINE
  5
3D0
100
AcDbEntity
  8
0
  6
CONTINUOUS
 62
               7
100
AcDbLine
 10
-88.0
 20
-76.000015258789063
 30
0.0
 11
-86.0
 21
-76.000015258789063
 31
0.0
  0
LINE
  5
3D1
100
AcDbEntity
  8
0
  6
CONTINUOUS
 62
               7
100
AcDbLine
 10
-89.0
 20
-78.000015258789063
 30
0.0
 11
-89.0
 21
-75.300018310546875
 31
0.0
  0
LINE
  5
3D2
100
AcDbEntity
  8
0
  6
CONTINUOUS
 62
               7
100
AcDbLine
 10
-88.79998779296875
 20
-76.100021362304688
 30
0.0
 11
-88.79998779296875
 21
-75.300018310546875
 31
0.0
  0
LINE
  5
3D3
100
AcDbEntity
  8
0
  6
CONTINUOUS
 62
               7
100
AcDbLine
 10
-89.000071677048254
 20
-78.00007312175876
 30
0.0
 11
-90.000073665869422
 21
-77.000072987400927
 31
0.0
  0
LINE
  5
3D4
100
AcDbEntity
  8
0
  6
CONTINUOUS
 62
               7
100
AcDbLine
 10
-90.0
 20
-77.000015258789063
 30
0.0
 11
-90.0
 21
-75.300018310546875
 31
0.0
  0
LINE
  5
3D5
100
AcDbEntity
  8
0
  6
CONTINUOUS
 62
               7
100
AcDbLine
 10
-56.5
 20
5.5
 30
0.0
 11
-56.5
 21
9.4999847412109375
 31
0.0
  0
LINE
  5
3D6
100
AcDbEntity
  8
0
  6
CONTINUOUS
 62
               7
100
AcDbLine
 10
-83.5
 20
-1.5000152587890625
 30
0.0
 11
-83.5
 21
9.4999847412109375
 31
0.0
  0
LINE
  5
3D7
100
AcDbEntity
  8
0
  6
CONTINUOUS
 62
               7
100
AcDbLine
 10
-84.5
 20
6.4999847412109375
 30
0.0
 11
-84.5
 21
8.1499786376953125
 31
0.0
  0
LINE
  5
3D8
100
AcDbEntity
  8
0
  6
CONTINUOUS
 62
               7
100
AcDbLine
 10
-84.5
 20
4.2499847412109375
 30
0.0
 11
-84.5
 21
5.8999786376953125
 31
0.0
  0
LINE
  5
3D9
100
AcDbEntity
  8
0
  6
CONTINUOUS
 62
               7
100
AcDbLine
 10
-87.5
 20
-90.000015258789063
 30
0.0
 11
-54.5
 21
-90.000015258789063
 31
0.0
  0
LINE
  5
3DA
100
AcDbEntity
  8
0
  6
CONTINUOUS
 62
               7
100
AcDbLine
 10
-88.0
 20
-89.500030517578125
 30
0.0
 11
-88.0
 21
-75.300018310546875
 31
0.0
  0
LINE
  5
3DB
100
AcDbEntity
  8
0
  6
CONTINUOUS
 62
               7
100
AcDbLine
 10
-88.0
 20
-79.000015258789063
 30
0.0
 11
-75.100006103515625
 21
-79.000015258789063
 31
0.0
  0
LINE
  5
3DC
100
AcDbEntity
  8
0
  6
CONTINUOUS
 62
               7
100
AcDbLine
 10
-54.0
 20
-89.500015258789063
 30
0.0
 11
-54.0
 21
5.5
 31
0.0
  0
LINE
  5
3DD
100
AcDbEntity
  8
0
  6
CONTINUOUS
 62
               7
100
AcDbLine
 10
-86.0
 20
-14.000015258789063
 30
0.0
 11
-76.000030517578125
 21
-14.000015258789063
 31
0.0
  0
ENDBLK
  5
3DE
100
AcDbEntity
  8
0
100
AcDbBlockEnd
  0
BLOCK
  5
3DF
100
AcDbEntity
  8
0
100
AcDbBlockBegin
  2
F18MN_SAMPLE-3
 70
               0
 10
0.0
 20
0.0
 30
0.0
  3
F18MN_SAMPLE-3
  1

  0
LINE
  5
3E0
100
AcDbEntity
  8
0
  6
CONTINUOUS
 62
               7
100
AcDbLine
 10
-6.5
 20
54.0
 30
0.0
 11
-6.5
 21
0.0
 31
0.0
  0
LINE
  5
3E1
100
AcDbEntity
  8
0
  6
CONTINUOUS
 62
               7
100
AcDbLine
 10
9.5
 20
54.0
 30
0.0
 11
9.5
 21
0.0
 31
0.0
  0
LINE
  5
3E2
100
AcDbEntity
  8
0
  6
CONTINUOUS
 62
               7
100
AcDbLine
 10
28.5
 20
54.0
 30
0.0
 11
28.5
 21
1.0
 31
0.0
  0
LINE
  5
3E3
100
AcDbEntity
  8
0
  6
CONTINUOUS
 62
               7
100
AcDbLine
 10
85.5
 20
76.0
 30
0.0
 11
85.5
 21
1.0
 31
0.0
  0
LINE
  5
3E4
100
AcDbEntity
  8
0
  6
CONTINUOUS
 62
               7
100
AcDbLine
 10
106.5
 20
76.0
 30
0.0
 11
106.5
 21
0.0
 31
0.0
  0
LINE
  5
3E5
100
AcDbEntity
  8
0
  6
CONTINUOUS
 62
               7
100
AcDbLine
 10
122.5
 20
54.0
 30
0.0
 11
122.5
 21
0.0
 31
0.0
  0
CIRCLE
  5
3E6
100
AcDbEntity
  8
0
  6
CONTINUOUS
 62
               7
100
AcDbCircle
 10
63.50006103515625
 20
5.5
 30
0.0
 40
2.75
  0
LINE
  5
3E7
100
AcDbEntity
  8
0
  6
CONTINUOUS
 62
               7
100
AcDbLine
 10
48.00006103515625
 20
1.199981689453125
 30
0.0
 11
48.00006103515625
 21
4.4999847412109375
 31
0.0
  0
LINE
  5
3E8
100
AcDbEntity
  8
0
  6
CONTINUOUS
 62
               7
100
AcDbLine
 10
66.00006103515625
 20
1.199981689453125
 30
0.0
 11
66.00006103515625
 21
4.3543548583984375
 31
0.0
  0
LINE
  5
3E9
100
AcDbEntity
  8
0
  6
CONTINUOUS
 62
               7
100
AcDbLine
 10
60.50006103515625
 20
5.5
 30
0.0
 11
60.50006103515625
 21
1.199981689453125
 31
0.0
  0
LINE
  5
3EA
100
AcDbEntity
  8
0
  6
CONTINUOUS
 62
               7
100
AcDbLine
 10
66.5
 20
54.0
 30
0.0
 11
66.5
 21
1.0
 31
0.0
  0
CIRCLE
  5
3EB
100
AcDbEntity
  8
0
  6
CONTINUOUS
 62
               7
100
AcDbCircle
 10
44.50006103515625
 20
5.5
 30
0.0
 40
2.75
  0
LINE
  5
3EC
100
AcDbEntity
  8
0
  6
CONTINUOUS
 62
               7
100
AcDbLine
 10
29.00006103515625
 20
1.199981689453125
 30
0.0
 11
29.00006103515625
 21
4.4999847412109375
 31
0.0
  0
LINE
  5
3ED
100
AcDbEntity
  8
0
  6
CONTINUOUS
 62
               7
100
AcDbLine
 10
47.00006103515625
 20
1.199981689453125
 30
0.0
 11
47.00006103515625
 21
4.3543548583984375
 31
0.0
  0
LINE
  5
3EE
100
AcDbEntity
  8
0
  6
CONTINUOUS
 62
               7
100
AcDbLine
 10
41.50006103515625
 20
5.5
 30
0.0
 11
41.50006103515625
 21
1.199981689453125
 31
0.0
  0
LINE
  5
3EF
100
AcDbEntity
  8
0
  6
CONTINUOUS
 62
               7
100
AcDbLine
 10
47.5
 20
54.0
 30
0.0
 11
47.5
 21
1.0
 31
0.0
  0
CIRCLE
  5
3F0
100
AcDbEntity
  8
0
  6
CONTINUOUS
 62
               7
100
AcDbCircle
 10
82.50006103515625
 20
5.5
 30
0.0
 40
2.75
  0
LINE
  5
3F1
100
AcDbEntity
  8
0
  6
CONTINUOUS
 62
               2
100
AcDbLine
 10
76.00006103515625
 20
-0.8976593017578125
 30
0.0
 11
76.00006103515625
 21
53.799980163574219
 31
0.0
  0
LINE
  5
3F2
100
AcDbEntity
  8
0
  6
CONTINUOUS
 62
               7
100
AcDbLine
 10
67.00006103515625
 20
1.199981689453125
 30
0.0
 11
67.00006103515625
 21
4.4999847412109375
 31
0.0
  0
LINE
  5
3F3
100
AcDbEntity
  8
0
  6
CONTINUOUS
 62
               7
100
AcDbLine
 10
85.00006103515625
 20
1.199981689453125
 30
0.0
 11
85.00006103515625
 21
4.3543548583984375
 31
0.0
  0
LINE
  5
3F4
100
AcDbEntity
  8
0
  6
CONTINUOUS
 62
               7
100
AcDbLine
 10
79.50006103515625
 20
5.5
 30
0.0
 11
79.50006103515625
 21
1.199981689453125
 31
0.0
  0
CIRCLE
  5
3F5
100
AcDbEntity
  8
0
  6
CONTINUOUS
 62
               7
100
AcDbCircle
 10
25.50006103515625
 20
5.5
 30
0.0
 40
2.75
  0
LINE
  5
3F6
100
AcDbEntity
  8
0
  6
CONTINUOUS
 62
               2
100
AcDbLine
 10
19.00006103515625
 20
-0.8976593017578125
 30
0.0
 11
19.00006103515625
 21
53.799980163574219
 31
0.0
  0
LINE
  5
3F7
100
AcDbEntity
  8
0
  6
CONTINUOUS
 62
               7
100
AcDbLine
 10
10.00006103515625
 20
1.199981689453125
 30
0.0
 11
10.00006103515625
 21
4.4999847412109375
 31
0.0
  0
LINE
  5
3F8
100
AcDbEntity
  8
0
  6
CONTINUOUS
 62
               7
100
AcDbLine
 10
28.00006103515625
 20
1.199981689453125
 30
0.0
 11
28.00006103515625
 21
4.3543548583984375
 31
0.0
  0
LINE
  5
3F9
100
AcDbEntity
  8
0
  6
CONTINUOUS
 62
               7
100
AcDbLine
 10
22.50006103515625
 20
5.5
 30
0.0
 11
22.50006103515625
 21
1.199981689453125
 31
0.0
  0
LINE
  5
3FA
100
AcDbEntity
  8
0
  6
CONTINUOUS
 62
               2
100
AcDbLine
 10
57.000030517578125
 20
-0.8976516723632813
 30
0.0
 11
57.000030517578125
 21
53.79998779296875
 31
0.0
  0
LINE
  5
3FB
100
AcDbEntity
  8
0
  6
CONTINUOUS
 62
               2
100
AcDbLine
 10
38.000030517578125
 20
-0.6976394653320313
 30
0.0
 11
38.000030517578125
 21
89.0
 31
0.0
  0
LINE
  5
3FC
100
AcDbEntity
  8
0
  6
CONTINUOUS
 62
               2
100
AcDbLine
 10
96.0
 20
76.0
 30
0.0
 11
96.0
 21
-3.372222900390625
 31
0.0
  0
LINE
  5
3FD
100
AcDbEntity
  8
0
  6
CONTINUOUS
 62
               2
100
AcDbLine
 10
0.0
 20
5.1680923301680082
 30
0.0
 11
0.0
 21
-5.6418302410518493
 31
0.0
  0
LINE
  5
3FE
100
AcDbEntity
  8
0
  6
CONTINUOUS
 62
               2
100
AcDbLine
 10
116.0
 20
5.1680923301680082
 30
0.0
 11
116.0
 21
-5.6418302410518493
 31
0.0
  0
LINE
  5
3FF
100
AcDbEntity
  8
0
  6
CONTINUOUS
 62
               2
100
AcDbLine
 10
19.00006103515625
 20
89.000015258789063
 30
0.0
 11
19.00006103515625
 21
54.0
 31
0.0
  0
LINE
  5
400
100
AcDbEntity
  8
0
  6
CONTINUOUS
 62
             200
100
AcDbLine
 10
38.000030517578125
 20
89.0
 30
0.0
 11
38.000030517578125
 21
119.06109619140625
 31
0.0
  0
LINE
  5
401
100
AcDbEntity
  8
0
  6
CONTINUOUS
 62
               2
100
AcDbLine
 10
57.000030517578125
 20
89.0
 30
0.0
 11
57.000030517578125
 21
53.79998779296875
 31
0.0
  0
LINE
  5
402
100
AcDbEntity
  8
0
  6
CONTINUOUS
 62
               7
100
AcDbLine
 10
25.50006103515625
 20
8.5
 30
0.0
 11
28.00006103515625
 21
8.5
 31
0.0
  0
LINE
  5
403
100
AcDbEntity
  8
0
  6
CONTINUOUS
 62
               7
100
AcDbLine
 10
10.00006103515625
 20
3.199981689453125
 30
0.0
 11
22.50006103515625
 21
3.199981689453125
 31
0.0
  0
LINE
  5
404
100
AcDbEntity
  8
0
  6
CONTINUOUS
 62
               7
100
AcDbLine
 10
24.439421927824696
 20
4.4393158941902584
 30
0.0
 11
26.560737943545064
 21
6.5606406717934078
 31
0.0
  0
LINE
  5
405
100
AcDbEntity
  8
0
  6
CONTINUOUS
 62
               7
100
AcDbLine
 10
26.560712199467162
 20
4.4393291834494448
 30
0.0
 11
24.439392965095976
 21
6.560650563587842
 31
0.0
  0
LINE
  5
406
100
AcDbEntity
  8
0
  6
CONTINUOUS
 62
               7
100
AcDbLine
 10
28.00006103515625
 20
6.6456451416015625
 30
0.0
 11
28.00006103515625
 21
44.499984741210937
 31
0.0
  0
LINE
  5
407
100
AcDbEntity
  8
0
  6
CONTINUOUS
 62
               7
100
AcDbLine
 10
10.00006103515625
 20
4.4999847412109375
 30
0.0
 11
12.50006103515625
 21
4.4999847412109375
 31
0.0
  0
LINE
  5
408
100
AcDbEntity
  8
0
  6
CONTINUOUS
 62
               7
100
AcDbLine
 10
10.00006103515625
 20
10.499984741210937
 30
0.0
 11
12.50006103515625
 21
10.499984741210937
 31
0.0
  0
LINE
  5
409
100
AcDbEntity
  8
0
  6
CONTINUOUS
 62
               7
100
AcDbLine
 10
10.00006103515625
 20
10.499984741210937
 30
0.0
 11
10.00006103515625
 21
48.354354858398437
 31
0.0
  0
LINE
  5
40A
100
AcDbEntity
  8
0
  6
CONTINUOUS
 62
               7
100
AcDbLine
 10
10.00006103515625
 20
50.645645141601562
 30
0.0
 11
10.00006103515625
 21
53.799980163574219
 31
0.0
  0
LINE
  5
40B
100
AcDbEntity
  8
0
  6
CONTINUOUS
 62
               7
100
AcDbLine
 10
13.560743894332905
 20
48.439365070304817
 30
0.0
 11
11.439431097263355
 21
50.560693245372718
 31
0.0
  0
LINE
  5
40C
100
AcDbEntity
  8
0
  6
CONTINUOUS
 62
               7
100
AcDbLine
 10
11.439412927026531
 20
48.439334544350857
 30
0.0
 11
13.560735380048534
 21
50.560652705838436
 31
0.0
  0
LINE
  5
40D
100
AcDbEntity
  8
0
  6
CONTINUOUS
 62
               7
100
AcDbLine
 10
15.50006103515625
 20
49.5
 30
0.0
 11
15.50006103515625
 21
53.79998779296875
 31
0.0
  0
LINE
  5
40E
100
AcDbEntity
  8
0
  6
CONTINUOUS
 62
               7
100
AcDbLine
 10
12.50006103515625
 20
46.499992370605469
 30
0.0
 11
10.00006103515625
 21
46.499992370605469
 31
0.0
  0
LINE
  5
40F
100
AcDbEntity
  8
0
  6
CONTINUOUS
 62
               7
100
AcDbLine
 10
15.50006103515625
 20
51.799980163574219
 30
0.0
 11
28.00006103515625
 21
51.799980163574219
 31
0.0
  0
LINE
  5
410
100
AcDbEntity
  8
0
  6
CONTINUOUS
 62
               7
100
AcDbLine
 10
25.50006103515625
 20
50.499984741210938
 30
0.0
 11
28.00006103515625
 21
50.499984741210938
 31
0.0
  0
LINE
  5
411
100
AcDbEntity
  8
0
  6
CONTINUOUS
 62
               7
100
AcDbLine
 10
25.50006103515625
 20
44.499984741210937
 30
0.0
 11
28.00006103515625
 21
44.499984741210937
 31
0.0
  0
LINE
  5
412
100
AcDbEntity
  8
0
  6
CONTINUOUS
 62
               7
100
AcDbLine
 10
28.00006103515625
 20
50.499984741210938
 30
0.0
 11
28.00006103515625
 21
53.799980163574219
 31
0.0
  0
LINE
  5
413
100
AcDbEntity
  8
0
  6
CONTINUOUS
 62
               7
100
AcDbLine
 10
10.00006103515625
 20
53.799980163574219
 30
0.0
 11
28.00006103515625
 21
53.799980163574219
 31
0.0
  0
ARC
  5
414
100
AcDbEntity
  8
0
  6
CONTINUOUS
 62
               7
100
AcDbCircle
 10
25.50006103515625
 20
5.5
 30
0.0
 40
3.0
100
AcDbArc
 50
89.999982013910454
 51
179.99996402782091
  0
ARC
  5
415
100
AcDbEntity
  8
0
  6
CONTINUOUS
 62
               7
100
AcDbCircle
 10
12.50006103515625
 20
7.5
 30
0.0
 40
3.0
100
AcDbArc
 50
269.99996334457541
 51
89.999982013910454
  0
CIRCLE
  5
416
100
AcDbEntity
  8
0
  6
CONTINUOUS
 62
               7
100
AcDbCircle
 10
12.50006103515625
 20
49.5
 30
0.0
 40
2.75
  0
ARC
  5
417
100
AcDbEntity
  8
0
  6
CONTINUOUS
 62
               7
100
AcDbCircle
 10
12.50006103515625
 20
49.5
 30
0.0
 40
3.0
100
AcDbArc
 50
270.00001798608872
 51
0.00001366037834
  0
ARC
  5
418
100
AcDbEntity
  8
0
  6
CONTINUOUS
 62
               7
100
AcDbCircle
 10
25.50006103515625
 20
47.5
 30
0.0
 40
3.0
100
AcDbArc
 50
89.999982013910454
 51
269.99994604173139
  0
LINE
  5
419
100
AcDbEntity
  8
0
  6
CONTINUOUS
 62
               7
100
AcDbLine
 10
82.50006103515625
 20
8.5
 30
0.0
 11
85.00006103515625
 21
8.5
 31
0.0
  0
LINE
  5
41A
100
AcDbEntity
  8
0
  6
CONTINUOUS
 62
               7
100
AcDbLine
 10
67.00006103515625
 20
3.199981689453125
 30
0.0
 11
79.50006103515625
 21
3.199981689453125
 31
0.0
  0
LINE
  5
41B
100
AcDbEntity
  8
0
  6
CONTINUOUS
 62
               7
100
AcDbLine
 10
81.439421927824696
 20
4.4393158941902584
 30
0.0
 11
83.560737943545064
 21
6.5606406717934078
 31
0.0
  0
LINE
  5
41C
100
AcDbEntity
  8
0
  6
CONTINUOUS
 62
               7
100
AcDbLine
 10
83.560712199467162
 20
4.4393291834494448
 30
0.0
 11
81.439392965095976
 21
6.560650563587842
 31
0.0
  0
LINE
  5
41D
100
AcDbEntity
  8
0
  6
CONTINUOUS
 62
               7
100
AcDbLine
 10
85.00006103515625
 20
6.6456451416015625
 30
0.0
 11
85.00006103515625
 21
44.499984741210937
 31
0.0
  0
LINE
  5
41E
100
AcDbEntity
  8
0
  6
CONTINUOUS
 62
               7
100
AcDbLine
 10
67.00006103515625
 20
4.4999847412109375
 30
0.0
 11
69.50006103515625
 21
4.4999847412109375
 31
0.0
  0
LINE
  5
41F
100
AcDbEntity
  8
0
  6
CONTINUOUS
 62
               7
100
AcDbLine
 10
67.00006103515625
 20
10.499984741210937
 30
0.0
 11
69.50006103515625
 21
10.499984741210937
 31
0.0
  0
LINE
  5
420
100
AcDbEntity
  8
0
  6
CONTINUOUS
 62
               7
100
AcDbLine
 10
67.00006103515625
 20
10.499984741210937
 30
0.0
 11
67.00006103515625
 21
48.354354858398437
 31
0.0
  0
LINE
  5
421
100
AcDbEntity
  8
0
  6
CONTINUOUS
 62
               7
100
AcDbLine
 10
67.00006103515625
 20
50.645645141601562
 30
0.0
 11
67.00006103515625
 21
53.799980163574219
 31
0.0
  0
LINE
  5
422
100
AcDbEntity
  8
0
  6
CONTINUOUS
 62
               7
100
AcDbLine
 10
70.560743894332902
 20
48.439365070304817
 30
0.0
 11
68.439431097263352
 21
50.560693245372718
 31
0.0
  0
LINE
  5
423
100
AcDbEntity
  8
0
  6
CONTINUOUS
 62
               7
100
AcDbLine
 10
68.439412927026524
 20
48.439334544350857
 30
0.0
 11
70.560735380048527
 21
50.560652705838436
 31
0.0
  0
LINE
  5
424
100
AcDbEntity
  8
0
  6
CONTINUOUS
 62
               7
100
AcDbLine
 10
72.50006103515625
 20
49.5
 30
0.0
 11
72.50006103515625
 21
53.79998779296875
 31
0.0
  0
LINE
  5
425
100
AcDbEntity
  8
0
  6
CONTINUOUS
 62
               7
100
AcDbLine
 10
69.50006103515625
 20
46.499992370605469
 30
0.0
 11
67.00006103515625
 21
46.499992370605469
 31
0.0
  0
LINE
  5
426
100
AcDbEntity
  8
0
  6
CONTINUOUS
 62
               7
100
AcDbLine
 10
72.50006103515625
 20
51.799980163574219
 30
0.0
 11
85.00006103515625
 21
51.799980163574219
 31
0.0
  0
LINE
  5
427
100
AcDbEntity
  8
0
  6
CONTINUOUS
 62
               7
100
AcDbLine
 10
82.50006103515625
 20
50.499984741210938
 30
0.0
 11
85.00006103515625
 21
50.499984741210938
 31
0.0
  0
LINE
  5
428
100
AcDbEntity
  8
0
  6
CONTINUOUS
 62
               7
100
AcDbLine
 10
82.50006103515625
 20
44.499984741210937
 30
0.0
 11
85.00006103515625
 21
44.499984741210937
 31
0.0
  0
LINE
  5
429
100
AcDbEntity
  8
0
  6
CONTINUOUS
 62
               7
100
AcDbLine
 10
85.00006103515625
 20
50.499984741210938
 30
0.0
 11
85.00006103515625
 21
53.799980163574219
 31
0.0
  0
LINE
  5
42A
100
AcDbEntity
  8
0
  6
CONTINUOUS
 62
               7
100
AcDbLine
 10
67.00006103515625
 20
53.799980163574219
 30
0.0
 11
85.00006103515625
 21
53.799980163574219
 31
0.0
  0
ARC
  5
42B
100
AcDbEntity
  8
0
  6
CONTINUOUS
 62
               7
100
AcDbCircle
 10
82.50006103515625
 20
5.5
 30
0.0
 40
3.0
100
AcDbArc
 50
89.999982013910454
 51
179.99996402782091
  0
ARC
  5
42C
100
AcDbEntity
  8
0
  6
CONTINUOUS
 62
               7
100
AcDbCircle
 10
69.50006103515625
 20
7.5
 30
0.0
 40
3.0
100
AcDbArc
 50
269.99996334457541
 51
89.999982013910454
  0
CIRCLE
  5
42D
100
AcDbEntity
  8
0
  6
CONTINUOUS
 62
               7
100
AcDbCircle
 10
69.50006103515625
 20
49.5
 30
0.0
 40
2.75
  0
ARC
  5
42E
100
AcDbEntity
  8
0
  6
CONTINUOUS
 62
               7
100
AcDbCircle
 10
69.50006103515625
 20
49.5
 30
0.0
 40
3.0
100
AcDbArc
 50
270.00001798608872
 51
0.00001366037834
  0
ARC
  5
42F
100
AcDbEntity
  8
0
  6
CONTINUOUS
 62
               7
100
AcDbCircle
 10
82.50006103515625
 20
47.5
 30
0.0
 40
3.0
100
AcDbArc
 50
89.999982013910454
 51
269.99994604173139
  0
LINE
  5
430
100
AcDbEntity
  8
0
  6
CONTINUOUS
 62
               7
100
AcDbLine
 10
28.5
 20
54.0
 30
0.0
 11
47.5
 21
54.0
 31
0.0
  0
LINE
  5
431
100
AcDbEntity
  8
0
  6
CONTINUOUS
 62
               7
100
AcDbLine
 10
44.50006103515625
 20
8.5
 30
0.0
 11
47.00006103515625
 21
8.5
 31
0.0
  0
LINE
  5
432
100
AcDbEntity
  8
0
  6
CONTINUOUS
 62
               7
100
AcDbLine
 10
29.00006103515625
 20
3.199981689453125
 30
0.0
 11
41.50006103515625
 21
3.199981689453125
 31
0.0
  0
LINE
  5
433
100
AcDbEntity
  8
0
  6
CONTINUOUS
 62
               7
100
AcDbLine
 10
43.439420596371576
 20
4.4393187238613336
 30
0.0
 11
45.560736612091944
 21
6.5606435014644831
 31
0.0
  0
LINE
  5
434
100
AcDbEntity
  8
0
  6
CONTINUOUS
 62
               7
100
AcDbLine
 10
45.560709982920457
 20
4.4393307906208292
 30
0.0
 11
43.439390748549272
 21
6.5606521707592265
 31
0.0
  0
LINE
  5
435
100
AcDbEntity
  8
0
  6
CONTINUOUS
 62
               7
100
AcDbLine
 10
47.00006103515625
 20
6.6456451416015625
 30
0.0
 11
47.00006103515625
 21
44.499984741210937
 31
0.0
  0
LINE
  5
436
100
AcDbEntity
  8
0
  6
CONTINUOUS
 62
               7
100
AcDbLine
 10
29.00006103515625
 20
4.4999847412109375
 30
0.0
 11
31.50006103515625
 21
4.4999847412109375
 31
0.0
  0
LINE
  5
437
100
AcDbEntity
  8
0
  6
CONTINUOUS
 62
               7
100
AcDbLine
 10
29.00006103515625
 20
10.499984741210937
 30
0.0
 11
31.50006103515625
 21
10.499984741210937
 31
0.0
  0
LINE
  5
438
100
AcDbEntity
  8
0
  6
CONTINUOUS
 62
               7
100
AcDbLine
 10
29.00006103515625
 20
10.499984741210937
 30
0.0
 11
29.00006103515625
 21
48.354354858398437
 31
0.0
  0
LINE
  5
439
100
AcDbEntity
  8
0
  6
CONTINUOUS
 62
               7
100
AcDbLine
 10
29.00006103515625
 20
50.645645141601562
 30
0.0
 11
29.00006103515625
 21
53.79998779296875
 31
0.0
  0
LINE
  5
43A
100
AcDbEntity
  8
0
  6
CONTINUOUS
 62
               7
100
AcDbLine
 10
32.560743281980649
 20
48.439366016017402
 30
0.0
 11
30.439430663725034
 21
50.56069401227137
 31
0.0
  0
LINE
  5
43B
100
AcDbEntity
  8
0
  6
CONTINUOUS
 62
               7
100
AcDbLine
 10
30.439412764958888
 20
48.439334265617163
 30
0.0
 11
32.560735217980891
 21
50.560652427104742
 31
0.0
  0
LINE
  5
43C
100
AcDbEntity
  8
0
  6
CONTINUOUS
 62
               7
100
AcDbLine
 10
34.50006103515625
 20
49.5
 30
0.0
 11
34.50006103515625
 21
53.79998779296875
 31
0.0
  0
LINE
  5
43D
100
AcDbEntity
  8
0
  6
CONTINUOUS
 62
               7
100
AcDbLine
 10
31.50006103515625
 20
46.5
 30
0.0
 11
29.00006103515625
 21
46.5
 31
0.0
  0
LINE
  5
43E
100
AcDbEntity
  8
0
  6
CONTINUOUS
 62
               7
100
AcDbLine
 10
34.50006103515625
 20
51.79998779296875
 30
0.0
 11
47.00006103515625
 21
51.79998779296875
 31
0.0
  0
LINE
  5
43F
100
AcDbEntity
  8
0
  6
CONTINUOUS
 62
               7
100
AcDbLine
 10
44.50006103515625
 20
50.499984741210938
 30
0.0
 11
47.00006103515625
 21
50.499984741210938
 31
0.0
  0
LINE
  5
440
100
AcDbEntity
  8
0
  6
CONTINUOUS
 62
               7
100
AcDbLine
 10
44.50006103515625
 20
44.499984741210937
 30
0.0
 11
47.00006103515625
 21
44.499984741210937
 31
0.0
  0
LINE
  5
441
100
AcDbEntity
  8
0
  6
CONTINUOUS
 62
               7
100
AcDbLine
 10
47.00006103515625
 20
50.499984741210938
 30
0.0
 11
47.00006103515625
 21
53.79998779296875
 31
0.0
  0
LINE
  5
442
100
AcDbEntity
  8
0
  6
CONTINUOUS
 62
               7
100
AcDbLine
 10
29.00006103515625
 20
53.79998779296875
 30
0.0
 11
47.00006103515625
 21
53.79998779296875
 31
0.0
  0
ARC
  5
443
100
AcDbEntity
  8
0
  6
CONTINUOUS
 62
               7
100
AcDbCircle
 10
44.50006103515625
 20
5.5
 30
0.0
 40
3.0
100
AcDbArc
 50
89.999982013910454
 51
179.99996402782091
  0
ARC
  5
444
100
AcDbEntity
  8
0
  6
CONTINUOUS
 62
               7
100
AcDbCircle
 10
31.50006103515625
 20
7.5
 30
0.0
 40
3.0
100
AcDbArc
 50
269.99996334457541
 51
89.999982013910454
  0
CIRCLE
  5
445
100
AcDbEntity
  8
0
  6
CONTINUOUS
 62
               7
100
AcDbCircle
 10
31.50006103515625
 20
49.5
 30
0.0
 40
2.75
  0
ARC
  5
446
100
AcDbEntity
  8
0
  6
CONTINUOUS
 62
               7
100
AcDbCircle
 10
31.50006103515625
 20
49.5
 30
0.0
 40
3.0
100
AcDbArc
 50
270.00001798608872
 51
0.00001366037834
  0
ARC
  5
447
100
AcDbEntity
  8
0
  6
CONTINUOUS
 62
               7
100
AcDbCircle
 10
44.50006103515625
 20
47.5
 30
0.0
 40
3.0
100
AcDbArc
 50
89.999982013910454
 51
269.99994604173139
  0
LINE
  5
448
100
AcDbEntity
  8
0
  6
CONTINUOUS
 62
               7
100
AcDbLine
 10
32.00006103515625
 20
80.000015258789063
 30
0.0
 11
29.00006103515625
 21
80.000015258789063
 31
0.0
  0
LINE
  5
449
100
AcDbEntity
  8
0
  6
CONTINUOUS
 62
               7
100
AcDbLine
 10
47.000045776367188
 20
89.0
 30
0.0
 11
47.000045776367188
 21
54.0
 31
0.0
  0
LINE
  5
44A
100
AcDbEntity
  8
0
  6
CONTINUOUS
 62
               7
100
AcDbLine
 10
29.000045776367187
 20
90.500015258789063
 30
0.0
 11
29.000045776367187
 21
54.0
 31
0.0
  0
LINE
  5
44B
100
AcDbEntity
  8
0
  6
CONTINUOUS
 62
               7
100
AcDbLine
 10
46.50006103515625
 20
88.0
 30
0.0
 11
29.50006103515625
 21
88.0
 31
0.0
  0
LINE
  5
44C
100
AcDbEntity
  8
0
  6
CONTINUOUS
 62
               7
100
AcDbLine
 10
33.06073245870266
 20
81.939355786251326
 30
0.0
 11
30.93941304551754
 21
84.060677166389723
 31
0.0
  0
LINE
  5
44D
100
AcDbEntity
  8
0
  6
CONTINUOUS
 62
               7
100
AcDbLine
 10
30.939487589150303
 20
81.93925966335155
 30
0.0
 11
33.060808969288701
 21
84.060579076536669
 31
0.0
  0
LINE
  5
44E
100
AcDbEntity
  8
0
  6
CONTINUOUS
 62
               7
100
AcDbLine
 10
44.000076293945313
 20
60.0
 30
0.0
 11
47.000076293945313
 21
60.0
 31
0.0
  0
LINE
  5
44F
100
AcDbEntity
  8
0
  6
CONTINUOUS
 62
               7
100
AcDbLine
 10
41.00006103515625
 20
57.0
 30
0.0
 11
41.00006103515625
 21
54.0
 31
0.0
  0
LINE
  5
450
100
AcDbEntity
  8
0
  6
CONTINUOUS
 62
               7
100
AcDbLine
 10
45.060838725459689
 20
58.060513890452171
 30
0.0
 11
42.939506913352488
 21
55.939183330048877
 31
0.0
  0
LINE
  5
451
100
AcDbEntity
  8
0
  6
CONTINUOUS
 62
               7
100
AcDbLine
 10
42.939383458912744
 20
58.060627807072365
 30
0.0
 11
45.060703229725732
 21
55.939306784561836
 31
0.0
  0
LINE
  5
452
100
AcDbEntity
  8
0
  6
CONTINUOUS
 62
               7
100
AcDbLine
 10
32.000076293945313
 20
86.0
 30
0.0
 11
29.000076293945313
 21
86.0
 31
0.0
  0
LINE
  5
453
100
AcDbEntity
  8
0
  6
CONTINUOUS
 62
               7
100
AcDbLine
 10
36.050079345703125
 20
89.0
 30
0.0
 11
36.050079345703125
 21
88.0
 31
0.0
  0
LINE
  5
454
100
AcDbEntity
  8
0
  6
CONTINUOUS
 62
               7
100
AcDbLine
 10
39.9500732421875
 20
89.0
 30
0.0
 11
39.9500732421875
 21
88.0
 31
0.0
  0
ARC
  5
455
100
AcDbEntity
  8
0
  6
CONTINUOUS
 62
               7
100
AcDbCircle
 10
32.00006103515625
 20
83.000015258789063
 30
0.0
 40
3.0
100
AcDbArc
 50
270.00001798608872
 51
90.00014593845053
  0
ARC
  5
456
100
AcDbEntity
  8
0
  6
CONTINUOUS
 62
               7
100
AcDbCircle
 10
46.50006103515625
 20
87.500015258789063
 30
0.0
 40
0.5
100
AcDbArc
 50
0.00001366037834
 51
89.999982013910454
  0
ARC
  5
457
100
AcDbEntity
  8
0
  6
CONTINUOUS
 62
               7
100
AcDbCircle
 10
29.50006103515625
 20
87.500015258789063
 30
0.0
 40
0.5
100
AcDbArc
 50
89.999982013910454
 51
180.00001866933428
  0
CIRCLE
  5
458
100
AcDbEntity
  8
0
  6
CONTINUOUS
 62
               7
100
AcDbCircle
 10
32.00006103515625
 20
83.000015258789063
 30
0.0
 40
2.7999992370605469
  0
ARC
  5
459
100
AcDbEntity
  8
0
  6
CONTINUOUS
 62
               7
100
AcDbCircle
 10
44.00006103515625
 20
57.0
 30
0.0
 40
3.0
100
AcDbArc
 50
89.999982013910454
 51
179.99996402782091
  0
CIRCLE
  5
45A
100
AcDbEntity
  8
0
  6
CONTINUOUS
 62
               7
100
AcDbCircle
 10
44.00006103515625
 20
57.0
 30
0.0
 40
2.7999992370605469
  0
LINE
  5
45B
100
AcDbEntity
  8
0
  6
CONTINUOUS
 62
               7
100
AcDbLine
 10
44.500030517578125
 20
90.0
 30
0.0
 11
31.500030517578125
 21
90.0
 31
0.0
  0
LINE
  5
45C
100
AcDbEntity
  8
0
  6
CONTINUOUS
 62
               7
100
AcDbLine
 10
45.500050910010941
 20
88.999984057169968
 30
0.0
 11
44.500050017009016
 21
89.999985287347045
 31
0.0
  0
LINE
  5
45D
100
AcDbEntity
  8
0
  6
CONTINUOUS
 62
               7
100
AcDbLine
 10
31.5000011501279
 20
90.000037465079913
 30
0.0
 11
30.500000762888703
 21
89.000035729140109
 31
0.0
  0
LINE
  5
45E
100
AcDbEntity
  8
0
  6
CONTINUOUS
 62
               7
100
AcDbLine
 10
30.500030517578125
 20
89.0
 30
0.0
 11
45.500030517578125
 21
89.0
 31
0.0
  0
LINE
  5
45F
100
AcDbEntity
  8
0
  6
CONTINUOUS
 62
               4
100
AcDbLine
 10
47.000030517578125
 20
104.70000762939452
 30
0.0
 11
47.000030517578125
 21
93.503302029394519
 31
0.0
  0
ARC
  5
460
100
AcDbEntity
  8
0
  6
CONTINUOUS
 62
               4
100
AcDbCircle
 10
46.100030517578134
 20
117.30000762939454
 30
0.0
 40
0.3
100
AcDbArc
 50
0.0000000000006107
 51
90.000000000000611
  0
ARC
  5
461
100
AcDbEntity
  8
0
  6
CONTINUOUS
 62
               4
100
AcDbCircle
 10
31.500030517578139
 20
115.90000762939454
 30
0.0
 40
0.5
100
AcDbArc
 50
0.0000000000006107
 51
90.000000000000611
  0
ARC
  5
462
100
AcDbEntity
  8
0
  6
CONTINUOUS
 62
               4
100
AcDbCircle
 10
29.900030517578145
 20
117.30000762939454
 30
0.0
 40
0.3
100
AcDbArc
 50
89.999999999999815
 51
179.9999999999998
  0
ARC
  5
463
100
AcDbEntity
  8
0
  6
CONTINUOUS
 62
               4
100
AcDbCircle
 10
44.500030517578125
 20
115.90000762939454
 30
0.0
 40
0.5
100
AcDbArc
 50
89.999999999999815
 51
179.9999999999998
  0
LINE
  5
464
100
AcDbEntity
  8
0
  6
CONTINUOUS
 62
               4
100
AcDbLine
 10
46.400030517578131
 20
117.30068862939453
 30
0.0
 11
46.400030517578131
 21
116.40000762939454
 31
0.0
  0
LINE
  5
465
100
AcDbEntity
  8
0
  6
CONTINUOUS
 62
               4
100
AcDbLine
 10
29.900030517578145
 20
117.60000762939453
 30
0.0
 11
46.100030517578134
 21
117.60000762939453
 31
0.0
  0
LINE
  5
466
100
AcDbEntity
  8
0
  6
CONTINUOUS
 62
               4
100
AcDbLine
 10
46.400030517578131
 20
116.40000762939454
 30
0.0
 11
29.600030517578134
 21
116.40000762939454
 31
0.0
  0
LINE
  5
467
100
AcDbEntity
  8
0
  6
CONTINUOUS
 62
               4
100
AcDbLine
 10
29.600030517578134
 20
117.30068862939453
 30
0.0
 11
29.600030517578134
 21
116.40000762939454
 31
0.0
  0
LINE
  5
468
100
AcDbEntity
  8
0
  6
CONTINUOUS
 62
               4
100
AcDbLine
 10
32.000030517578139
 20
115.90000762939454
 30
0.0
 11
32.000030517578139
 21
115.50000762939453
 31
0.0
  0
LINE
  5
469
100
AcDbEntity
  8
0
  6
CONTINUOUS
 62
               4
100
AcDbLine
 10
45.100030517578134
 20
115.40000762939454
 30
0.0
 11
45.100030517578134
 21
114.40000662939454
 31
0.0
  0
LINE
  5
46A
100
AcDbEntity
  8
0
  6
CONTINUOUS
 62
               4
100
AcDbLine
 10
45.000030517578125
 20
115.50000762939453
 30
0.0
 11
45.100030517578134
 21
115.40000762939454
 31
0.0
  0
LINE
  5
46B
100
AcDbEntity
  8
0
  6
CONTINUOUS
 62
               4
100
AcDbLine
 10
31.000030517578139
 20
115.50000762939453
 30
0.0
 11
30.900030517578145
 21
115.40000762939454
 31
0.0
  0
LINE
  5
46C
100
AcDbEntity
  8
0
  6
CONTINUOUS
 62
               4
100
AcDbLine
 10
31.000030517578139
 20
115.50000762939453
 30
0.0
 11
45.000030517578125
 21
115.50000762939453
 31
0.0
  0
LINE
  5
46D
100
AcDbEntity
  8
0
  6
CONTINUOUS
 62
               4
100
AcDbLine
 10
30.900030517578145
 20
115.40000762939454
 30
0.0
 11
30.900030517578145
 21
114.40000662939454
 31
0.0
  0
LINE
  5
46E
100
AcDbEntity
  8
0
  6
CONTINUOUS
 62
               4
100
AcDbLine
 10
46.900030517578131
 20
109.90000762939454
 30
0.0
 11
29.100030517578134
 21
109.90000762939454
 31
0.0
  0
LINE
  5
46F
100
AcDbEntity
  8
0
  6
CONTINUOUS
 62
               4
100
AcDbLine
 10
30.100030517578134
 20
114.40000662939454
 30
0.0
 11
45.900029717578136
 21
114.40000662939454
 31
0.0
  0
LINE
  5
470
100
AcDbEntity
  8
0
  6
CONTINUOUS
 62
               4
100
AcDbLine
 10
29.200030517578142
 20
110.80000762939454
 30
0.0
 11
29.000030517578139
 21
111.00000762939453
 31
0.0
  0
LINE
  5
471
100
AcDbEntity
  8
0
  6
CONTINUOUS
 62
               4
100
AcDbLine
 10
29.000030517578139
 20
113.36492062939453
 30
0.0
 11
29.753620917578132
 21
113.80000662939455
 31
0.0
  0
LINE
  5
472
100
AcDbEntity
  8
0
  6
CONTINUOUS
 62
               4
100
AcDbLine
 10
47.000030517578125
 20
113.36492062939453
 30
0.0
 11
46.246440117578132
 21
113.80000662939455
 31
0.0
  0
LINE
  5
473
100
AcDbEntity
  8
0
  6
CONTINUOUS
 62
               4
100
AcDbLine
 10
46.246440117578132
 20
113.80000662939455
 30
0.0
 11
45.900029717578136
 21
114.40000662939454
 31
0.0
  0
LINE
  5
474
100
AcDbEntity
  8
0
  6
CONTINUOUS
 62
               4
100
AcDbLine
 10
29.753620917578132
 20
113.80000662939455
 30
0.0
 11
30.100031317578143
 21
114.40000662939454
 31
0.0
  0
LINE
  5
475
100
AcDbEntity
  8
0
  6
CONTINUOUS
 62
               4
100
AcDbLine
 10
46.800030517578136
 20
110.80000762939454
 30
0.0
 11
29.200030517578142
 21
110.80000762939454
 31
0.0
  0
LINE
  5
476
100
AcDbEntity
  8
0
  6
CONTINUOUS
 62
               4
100
AcDbLine
 10
47.000030517578125
 20
113.36492162939453
 30
0.0
 11
47.000030517578125
 21
111.00000762939453
 31
0.0
  0
LINE
  5
477
100
AcDbEntity
  8
0
  6
CONTINUOUS
 62
               4
100
AcDbLine
 10
46.800030517578136
 20
110.80000762939454
 30
0.0
 11
47.000030517578125
 21
111.00000762939453
 31
0.0
  0
LINE
  5
478
100
AcDbEntity
  8
0
  6
CONTINUOUS
 62
               4
100
AcDbLine
 10
29.000030517578139
 20
113.36492162939453
 30
0.0
 11
29.000030517578139
 21
111.00000762939453
 31
0.0
  0
LINE
  5
479
100
AcDbEntity
  8
0
  6
CONTINUOUS
 62
               4
100
AcDbLine
 10
46.800030517578136
 20
104.90000702939454
 30
0.0
 11
47.000030517578125
 21
105.10000722939452
 31
0.0
  0
LINE
  5
47A
100
AcDbEntity
  8
0
  6
CONTINUOUS
 62
               4
100
AcDbLine
 10
29.200030517578142
 20
104.90000722939453
 30
0.0
 11
46.800030517578136
 21
104.90000722939453
 31
0.0
  0
LINE
  5
47B
100
AcDbEntity
  8
0
  6
CONTINUOUS
 62
               4
100
AcDbLine
 10
47.000030517578125
 20
109.80000762939454
 30
0.0
 11
47.000030517578125
 21
105.10000722939452
 31
0.0
  0
LINE
  5
47C
100
AcDbEntity
  8
0
  6
CONTINUOUS
 62
               4
100
AcDbLine
 10
29.000030517578139
 20
109.80000762939454
 30
0.0
 11
29.000030517578139
 21
105.10000722939452
 31
0.0
  0
LINE
  5
47D
100
AcDbEntity
  8
0
  6
CONTINUOUS
 62
               4
100
AcDbLine
 10
29.200030517578142
 20
104.90000702939454
 30
0.0
 11
29.000030517578139
 21
105.10000722939452
 31
0.0
  0
LINE
  5
47E
100
AcDbEntity
  8
0
  6
CONTINUOUS
 62
               4
100
AcDbLine
 10
47.000030517578125
 20
109.80000762939454
 30
0.0
 11
46.900030517578131
 21
109.90000762939454
 31
0.0
  0
LINE
  5
47F
100
AcDbEntity
  8
0
  6
CONTINUOUS
 62
               4
100
AcDbLine
 10
29.000030517578139
 20
109.80000762939454
 30
0.0
 11
29.100030517578134
 21
109.90000762939454
 31
0.0
  0
LINE
  5
480
100
AcDbEntity
  8
0
  6
CONTINUOUS
 62
               4
100
AcDbLine
 10
29.200030517578142
 20
104.90000762939454
 30
0.0
 11
29.000030517578139
 21
104.70000742939453
 31
0.0
  0
LINE
  5
481
100
AcDbEntity
  8
0
  6
CONTINUOUS
 62
               4
100
AcDbLine
 10
46.300030517578136
 20
110.80000762939454
 30
0.0
 11
46.300030517578136
 21
109.90000762939454
 31
0.0
  0
LINE
  5
482
100
AcDbEntity
  8
0
  6
CONTINUOUS
 62
               4
100
AcDbLine
 10
29.700030517578142
 20
110.80000762939454
 30
0.0
 11
29.700030517578142
 21
109.90000762939454
 31
0.0
  0
LINE
  5
483
100
AcDbEntity
  8
0
  6
CONTINUOUS
 62
               4
100
AcDbLine
 10
46.800030517578136
 20
104.90000762939454
 30
0.0
 11
47.000030517578125
 21
104.70000742939453
 31
0.0
  0
LINE
  5
484
100
AcDbEntity
  8
0
  6
CONTINUOUS
 62
               4
100
AcDbLine
 10
29.000030517578139
 20
105.10000722939452
 30
0.0
 11
47.000030517578125
 21
105.10000722939452
 31
0.0
  0
LINE
  5
485
100
AcDbEntity
  8
0
  6
CONTINUOUS
 62
               4
100
AcDbLine
 10
44.000030517578125
 20
115.90000762939454
 30
0.0
 11
44.000030517578125
 21
115.50000762939453
 31
0.0
  0
LINE
  5
486
100
AcDbEntity
  8
0
  6
CONTINUOUS
 62
               4
100
AcDbLine
 10
30.900030517578145
 20
115.40000762939454
 30
0.0
 11
45.100030517578134
 21
115.40000762939454
 31
0.0
  0
LINE
  5
487
100
AcDbEntity
  8
0
  6
CONTINUOUS
 62
               4
100
AcDbLine
 10
29.753620917578132
 20
113.80000662939455
 30
0.0
 11
46.246440117578132
 21
113.80000662939455
 31
0.0
  0
LINE
  5
488
100
AcDbEntity
  8
0
  6
CONTINUOUS
 62
               4
100
AcDbLine
 10
29.000030517578139
 20
113.36492062939453
 30
0.0
 11
47.000030517578125
 21
113.36492062939453
 31
0.0
  0
LINE
  5
489
100
AcDbEntity
  8
0
  6
CONTINUOUS
 62
               4
100
AcDbLine
 10
29.000030517578139
 20
111.00000762939453
 30
0.0
 11
47.000030517578125
 21
111.00000762939453
 31
0.0
  0
LINE
  5
48A
100
AcDbEntity
  8
0
  6
CONTINUOUS
 62
               4
100
AcDbLine
 10
29.000030517578139
 20
109.80000762939454
 30
0.0
 11
47.000030517578125
 21
109.80000762939454
 31
0.0
  0
LINE
  5
48B
100
AcDbEntity
  8
0
  6
CONTINUOUS
 62
               4
100
AcDbLine
 10
47.000030517578125
 20
104.70000742939453
 30
0.0
 11
29.000030517578125
 21
104.70000742939453
 31
0.0
  0
LINE
  5
48C
100
AcDbEntity
  8
0
  6
CONTINUOUS
 62
               4
100
AcDbLine
 10
34.278870017578129
 20
94.000007629394531
 30
0.0
 11
29.000030517578125
 21
94.000007629394531
 31
0.0
  0
ARC
  5
48D
100
AcDbEntity
  8
0
  6
CONTINUOUS
 62
               4
100
AcDbCircle
 10
43.300030529499054
 20
89.5
 30
0.0
 40
1.5
100
AcDbArc
 50
89.999986339621458
 51
160.52877936550897
  0
ARC
  5
48E
100
AcDbEntity
  8
0
  6
CONTINUOUS
 62
               4
100
AcDbCircle
 10
45.800030529499054
 20
89.5
 30
0.0
 40
1.5
100
AcDbArc
 50
0.0000179860893428
 51
89.999986339621458
  0
LINE
  5
48F
100
AcDbEntity
  8
0
  6
CONTINUOUS
 62
               4
100
AcDbLine
 10
43.300030887126923
 20
90.999999999999957
 30
0.0
 11
45.800030887126923
 21
90.999999999999957
 31
0.0
  0
ARC
  5
490
100
AcDbEntity
  8
0
  6
CONTINUOUS
 62
               4
100
AcDbCircle
 10
38.000030517578125
 20
107.69053076189851
 30
0.0
 40
14.187228732503996
100
AcDbArc
 50
254.79404619011382
 51
285.2059538098851
  0
LINE
  5
491
100
AcDbEntity
  8
0
  6
CONTINUOUS
 62
               4
100
AcDbLine
 10
47.000030517578125
 20
94.000007629394531
 30
0.0
 11
41.721191017578136
 21
94.000007629394531
 31
0.0
  0
LINE
  5
492
100
AcDbEntity
  8
0
  6
CONTINUOUS
 62
               4
100
AcDbLine
 10
47.000030517578125
 20
93.503302029394519
 30
0.0
 11
47.000030517578125
 21
90.400000015894562
 31
0.0
  0
LINE
  5
493
100
AcDbEntity
  8
0
  6
CONTINUOUS
 62
               7
100
AcDbLine
 10
45.500030517578125
 20
89.000007629394531
 30
0.0
 11
47.300030529499054
 21
89.000007629394531
 31
0.0
  0
LINE
  5
494
100
AcDbEntity
  8
0
  6
CONTINUOUS
 62
               7
100
AcDbLine
 10
47.300030529499054
 20
89.5
 30
0.0
 11
47.300030529499054
 21
89.0
 31
0.0
  0
LINE
  5
495
100
AcDbEntity
  8
0
  6
CONTINUOUS
 62
               7
100
AcDbLine
 10
29.000030517578125
 20
89.000007629394531
 30
0.0
 11
30.500030517578125
 21
89.000007629394531
 31
0.0
  0
LINE
  5
496
100
AcDbEntity
  8
0
  6
CONTINUOUS
 62
               4
100
AcDbLine
 10
29.000030517578125
 20
90.90526762939453
 30
0.0
 11
31.500030517578125
 21
90.90526762939453
 31
0.0
  0
LINE
  5
497
100
AcDbEntity
  8
0
  6
CONTINUOUS
 62
               4
100
AcDbLine
 10
41.500030517578125
 20
91.21462662939453
 30
0.0
 11
41.500030517578125
 21
90.0
 31
0.0
  0
LINE
  5
498
100
AcDbEntity
  8
0
  6
CONTINUOUS
 62
               4
100
AcDbLine
 10
47.000030517578125
 20
93.21462662939453
 30
0.0
 11
44.500030517578125
 21
93.21462662939453
 31
0.0
  0
LINE
  5
499
100
AcDbEntity
  8
0
  6
CONTINUOUS
 62
               4
100
AcDbLine
 10
29.000030517578139
 20
104.70000742939453
 30
0.0
 11
29.000045776367187
 21
90.500015258789063
 31
0.0
  0
SPLINE
  5
49A
100
AcDbEntity
  8
0
  6
CONTINUOUS
 62
               4
100
AcDbSpline
210
0.0
220
0.0
230
1.0
 70
               0
 71
               3
 72
               0
 73
               0
 74
              41
 44
0.000001
 12
0.9936236052884185
 22
0.1127480865187747
 32
0.0
 13
-0.7599872673059157
 23
0.6499379612954506
 33
0.0
 11
31.500030517578125
 21
90.90526762939453
 31
0.0
 11
31.683625526395485
 21
90.928123267609038
 31
0.0
 11
31.866699198220584
 21
90.954895417704648
 31
0.0
 11
32.049221580903854
 21
90.985479364499056
 31
0.0
 11
32.23108734113282
 21
91.019758535907869
 31
0.0
 11
32.440693141636785
 21
91.063998981520683
 31
0.0
 11
32.649137396522228
 21
91.113419088463488
 31
0.0
 11
32.856190008634179
 21
91.168387978702725
 31
0.0
 11
33.061588530669496
 21
91.229258291194185
 31
0.0
 11
33.235336467580083
 21
91.286247707026774
 31
0.0
 11
33.407209043771694
 21
91.34863853665253
 31
0.0
 11
33.576702267256948
 21
91.41725865265731
 31
0.0
 11
33.743209765596717
 21
91.492864094229418
 31
0.0
 11
33.884689041457207
 21
91.564946759022433
 31
0.0
 11
34.02205059675358
 21
91.644584341831774
 31
0.0
 11
34.154001371985494
 21
91.733524835959656
 31
0.0
 11
34.278370778282564
 21
91.832708612755752
 31
0.0
 11
34.346904809966404
 21
91.896283105988161
 31
0.0
 11
34.41057658971031
 21
91.964736937210759
 31
0.0
 11
34.467167468723865
 21
92.038176049514817
 31
0.0
 11
34.51502838702973
 21
92.117446722203397
 31
0.0
 11
34.549948347034039
 21
92.19621329976836
 31
0.0
 11
34.575546197722794
 21
92.278576844818303
 31
0.0
 11
34.592228830874305
 21
92.36367179086082
 31
0.0
 11
34.600030517578119
 21
92.450007629394534
 31
0.0
 11
34.59566350036976
 21
92.581507194509101
 31
0.0
 11
34.573945553504757
 21
92.711467265502876
 31
0.0
 11
34.537235225620059
 21
92.838585978299761
 31
0.0
 11
34.488033899751926
 21
92.961377612864524
 31
0.0
 11
34.430183330963281
 21
93.076387486672587
 31
0.0
 11
34.363684043503277
 21
93.186600311040536
 31
0.0
 11
34.289716979964787
 21
93.291457674966665
 31
0.0
 11
34.209061812915408
 21
93.391269025366682
 31
0.0
 11
34.124556127442354
 21
93.48413771519688
 31
0.0
 11
34.035320955892367
 21
93.572473197356217
 31
0.0
 11
33.942014505005289
 21
93.656622427803697
 31
0.0
 11
33.845356676015371
 21
93.736876554540828
 31
0.0
 11
33.761297995500193
 21
93.802453965734117
 31
0.0
 11
33.676514743573186
 21
93.867124702194545
 31
0.0
 11
33.592347536671205
 21
93.932433145658194
 31
0.0
 11
33.51003051757813
 21
94.000007629394531
 31
0.0
  0
SPLINE
  5
49B
100
AcDbEntity
  8
0
  6
CONTINUOUS
 62
               4
100
AcDbSpline
210
0.0
220
0.0
230
1.0
 70
               0
 71
               3
 72
               0
 73
               0
 74
              37
 44
0.000001
 12
-0.9881349170157097
 22
-0.1535883647102106
 32
0.0
 13
-0.2801395722747447
 23
-0.9599592804102282
 33
0.0
 11
44.500030517578125
 21
93.21462662939453
 31
0.0
 11
44.369790659843702
 21
93.192759216333911
 31
0.0
 11
44.240113161754344
 21
93.167726502853412
 31
0.0
 11
44.111065351555588
 21
93.139529218499533
 31
0.0
 11
43.98275271234553
 21
93.108173659765356
 31
0.0
 11
43.886089471557717
 21
93.082322691904722
 31
0.0
 11
43.789923650907156
 21
93.05468227518449
 31
0.0
 11
43.694287221559222
 21
93.025275805438298
 31
0.0
 11
43.599203258256537
 21
92.994124922515809
 31
0.0
 11
43.481977153912645
 21
92.9530446091713
 31
0.0
 11
43.365732696685043
 21
92.909260688520007
 31
0.0
 11
43.250557082727525
 21
92.862721804272482
 31
0.0
 11
43.136554016170152
 21
92.813383084794182
 31
0.0
 11
43.037405996803301
 21
92.767663818538082
 31
0.0
 11
42.939334911249915
 21
92.719679206239874
 31
0.0
 11
42.842448208276529
 21
92.669369741598132
 31
0.0
 11
42.746841673252021
 21
92.61667005875988
 31
0.0
 11
42.66806174280066
 21
92.570781663696778
 31
0.0
 11
42.59033594595892
 21
92.523131771027934
 31
0.0
 11
42.513746296148753
 21
92.473665252866198
 31
0.0
 11
42.438390098710528
 21
92.422337435301245
 31
0.0
 11
42.359134268413634
 21
92.365219661572979
 31
0.0
 11
42.281568381795203
 21
92.305826679772991
 31
0.0
 11
42.20586856980384
 21
92.244081829627262
 31
0.0
 11
42.132214992305222
 21
92.179911666519047
 31
0.0
 11
42.066584734370814
 21
92.118830847045771
 31
0.0
 11
42.003003803156751
 21
92.055620846833406
 31
0.0
 11
41.941635067491717
 21
91.990248645561849
 31
0.0
 11
41.882662540617602
 21
91.922705429799962
 31
0.0
 11
41.827169028328221
 21
91.854101637331553
 31
0.0
 11
41.774479823409202
 21
91.783322338031994
 31
0.0
 11
41.724911277731586
 21
91.710318333681585
 31
0.0
 11
41.678804235869734
 21
91.635082471721844
 31
0.0
 11
41.624578464011378
 21
91.534236401071738
 31
0.0
 11
41.576724620875765
 21
91.430180608493941
 31
0.0
 11
41.535224928303087
 21
91.323501857951527
 31
0.0
 11
41.500030517578125
 21
91.21462662939453
 31
0.0
  0
LINE
  5
49C
100
AcDbEntity
  8
0
  6
CONTINUOUS
 62
               7
100
AcDbLine
 10
47.5
 20
54.0
 30
0.0
 11
66.5
 21
54.0
 31
0.0
  0
LINE
  5
49D
100
AcDbEntity
  8
0
  6
CONTINUOUS
 62
               7
100
AcDbLine
 10
63.50006103515625
 20
8.5
 30
0.0
 11
66.00006103515625
 21
8.5
 31
0.0
  0
LINE
  5
49E
100
AcDbEntity
  8
0
  6
CONTINUOUS
 62
               7
100
AcDbLine
 10
48.00006103515625
 20
3.199981689453125
 30
0.0
 11
60.50006103515625
 21
3.199981689453125
 31
0.0
  0
LINE
  5
49F
100
AcDbEntity
  8
0
  6
CONTINUOUS
 62
               7
100
AcDbLine
 10
62.439420596371576
 20
4.4393187238613336
 30
0.0
 11
64.560736612091944
 21
6.5606435014644831
 31
0.0
  0
LINE
  5
4A0
100
AcDbEntity
  8
0
  6
CONTINUOUS
 62
               7
100
AcDbLine
 10
64.560709982920457
 20
4.4393307906208292
 30
0.0
 11
62.439390748549272
 21
6.5606521707592265
 31
0.0
  0
LINE
  5
4A1
100
AcDbEntity
  8
0
  6
CONTINUOUS
 62
               7
100
AcDbLine
 10
66.00006103515625
 20
6.6456451416015625
 30
0.0
 11
66.00006103515625
 21
44.499984741210937
 31
0.0
  0
LINE
  5
4A2
100
AcDbEntity
  8
0
  6
CONTINUOUS
 62
               7
100
AcDbLine
 10
48.00006103515625
 20
4.4999847412109375
 30
0.0
 11
50.50006103515625
 21
4.4999847412109375
 31
0.0
  0
LINE
  5
4A3
100
AcDbEntity
  8
0
  6
CONTINUOUS
 62
               7
100
AcDbLine
 10
48.00006103515625
 20
10.499984741210937
 30
0.0
 11
50.50006103515625
 21
10.499984741210937
 31
0.0
  0
LINE
  5
4A4
100
AcDbEntity
  8
0
  6
CONTINUOUS
 62
               7
100
AcDbLine
 10
48.00006103515625
 20
10.499984741210937
 30
0.0
 11
48.00006103515625
 21
48.354354858398437
 31
0.0
  0
LINE
  5
4A5
100
AcDbEntity
  8
0
  6
CONTINUOUS
 62
               7
100
AcDbLine
 10
48.00006103515625
 20
50.645645141601562
 30
0.0
 11
48.00006103515625
 21
53.79998779296875
 31
0.0
  0
LINE
  5
4A6
100
AcDbEntity
  8
0
  6
CONTINUOUS
 62
               7
100
AcDbLine
 10
51.560743281980649
 20
48.439366016017402
 30
0.0
 11
49.439430663725034
 21
50.56069401227137
 31
0.0
  0
LINE
  5
4A7
100
AcDbEntity
  8
0
  6
CONTINUOUS
 62
               7
100
AcDbLine
 10
49.439412764958888
 20
48.439334265617163
 30
0.0
 11
51.560735217980891
 21
50.560652427104742
 31
0.0
  0
LINE
  5
4A8
100
AcDbEntity
  8
0
  6
CONTINUOUS
 62
               7
100
AcDbLine
 10
53.50006103515625
 20
49.5
 30
0.0
 11
53.50006103515625
 21
53.79998779296875
 31
0.0
  0
LINE
  5
4A9
100
AcDbEntity
  8
0
  6
CONTINUOUS
 62
               7
100
AcDbLine
 10
50.50006103515625
 20
46.5
 30
0.0
 11
48.00006103515625
 21
46.5
 31
0.0
  0
LINE
  5
4AA
100
AcDbEntity
  8
0
  6
CONTINUOUS
 62
               7
100
AcDbLine
 10
53.50006103515625
 20
51.79998779296875
 30
0.0
 11
66.00006103515625
 21
51.79998779296875
 31
0.0
  0
LINE
  5
4AB
100
AcDbEntity
  8
0
  6
CONTINUOUS
 62
               7
100
AcDbLine
 10
63.50006103515625
 20
50.499984741210938
 30
0.0
 11
66.00006103515625
 21
50.499984741210938
 31
0.0
  0
LINE
  5
4AC
100
AcDbEntity
  8
0
  6
CONTINUOUS
 62
               7
100
AcDbLine
 10
63.50006103515625
 20
44.499984741210937
 30
0.0
 11
66.00006103515625
 21
44.499984741210937
 31
0.0
  0
LINE
  5
4AD
100
AcDbEntity
  8
0
  6
CONTINUOUS
 62
               7
100
AcDbLine
 10
66.00006103515625
 20
50.499984741210938
 30
0.0
 11
66.00006103515625
 21
53.79998779296875
 31
0.0
  0
LINE
  5
4AE
100
AcDbEntity
  8
0
  6
CONTINUOUS
 62
               7
100
AcDbLine
 10
48.00006103515625
 20
53.79998779296875
 30
0.0
 11
66.00006103515625
 21
53.79998779296875
 31
0.0
  0
ARC
  5
4AF
100
AcDbEntity
  8
0
  6
CONTINUOUS
 62
               7
100
AcDbCircle
 10
63.50006103515625
 20
5.5
 30
0.0
 40
3.0
100
AcDbArc
 50
89.999982013910454
 51
179.99996402782091
  0
ARC
  5
4B0
100
AcDbEntity
  8
0
  6
CONTINUOUS
 62
               7
100
AcDbCircle
 10
50.50006103515625
 20
7.5
 30
0.0
 40
3.0
100
AcDbArc
 50
269.99996334457541
 51
89.999982013910454
  0
CIRCLE
  5
4B1
100
AcDbEntity
  8
0
  6
CONTINUOUS
 62
               7
100
AcDbCircle
 10
50.50006103515625
 20
49.5
 30
0.0
 40
2.75
  0
ARC
  5
4B2
100
AcDbEntity
  8
0
  6
CONTINUOUS
 62
               7
100
AcDbCircle
 10
50.50006103515625
 20
49.5
 30
0.0
 40
3.0
100
AcDbArc
 50
270.00001798608872
 51
0.00001366037834
  0
ARC
  5
4B3
100
AcDbEntity
  8
0
  6
CONTINUOUS
 62
               7
100
AcDbCircle
 10
63.50006103515625
 20
47.5
 30
0.0
 40
3.0
100
AcDbArc
 50
89.999982013910454
 51
269.99994604173139
  0
LINE
  5
4B4
100
AcDbEntity
  8
0
  6
CONTINUOUS
 62
               7
100
AcDbLine
 10
51.00006103515625
 20
80.000015258789063
 30
0.0
 11
48.00006103515625
 21
80.000015258789063
 31
0.0
  0
LINE
  5
4B5
100
AcDbEntity
  8
0
  6
CONTINUOUS
 62
             200
100
AcDbLine
 10
57.000030517578125
 20
119.06109619140625
 30
0.0
 11
57.000030517578125
 21
89.0
 31
0.0
  0
LINE
  5
4B6
100
AcDbEntity
  8
0
  6
CONTINUOUS
 62
               7
100
AcDbLine
 10
66.000045776367188
 20
89.0
 30
0.0
 11
66.000045776367188
 21
54.0
 31
0.0
  0
LINE
  5
4B7
100
AcDbEntity
  8
0
  6
CONTINUOUS
 62
               7
100
AcDbLine
 10
48.000045776367188
 20
90.500015258789063
 30
0.0
 11
48.000045776367188
 21
54.0
 31
0.0
  0
LINE
  5
4B8
100
AcDbEntity
  8
0
  6
CONTINUOUS
 62
               7
100
AcDbLine
 10
65.50006103515625
 20
88.0
 30
0.0
 11
48.50006103515625
 21
88.0
 31
0.0
  0
LINE
  5
4B9
100
AcDbEntity
  8
0
  6
CONTINUOUS
 62
               7
100
AcDbLine
 10
52.06073245870266
 20
81.939355786251326
 30
0.0
 11
49.93941304551754
 21
84.060677166389723
 31
0.0
  0
LINE
  5
4BA
100
AcDbEntity
  8
0
  6
CONTINUOUS
 62
               7
100
AcDbLine
 10
49.939487589150303
 20
81.93925966335155
 30
0.0
 11
52.060808969288701
 21
84.060579076536669
 31
0.0
  0
LINE
  5
4BB
100
AcDbEntity
  8
0
  6
CONTINUOUS
 62
               7
100
AcDbLine
 10
63.000076293945313
 20
60.0
 30
0.0
 11
66.000076293945313
 21
60.0
 31
0.0
  0
LINE
  5
4BC
100
AcDbEntity
  8
0
  6
CONTINUOUS
 62
               7
100
AcDbLine
 10
60.00006103515625
 20
57.0
 30
0.0
 11
60.00006103515625
 21
54.0
 31
0.0
  0
LINE
  5
4BD
100
AcDbEntity
  8
0
  6
CONTINUOUS
 62
               7
100
AcDbLine
 10
64.060838725459689
 20
58.060513890452171
 30
0.0
 11
61.939506913352488
 21
55.939183330048877
 31
0.0
  0
LINE
  5
4BE
100
AcDbEntity
  8
0
  6
CONTINUOUS
 62
               7
100
AcDbLine
 10
61.939383458912744
 20
58.060627807072365
 30
0.0
 11
64.060703229725732
 21
55.939306784561836
 31
0.0
  0
LINE
  5
4BF
100
AcDbEntity
  8
0
  6
CONTINUOUS
 62
               7
100
AcDbLine
 10
51.000076293945313
 20
86.0
 30
0.0
 11
48.000076293945313
 21
86.0
 31
0.0
  0
LINE
  5
4C0
100
AcDbEntity
  8
0
  6
CONTINUOUS
 62
               7
100
AcDbLine
 10
55.050079345703125
 20
89.0
 30
0.0
 11
55.050079345703125
 21
88.0
 31
0.0
  0
LINE
  5
4C1
100
AcDbEntity
  8
0
  6
CONTINUOUS
 62
               7
100
AcDbLine
 10
58.9500732421875
 20
89.0
 30
0.0
 11
58.9500732421875
 21
88.0
 31
0.0
  0
ARC
  5
4C2
100
AcDbEntity
  8
0
  6
CONTINUOUS
 62
               7
100
AcDbCircle
 10
51.00006103515625
 20
83.000015258789063
 30
0.0
 40
3.0
100
AcDbArc
 50
270.00001798608872
 51
90.00014593845053
  0
ARC
  5
4C3
100
AcDbEntity
  8
0
  6
CONTINUOUS
 62
               7
100
AcDbCircle
 10
65.50006103515625
 20
87.500015258789063
 30
0.0
 40
0.5
100
AcDbArc
 50
0.00001366037834
 51
89.999982013910454
  0
ARC
  5
4C4
100
AcDbEntity
  8
0
  6
CONTINUOUS
 62
               7
100
AcDbCircle
 10
48.50006103515625
 20
87.500015258789063
 30
0.0
 40
0.5
100
AcDbArc
 50
89.999982013910454
 51
180.00001866933428
  0
CIRCLE
  5
4C5
100
AcDbEntity
  8
0
  6
CONTINUOUS
 62
               7
100
AcDbCircle
 10
51.00006103515625
 20
83.000015258789063
 30
0.0
 40
2.7999992370605469
  0
ARC
  5
4C6
100
AcDbEntity
  8
0
  6
CONTINUOUS
 62
               7
100
AcDbCircle
 10
63.00006103515625
 20
57.0
 30
0.0
 40
3.0
100
AcDbArc
 50
89.999982013910454
 51
179.99996402782091
  0
CIRCLE
  5
4C7
100
AcDbEntity
  8
0
  6
CONTINUOUS
 62
               7
100
AcDbCircle
 10
63.00006103515625
 20
57.0
 30
0.0
 40
2.7999992370605469
  0
LINE
  5
4C8
100
AcDbEntity
  8
0
  6
CONTINUOUS
 62
               7
100
AcDbLine
 10
63.500030517578125
 20
90.0
 30
0.0
 11
50.500030517578125
 21
90.0
 31
0.0
  0
LINE
  5
4C9
100
AcDbEntity
  8
0
  6
CONTINUOUS
 62
               7
100
AcDbLine
 10
64.500050910010941
 20
88.999984057169968
 30
0.0
 11
63.500050017009016
 21
89.999985287347045
 31
0.0
  0
LINE
  5
4CA
100
AcDbEntity
  8
0
  6
CONTINUOUS
 62
               7
100
AcDbLine
 10
50.5000011501279
 20
90.000037465079913
 30
0.0
 11
49.500000762888703
 21
89.000035729140109
 31
0.0
  0
LINE
  5
4CB
100
AcDbEntity
  8
0
  6
CONTINUOUS
 62
               7
100
AcDbLine
 10
49.500030517578125
 20
89.0
 30
0.0
 11
64.500030517578125
 21
89.0
 31
0.0
  0
LINE
  5
4CC
100
AcDbEntity
  8
0
  6
CONTINUOUS
 62
               4
100
AcDbLine
 10
66.000030517578125
 20
104.70000762939452
 30
0.0
 11
66.000030517578125
 21
93.503302029394519
 31
0.0
  0
ARC
  5
4CD
100
AcDbEntity
  8
0
  6
CONTINUOUS
 62
               4
100
AcDbCircle
 10
65.100030517578134
 20
117.30000762939454
 30
0.0
 40
0.3
100
AcDbArc
 50
0.0000000000006107
 51
90.000000000000611
  0
ARC
  5
4CE
100
AcDbEntity
  8
0
  6
CONTINUOUS
 62
               4
100
AcDbCircle
 10
50.500030517578139
 20
115.90000762939454
 30
0.0
 40
0.5
100
AcDbArc
 50
0.0000000000006107
 51
90.000000000000611
  0
ARC
  5
4CF
100
AcDbEntity
  8
0
  6
CONTINUOUS
 62
               4
100
AcDbCircle
 10
48.900030517578145
 20
117.30000762939454
 30
0.0
 40
0.3
100
AcDbArc
 50
89.999999999999815
 51
179.9999999999998
  0
ARC
  5
4D0
100
AcDbEntity
  8
0
  6
CONTINUOUS
 62
               4
100
AcDbCircle
 10
63.500030517578125
 20
115.90000762939454
 30
0.0
 40
0.5
100
AcDbArc
 50
89.999999999999815
 51
179.9999999999998
  0
LINE
  5
4D1
100
AcDbEntity
  8
0
  6
CONTINUOUS
 62
               4
100
AcDbLine
 10
65.400030517578131
 20
117.30068862939453
 30
0.0
 11
65.400030517578131
 21
116.40000762939454
 31
0.0
  0
LINE
  5
4D2
100
AcDbEntity
  8
0
  6
CONTINUOUS
 62
               4
100
AcDbLine
 10
48.900030517578145
 20
117.60000762939453
 30
0.0
 11
65.100030517578134
 21
117.60000762939453
 31
0.0
  0
LINE
  5
4D3
100
AcDbEntity
  8
0
  6
CONTINUOUS
 62
               4
100
AcDbLine
 10
65.400030517578131
 20
116.40000762939454
 30
0.0
 11
48.600030517578134
 21
116.40000762939454
 31
0.0
  0
LINE
  5
4D4
100
AcDbEntity
  8
0
  6
CONTINUOUS
 62
               4
100
AcDbLine
 10
48.600030517578134
 20
117.30068862939453
 30
0.0
 11
48.600030517578134
 21
116.40000762939454
 31
0.0
  0
LINE
  5
4D5
100
AcDbEntity
  8
0
  6
CONTINUOUS
 62
               4
100
AcDbLine
 10
51.000030517578139
 20
115.90000762939454
 30
0.0
 11
51.000030517578139
 21
115.50000762939453
 31
0.0
  0
LINE
  5
4D6
100
AcDbEntity
  8
0
  6
CONTINUOUS
 62
               4
100
AcDbLine
 10
64.100030517578134
 20
115.40000762939454
 30
0.0
 11
64.100030517578134
 21
114.40000662939454
 31
0.0
  0
LINE
  5
4D7
100
AcDbEntity
  8
0
  6
CONTINUOUS
 62
               4
100
AcDbLine
 10
64.000030517578125
 20
115.50000762939453
 30
0.0
 11
64.100030517578134
 21
115.40000762939454
 31
0.0
  0
LINE
  5
4D8
100
AcDbEntity
  8
0
  6
CONTINUOUS
 62
               4
100
AcDbLine
 10
50.000030517578139
 20
115.50000762939453
 30
0.0
 11
49.900030517578145
 21
115.40000762939454
 31
0.0
  0
LINE
  5
4D9
100
AcDbEntity
  8
0
  6
CONTINUOUS
 62
               4
100
AcDbLine
 10
50.000030517578139
 20
115.50000762939453
 30
0.0
 11
64.000030517578125
 21
115.50000762939453
 31
0.0
  0
LINE
  5
4DA
100
AcDbEntity
  8
0
  6
CONTINUOUS
 62
               4
100
AcDbLine
 10
49.900030517578145
 20
115.40000762939454
 30
0.0
 11
49.900030517578145
 21
114.40000662939454
 31
0.0
  0
LINE
  5
4DB
100
AcDbEntity
  8
0
  6
CONTINUOUS
 62
               4
100
AcDbLine
 10
65.900030517578131
 20
109.90000762939454
 30
0.0
 11
48.100030517578134
 21
109.90000762939454
 31
0.0
  0
LINE
  5
4DC
100
AcDbEntity
  8
0
  6
CONTINUOUS
 62
               4
100
AcDbLine
 10
49.100030517578134
 20
114.40000662939454
 30
0.0
 11
64.900029717578136
 21
114.40000662939454
 31
0.0
  0
LINE
  5
4DD
100
AcDbEntity
  8
0
  6
CONTINUOUS
 62
               4
100
AcDbLine
 10
48.200030517578142
 20
110.80000762939454
 30
0.0
 11
48.000030517578139
 21
111.00000762939453
 31
0.0
  0
LINE
  5
4DE
100
AcDbEntity
  8
0
  6
CONTINUOUS
 62
               4
100
AcDbLine
 10
48.000030517578139
 20
113.36492062939453
 30
0.0
 11
48.753620917578132
 21
113.80000662939455
 31
0.0
  0
LINE
  5
4DF
100
AcDbEntity
  8
0
  6
CONTINUOUS
 62
               4
100
AcDbLine
 10
66.000030517578125
 20
113.36492062939453
 30
0.0
 11
65.246440117578132
 21
113.80000662939455
 31
0.0
  0
LINE
  5
4E0
100
AcDbEntity
  8
0
  6
CONTINUOUS
 62
               4
100
AcDbLine
 10
65.246440117578132
 20
113.80000662939455
 30
0.0
 11
64.900029717578136
 21
114.40000662939454
 31
0.0
  0
LINE
  5
4E1
100
AcDbEntity
  8
0
  6
CONTINUOUS
 62
               4
100
AcDbLine
 10
48.753620917578132
 20
113.80000662939455
 30
0.0
 11
49.100031317578143
 21
114.40000662939454
 31
0.0
  0
LINE
  5
4E2
100
AcDbEntity
  8
0
  6
CONTINUOUS
 62
               4
100
AcDbLine
 10
65.800030517578136
 20
110.80000762939454
 30
0.0
 11
48.200030517578142
 21
110.80000762939454
 31
0.0
  0
LINE
  5
4E3
100
AcDbEntity
  8
0
  6
CONTINUOUS
 62
               4
100
AcDbLine
 10
66.000030517578125
 20
113.36492162939453
 30
0.0
 11
66.000030517578125
 21
111.00000762939453
 31
0.0
  0
LINE
  5
4E4
100
AcDbEntity
  8
0
  6
CONTINUOUS
 62
               4
100
AcDbLine
 10
65.800030517578136
 20
110.80000762939454
 30
0.0
 11
66.000030517578125
 21
111.00000762939453
 31
0.0
  0
LINE
  5
4E5
100
AcDbEntity
  8
0
  6
CONTINUOUS
 62
               4
100
AcDbLine
 10
48.000030517578139
 20
113.36492162939453
 30
0.0
 11
48.000030517578139
 21
111.00000762939453
 31
0.0
  0
LINE
  5
4E6
100
AcDbEntity
  8
0
  6
CONTINUOUS
 62
               4
100
AcDbLine
 10
65.800030517578136
 20
104.90000702939454
 30
0.0
 11
66.000030517578125
 21
105.10000722939452
 31
0.0
  0
LINE
  5
4E7
100
AcDbEntity
  8
0
  6
CONTINUOUS
 62
               4
100
AcDbLine
 10
48.200030517578142
 20
104.90000722939453
 30
0.0
 11
65.800030517578136
 21
104.90000722939453
 31
0.0
  0
LINE
  5
4E8
100
AcDbEntity
  8
0
  6
CONTINUOUS
 62
               4
100
AcDbLine
 10
66.000030517578125
 20
109.80000762939454
 30
0.0
 11
66.000030517578125
 21
105.10000722939452
 31
0.0
  0
LINE
  5
4E9
100
AcDbEntity
  8
0
  6
CONTINUOUS
 62
               4
100
AcDbLine
 10
48.000030517578139
 20
109.80000762939454
 30
0.0
 11
48.000030517578139
 21
105.10000722939452
 31
0.0
  0
LINE
  5
4EA
100
AcDbEntity
  8
0
  6
CONTINUOUS
 62
               4
100
AcDbLine
 10
48.200030517578142
 20
104.90000702939454
 30
0.0
 11
48.000030517578139
 21
105.10000722939452
 31
0.0
  0
LINE
  5
4EB
100
AcDbEntity
  8
0
  6
CONTINUOUS
 62
               4
100
AcDbLine
 10
66.000030517578125
 20
109.80000762939454
 30
0.0
 11
65.900030517578131
 21
109.90000762939454
 31
0.0
  0
LINE
  5
4EC
100
AcDbEntity
  8
0
  6
CONTINUOUS
 62
               4
100
AcDbLine
 10
48.000030517578139
 20
109.80000762939454
 30
0.0
 11
48.100030517578134
 21
109.90000762939454
 31
0.0
  0
LINE
  5
4ED
100
AcDbEntity
  8
0
  6
CONTINUOUS
 62
               4
100
AcDbLine
 10
48.200030517578142
 20
104.90000762939454
 30
0.0
 11
48.000030517578139
 21
104.70000742939453
 31
0.0
  0
LINE
  5
4EE
100
AcDbEntity
  8
0
  6
CONTINUOUS
 62
               4
100
AcDbLine
 10
65.300030517578136
 20
110.80000762939454
 30
0.0
 11
65.300030517578136
 21
109.90000762939454
 31
0.0
  0
LINE
  5
4EF
100
AcDbEntity
  8
0
  6
CONTINUOUS
 62
               4
100
AcDbLine
 10
48.700030517578142
 20
110.80000762939454
 30
0.0
 11
48.700030517578142
 21
109.90000762939454
 31
0.0
  0
LINE
  5
4F0
100
AcDbEntity
  8
0
  6
CONTINUOUS
 62
               4
100
AcDbLine
 10
65.800030517578136
 20
104.90000762939454
 30
0.0
 11
66.000030517578125
 21
104.70000742939453
 31
0.0
  0
LINE
  5
4F1
100
AcDbEntity
  8
0
  6
CONTINUOUS
 62
               4
100
AcDbLine
 10
48.000030517578139
 20
105.10000722939452
 30
0.0
 11
66.000030517578125
 21
105.10000722939452
 31
0.0
  0
LINE
  5
4F2
100
AcDbEntity
  8
0
  6
CONTINUOUS
 62
               4
100
AcDbLine
 10
63.000030517578125
 20
115.90000762939454
 30
0.0
 11
63.000030517578125
 21
115.50000762939453
 31
0.0
  0
LINE
  5
4F3
100
AcDbEntity
  8
0
  6
CONTINUOUS
 62
               4
100
AcDbLine
 10
49.900030517578145
 20
115.40000762939454
 30
0.0
 11
64.100030517578134
 21
115.40000762939454
 31
0.0
  0
LINE
  5
4F4
100
AcDbEntity
  8
0
  6
CONTINUOUS
 62
               4
100
AcDbLine
 10
48.753620917578132
 20
113.80000662939455
 30
0.0
 11
65.246440117578132
 21
113.80000662939455
 31
0.0
  0
LINE
  5
4F5
100
AcDbEntity
  8
0
  6
CONTINUOUS
 62
               4
100
AcDbLine
 10
48.000030517578139
 20
113.36492062939453
 30
0.0
 11
66.000030517578125
 21
113.36492062939453
 31
0.0
  0
LINE
  5
4F6
100
AcDbEntity
  8
0
  6
CONTINUOUS
 62
               4
100
AcDbLine
 10
48.000030517578139
 20
111.00000762939453
 30
0.0
 11
66.000030517578125
 21
111.00000762939453
 31
0.0
  0
LINE
  5
4F7
100
AcDbEntity
  8
0
  6
CONTINUOUS
 62
               4
100
AcDbLine
 10
48.000030517578139
 20
109.80000762939454
 30
0.0
 11
66.000030517578125
 21
109.80000762939454
 31
0.0
  0
LINE
  5
4F8
100
AcDbEntity
  8
0
  6
CONTINUOUS
 62
               4
100
AcDbLine
 10
66.000030517578125
 20
104.70000742939453
 30
0.0
 11
48.000030517578125
 21
104.70000742939453
 31
0.0
  0
LINE
  5
4F9
100
AcDbEntity
  8
0
  6
CONTINUOUS
 62
               4
100
AcDbLine
 10
53.278870017578129
 20
94.000007629394531
 30
0.0
 11
48.000030517578125
 21
94.000007629394531
 31
0.0
  0
ARC
  5
4FA
100
AcDbEntity
  8
0
  6
CONTINUOUS
 62
               4
100
AcDbCircle
 10
62.300030529499054
 20
89.5
 30
0.0
 40
1.5
100
AcDbArc
 50
89.999986339621458
 51
160.52877936550897
  0
ARC
  5
4FB
100
AcDbEntity
  8
0
  6
CONTINUOUS
 62
               4
100
AcDbCircle
 10
64.800030529499054
 20
89.5
 30
0.0
 40
1.5
100
AcDbArc
 50
0.0000179860893428
 51
89.999986339621458
  0
LINE
  5
4FC
100
AcDbEntity
  8
0
  6
CONTINUOUS
 62
               4
100
AcDbLine
 10
62.300030887126923
 20
90.999999999999957
 30
0.0
 11
64.800030887126923
 21
90.999999999999957
 31
0.0
  0
ARC
  5
4FD
100
AcDbEntity
  8
0
  6
CONTINUOUS
 62
               4
100
AcDbCircle
 10
57.000030517578125
 20
107.69053076189851
 30
0.0
 40
14.187228732503996
100
AcDbArc
 50
254.79404619011382
 51
285.2059538098851
  0
LINE
  5
4FE
100
AcDbEntity
  8
0
  6
CONTINUOUS
 62
               4
100
AcDbLine
 10
66.000030517578125
 20
94.000007629394531
 30
0.0
 11
60.721191017578136
 21
94.000007629394531
 31
0.0
  0
LINE
  5
4FF
100
AcDbEntity
  8
0
  6
CONTINUOUS
 62
               4
100
AcDbLine
 10
66.000030517578125
 20
93.503302029394519
 30
0.0
 11
66.000030517578125
 21
90.400000015894562
 31
0.0
  0
LINE
  5
500
100
AcDbEntity
  8
0
  6
CONTINUOUS
 62
               7
100
AcDbLine
 10
64.500030517578125
 20
89.000007629394531
 30
0.0
 11
66.300030529499054
 21
89.000007629394531
 31
0.0
  0
LINE
  5
501
100
AcDbEntity
  8
0
  6
CONTINUOUS
 62
               7
100
AcDbLine
 10
66.300030529499054
 20
89.5
 30
0.0
 11
66.300030529499054
 21
89.0
 31
0.0
  0
LINE
  5
502
100
AcDbEntity
  8
0
  6
CONTINUOUS
 62
               7
100
AcDbLine
 10
48.000030517578125
 20
89.000007629394531
 30
0.0
 11
49.500030517578125
 21
89.000007629394531
 31
0.0
  0
LINE
  5
503
100
AcDbEntity
  8
0
  6
CONTINUOUS
 62
               4
100
AcDbLine
 10
48.000030517578125
 20
90.90526762939453
 30
0.0
 11
50.500030517578125
 21
90.90526762939453
 31
0.0
  0
LINE
  5
504
100
AcDbEntity
  8
0
  6
CONTINUOUS
 62
               4
100
AcDbLine
 10
60.500030517578125
 20
91.21462662939453
 30
0.0
 11
60.500030517578125
 21
90.0
 31
0.0
  0
LINE
  5
505
100
AcDbEntity
  8
0
  6
CONTINUOUS
 62
               4
100
AcDbLine
 10
66.000030517578125
 20
93.21462662939453
 30
0.0
 11
63.500030517578125
 21
93.21462662939453
 31
0.0
  0
LINE
  5
506
100
AcDbEntity
  8
0
  6
CONTINUOUS
 62
               4
100
AcDbLine
 10
48.000030517578139
 20
104.70000742939453
 30
0.0
 11
48.000045776367188
 21
90.500015258789063
 31
0.0
  0
SPLINE
  5
507
100
AcDbEntity
  8
0
  6
CONTINUOUS
 62
               4
100
AcDbSpline
210
0.0
220
0.0
230
1.0
 70
               0
 71
               3
 72
               0
 73
               0
 74
              41
 44
0.000001
 12
0.9936236052884185
 22
0.1127480865187747
 32
0.0
 13
-0.7599872673059157
 23
0.6499379612954506
 33
0.0
 11
50.500030517578125
 21
90.90526762939453
 31
0.0
 11
50.683625526395488
 21
90.928123267609038
 31
0.0
 11
50.866699198220587
 21
90.954895417704648
 31
0.0
 11
51.049221580903854
 21
90.985479364499056
 31
0.0
 11
51.23108734113282
 21
91.019758535907869
 31
0.0
 11
51.440693141636785
 21
91.063998981520683
 31
0.0
 11
51.649137396522228
 21
91.113419088463488
 31
0.0
 11
51.856190008634179
 21
91.168387978702725
 31
0.0
 11
52.061588530669496
 21
91.229258291194185
 31
0.0
 11
52.235336467580083
 21
91.286247707026774
 31
0.0
 11
52.407209043771694
 21
91.34863853665253
 31
0.0
 11
52.576702267256948
 21
91.41725865265731
 31
0.0
 11
52.743209765596717
 21
91.492864094229418
 31
0.0
 11
52.884689041457207
 21
91.564946759022433
 31
0.0
 11
53.02205059675358
 21
91.644584341831774
 31
0.0
 11
53.154001371985494
 21
91.733524835959656
 31
0.0
 11
53.278370778282564
 21
91.832708612755752
 31
0.0
 11
53.346904809966404
 21
91.896283105988161
 31
0.0
 11
53.41057658971031
 21
91.964736937210759
 31
0.0
 11
53.467167468723865
 21
92.038176049514817
 31
0.0
 11
53.51502838702973
 21
92.117446722203397
 31
0.0
 11
53.549948347034039
 21
92.19621329976836
 31
0.0
 11
53.575546197722794
 21
92.278576844818303
 31
0.0
 11
53.592228830874305
 21
92.36367179086082
 31
0.0
 11
53.600030517578119
 21
92.450007629394534
 31
0.0
 11
53.59566350036976
 21
92.581507194509101
 31
0.0
 11
53.573945553504757
 21
92.711467265502876
 31
0.0
 11
53.537235225620059
 21
92.838585978299761
 31
0.0
 11
53.488033899751926
 21
92.961377612864524
 31
0.0
 11
53.430183330963281
 21
93.076387486672587
 31
0.0
 11
53.363684043503277
 21
93.186600311040536
 31
0.0
 11
53.289716979964787
 21
93.291457674966665
 31
0.0
 11
53.209061812915408
 21
93.391269025366682
 31
0.0
 11
53.124556127442354
 21
93.48413771519688
 31
0.0
 11
53.035320955892367
 21
93.572473197356217
 31
0.0
 11
52.942014505005289
 21
93.656622427803697
 31
0.0
 11
52.845356676015371
 21
93.736876554540828
 31
0.0
 11
52.761297995500193
 21
93.802453965734117
 31
0.0
 11
52.676514743573186
 21
93.867124702194545
 31
0.0
 11
52.592347536671205
 21
93.932433145658194
 31
0.0
 11
52.51003051757813
 21
94.000007629394531
 31
0.0
  0
SPLINE
  5
508
100
AcDbEntity
  8
0
  6
CONTINUOUS
 62
               4
100
AcDbSpline
210
0.0
220
0.0
230
1.0
 70
               0
 71
               3
 72
               0
 73
               0
 74
              37
 44
0.000001
 12
-0.9881349170157097
 22
-0.1535883647102106
 32
0.0
 13
-0.2801395722747447
 23
-0.9599592804102282
 33
0.0
 11
63.500030517578125
 21
93.21462662939453
 31
0.0
 11
63.369790659843702
 21
93.192759216333911
 31
0.0
 11
63.240113161754344
 21
93.167726502853412
 31
0.0
 11
63.111065351555588
 21
93.139529218499533
 31
0.0
 11
62.98275271234553
 21
93.108173659765356
 31
0.0
 11
62.886089471557717
 21
93.082322691904722
 31
0.0
 11
62.789923650907156
 21
93.05468227518449
 31
0.0
 11
62.694287221559222
 21
93.025275805438298
 31
0.0
 11
62.599203258256537
 21
92.994124922515809
 31
0.0
 11
62.481977153912645
 21
92.9530446091713
 31
0.0
 11
62.365732696685043
 21
92.909260688520007
 31
0.0
 11
62.250557082727525
 21
92.862721804272482
 31
0.0
 11
62.136554016170152
 21
92.813383084794182
 31
0.0
 11
62.037405996803301
 21
92.767663818538082
 31
0.0
 11
61.939334911249915
 21
92.719679206239874
 31
0.0
 11
61.842448208276529
 21
92.669369741598132
 31
0.0
 11
61.746841673252021
 21
92.61667005875988
 31
0.0
 11
61.66806174280066
 21
92.570781663696778
 31
0.0
 11
61.59033594595892
 21
92.523131771027934
 31
0.0
 11
61.513746296148753
 21
92.473665252866198
 31
0.0
 11
61.438390098710528
 21
92.422337435301245
 31
0.0
 11
61.359134268413634
 21
92.365219661572979
 31
0.0
 11
61.281568381795203
 21
92.305826679772991
 31
0.0
 11
61.20586856980384
 21
92.244081829627262
 31
0.0
 11
61.132214992305222
 21
92.179911666519047
 31
0.0
 11
61.066584734370814
 21
92.118830847045771
 31
0.0
 11
61.003003803156751
 21
92.055620846833406
 31
0.0
 11
60.941635067491717
 21
91.990248645561849
 31
0.0
 11
60.882662540617602
 21
91.922705429799962
 31
0.0
 11
60.827169028328221
 21
91.854101637331553
 31
0.0
 11
60.774479823409202
 21
91.783322338031994
 31
0.0
 11
60.724911277731586
 21
91.710318333681585
 31
0.0
 11
60.678804235869734
 21
91.635082471721844
 31
0.0
 11
60.624578464011378
 21
91.534236401071738
 31
0.0
 11
60.576724620875765
 21
91.430180608493941
 31
0.0
 11
60.535224928303087
 21
91.323501857951527
 31
0.0
 11
60.500030517578125
 21
91.21462662939453
 31
0.0
  0
LINE
  5
509
100
AcDbEntity
  8
0
  6
CONTINUOUS
 62
               4
100
AcDbLine
 10
88.0
 20
94.599981689453131
 30
0.0
 11
88.0
 21
93.599981689453131
 31
0.0
  0
LINE
  5
50A
100
AcDbEntity
  8
0
  6
CONTINUOUS
 62
               4
100
AcDbLine
 10
104.0
 20
94.599981689453131
 30
0.0
 11
104.0
 21
93.599981689453131
 31
0.0
  0
LINE
  5
50B
100
AcDbEntity
  8
0
  6
CONTINUOUS
 62
               4
100
AcDbLine
 10
103.0
 20
95.599989318847662
 30
0.0
 11
103.0
 21
94.599981689453131
 31
0.0
  0
LINE
  5
50C
100
AcDbEntity
  8
0
  6
CONTINUOUS
 62
               4
100
AcDbLine
 10
89.0
 20
95.599989318847662
 30
0.0
 11
89.0
 21
94.599981689453131
 31
0.0
  0
LINE
  5
50D
100
AcDbEntity
  8
0
  6
CONTINUOUS
 62
               4
100
AcDbLine
 10
106.0
 20
92.099981689453131
 30
0.0
 11
86.0
 21
92.099981689453131
 31
0.0
  0
LINE
  5
50E
100
AcDbEntity
  8
0
  6
CONTINUOUS
 62
               4
100
AcDbLine
 10
85.9999364395253
 20
92.100003452165225
 30
0.0
 11
87.499938031909551
 21
93.600005044549476
 31
0.0
  0
LINE
  5
50F
100
AcDbEntity
  8
0
  6
CONTINUOUS
 62
               4
100
AcDbLine
 10
104.49998021221381
 20
93.599994305534352
 30
0.0
 11
105.99998167815738
 21
92.099992460268737
 31
0.0
  0
LINE
  5
510
100
AcDbEntity
  8
0
  6
CONTINUOUS
 62
               4
100
AcDbLine
 10
104.0
 20
94.599981689453131
 30
0.0
 11
88.0
 21
94.599981689453131
 31
0.0
  0
LINE
  5
511
100
AcDbEntity
  8
0
  6
CONTINUOUS
 62
               4
100
AcDbLine
 10
104.5
 20
93.599981689453131
 30
0.0
 11
87.5
 21
93.599981689453131
 31
0.0
  0
LINE
  5
512
100
AcDbEntity
  8
0
  6
CONTINUOUS
 62
               4
100
AcDbLine
 10
105.0
 20
95.599989318847662
 30
0.0
 11
87.0
 21
95.599989318847662
 31
0.0
  0
LINE
  5
513
100
AcDbEntity
  8
0
  6
CONTINUOUS
 62
               4
100
AcDbLine
 10
87.0
 20
95.599989318847662
 30
0.0
 11
87.0
 21
97.799990081787115
 31
0.0
  0
LINE
  5
514
100
AcDbEntity
  8
0
  6
CONTINUOUS
 62
               4
100
AcDbLine
 10
105.0
 20
95.599989318847662
 30
0.0
 11
105.0
 21
97.799990081787115
 31
0.0
  0
LINE
  5
515
100
AcDbEntity
  8
0
  6
CONTINUOUS
 62
               4
100
AcDbLine
 10
105.0
 20
97.799990081787115
 30
0.0
 11
87.0
 21
97.799990081787115
 31
0.0
  0
LINE
  5
516
100
AcDbEntity
  8
0
  6
CONTINUOUS
 62
               4
100
AcDbLine
 10
86.0
 20
76.0
 30
0.0
 11
86.0
 21
92.099981689453131
 31
0.0
  0
LINE
  5
517
100
AcDbEntity
  8
0
  6
CONTINUOUS
 62
               4
100
AcDbLine
 10
106.0
 20
76.0
 30
0.0
 11
106.0
 21
92.099981689453131
 31
0.0
  0
LINE
  5
518
100
AcDbEntity
  8
0
  6
CONTINUOUS
 62
               4
100
AcDbLine
 10
10.00006103515625
 20
104.70002268818359
 30
0.0
 11
10.000076293945312
 21
87.50003035465744
 31
0.0
  0
LINE
  5
519
100
AcDbEntity
  8
0
  6
CONTINUOUS
 62
               7
100
AcDbLine
 10
25.50006103515625
 20
90.000015258789063
 30
0.0
 11
12.50006103515625
 21
90.000015258789063
 31
0.0
  0
LINE
  5
51A
100
AcDbEntity
  8
0
  6
CONTINUOUS
 62
               7
100
AcDbLine
 10
26.500081427589066
 20
88.99999931595903
 30
0.0
 11
25.500080534587141
 21
90.000000546136107
 31
0.0
  0
LINE
  5
51B
100
AcDbEntity
  8
0
  6
CONTINUOUS
 62
               7
100
AcDbLine
 10
12.500031667706025
 20
90.000052723868976
 30
0.0
 11
11.500031280466828
 21
89.000050987929171
 31
0.0
  0
LINE
  5
51C
100
AcDbEntity
  8
0
  6
CONTINUOUS
 62
               7
100
AcDbLine
 10
11.50006103515625
 20
89.000015258789063
 30
0.0
 11
26.50006103515625
 21
89.000015258789063
 31
0.0
  0
LINE
  5
51D
100
AcDbEntity
  8
0
  6
CONTINUOUS
 62
               4
100
AcDbLine
 10
28.00006103515625
 20
104.70002288818358
 30
0.0
 11
28.00006103515625
 21
93.503317288183581
 31
0.0
  0
ARC
  5
51E
100
AcDbEntity
  8
0
  6
CONTINUOUS
 62
               4
100
AcDbCircle
 10
27.100061035156259
 20
117.30002288818361
 30
0.0
 40
0.3
100
AcDbArc
 50
0.0000000000006107
 51
90.000000000000611
  0
ARC
  5
51F
100
AcDbEntity
  8
0
  6
CONTINUOUS
 62
               4
100
AcDbCircle
 10
12.500061035156264
 20
115.9000228881836
 30
0.0
 40
0.5
100
AcDbArc
 50
0.0000000000006107
 51
90.000000000000611
  0
ARC
  5
520
100
AcDbEntity
  8
0
  6
CONTINUOUS
 62
               4
100
AcDbCircle
 10
10.90006103515627
 20
117.30002288818361
 30
0.0
 40
0.3
100
AcDbArc
 50
89.999999999999815
 51
179.9999999999998
  0
ARC
  5
521
100
AcDbEntity
  8
0
  6
CONTINUOUS
 62
               4
100
AcDbCircle
 10
25.50006103515625
 20
115.9000228881836
 30
0.0
 40
0.5
100
AcDbArc
 50
89.999999999999815
 51
179.9999999999998
  0
LINE
  5
522
100
AcDbEntity
  8
0
  6
CONTINUOUS
 62
               4
100
AcDbLine
 10
27.400061035156256
 20
117.30070388818359
 30
0.0
 11
27.400061035156256
 21
116.4000228881836
 31
0.0
  0
LINE
  5
523
100
AcDbEntity
  8
0
  6
CONTINUOUS
 62
               4
100
AcDbLine
 10
10.90006103515627
 20
117.60002288818359
 30
0.0
 11
27.100061035156259
 21
117.60002288818359
 31
0.0
  0
LINE
  5
524
100
AcDbEntity
  8
0
  6
CONTINUOUS
 62
               4
100
AcDbLine
 10
27.400061035156256
 20
116.4000228881836
 30
0.0
 11
10.600061035156259
 21
116.4000228881836
 31
0.0
  0
LINE
  5
525
100
AcDbEntity
  8
0
  6
CONTINUOUS
 62
               4
100
AcDbLine
 10
10.600061035156259
 20
117.30070388818359
 30
0.0
 11
10.600061035156259
 21
116.4000228881836
 31
0.0
  0
LINE
  5
526
100
AcDbEntity
  8
0
  6
CONTINUOUS
 62
               4
100
AcDbLine
 10
13.000061035156264
 20
115.9000228881836
 30
0.0
 11
13.000061035156264
 21
115.50002288818359
 31
0.0
  0
LINE
  5
527
100
AcDbEntity
  8
0
  6
CONTINUOUS
 62
               4
100
AcDbLine
 10
26.100061035156259
 20
115.4000228881836
 30
0.0
 11
26.100061035156259
 21
114.4000218881836
 31
0.0
  0
LINE
  5
528
100
AcDbEntity
  8
0
  6
CONTINUOUS
 62
               4
100
AcDbLine
 10
26.00006103515625
 20
115.50002288818359
 30
0.0
 11
26.100061035156259
 21
115.4000228881836
 31
0.0
  0
LINE
  5
529
100
AcDbEntity
  8
0
  6
CONTINUOUS
 62
               4
100
AcDbLine
 10
12.000061035156264
 20
115.50002288818359
 30
0.0
 11
11.90006103515627
 21
115.4000228881836
 31
0.0
  0
LINE
  5
52A
100
AcDbEntity
  8
0
  6
CONTINUOUS
 62
               4
100
AcDbLine
 10
12.000061035156264
 20
115.50002288818359
 30
0.0
 11
26.00006103515625
 21
115.50002288818359
 31
0.0
  0
LINE
  5
52B
100
AcDbEntity
  8
0
  6
CONTINUOUS
 62
               4
100
AcDbLine
 10
11.90006103515627
 20
115.4000228881836
 30
0.0
 11
11.90006103515627
 21
114.4000218881836
 31
0.0
  0
LINE
  5
52C
100
AcDbEntity
  8
0
  6
CONTINUOUS
 62
               4
100
AcDbLine
 10
27.900061035156256
 20
109.9000228881836
 30
0.0
 11
10.100061035156259
 21
109.9000228881836
 31
0.0
  0
LINE
  5
52D
100
AcDbEntity
  8
0
  6
CONTINUOUS
 62
               4
100
AcDbLine
 10
11.100061035156259
 20
114.4000218881836
 30
0.0
 11
26.900060235156261
 21
114.4000218881836
 31
0.0
  0
LINE
  5
52E
100
AcDbEntity
  8
0
  6
CONTINUOUS
 62
               4
100
AcDbLine
 10
10.200061035156267
 20
110.80002288818361
 30
0.0
 11
10.000061035156264
 21
111.00002288818359
 31
0.0
  0
LINE
  5
52F
100
AcDbEntity
  8
0
  6
CONTINUOUS
 62
               4
100
AcDbLine
 10
10.000061035156264
 20
113.3649358881836
 30
0.0
 11
10.753651435156257
 21
113.80002188818361
 31
0.0
  0
LINE
  5
530
100
AcDbEntity
  8
0
  6
CONTINUOUS
 62
               4
100
AcDbLine
 10
28.00006103515625
 20
113.3649358881836
 30
0.0
 11
27.246470635156257
 21
113.80002188818361
 31
0.0
  0
LINE
  5
531
100
AcDbEntity
  8
0
  6
CONTINUOUS
 62
               4
100
AcDbLine
 10
27.246470635156257
 20
113.80002188818361
 30
0.0
 11
26.900060235156261
 21
114.4000218881836
 31
0.0
  0
LINE
  5
532
100
AcDbEntity
  8
0
  6
CONTINUOUS
 62
               4
100
AcDbLine
 10
10.753651435156257
 20
113.80002188818361
 30
0.0
 11
11.100061835156268
 21
114.4000218881836
 31
0.0
  0
LINE
  5
533
100
AcDbEntity
  8
0
  6
CONTINUOUS
 62
               4
100
AcDbLine
 10
27.800061035156261
 20
110.80002288818361
 30
0.0
 11
10.200061035156267
 21
110.80002288818361
 31
0.0
  0
LINE
  5
534
100
AcDbEntity
  8
0
  6
CONTINUOUS
 62
               4
100
AcDbLine
 10
28.00006103515625
 20
113.36493688818359
 30
0.0
 11
28.00006103515625
 21
111.00002288818359
 31
0.0
  0
LINE
  5
535
100
AcDbEntity
  8
0
  6
CONTINUOUS
 62
               4
100
AcDbLine
 10
27.800061035156261
 20
110.80002288818361
 30
0.0
 11
28.00006103515625
 21
111.00002288818359
 31
0.0
  0
LINE
  5
536
100
AcDbEntity
  8
0
  6
CONTINUOUS
 62
               4
100
AcDbLine
 10
10.000061035156264
 20
113.36493688818359
 30
0.0
 11
10.000061035156264
 21
111.00002288818359
 31
0.0
  0
LINE
  5
537
100
AcDbEntity
  8
0
  6
CONTINUOUS
 62
               4
100
AcDbLine
 10
27.800061035156261
 20
104.90002228818361
 30
0.0
 11
28.00006103515625
 21
105.10002248818358
 31
0.0
  0
LINE
  5
538
100
AcDbEntity
  8
0
  6
CONTINUOUS
 62
               4
100
AcDbLine
 10
10.200061035156267
 20
104.90002248818359
 30
0.0
 11
27.800061035156261
 21
104.90002248818359
 31
0.0
  0
LINE
  5
539
100
AcDbEntity
  8
0
  6
CONTINUOUS
 62
               4
100
AcDbLine
 10
28.00006103515625
 20
109.80002288818361
 30
0.0
 11
28.00006103515625
 21
105.10002248818358
 31
0.0
  0
LINE
  5
53A
100
AcDbEntity
  8
0
  6
CONTINUOUS
 62
               4
100
AcDbLine
 10
10.000061035156264
 20
109.80002288818361
 30
0.0
 11
10.000061035156264
 21
105.10002248818358
 31
0.0
  0
LINE
  5
53B
100
AcDbEntity
  8
0
  6
CONTINUOUS
 62
               4
100
AcDbLine
 10
10.200061035156267
 20
104.90002228818361
 30
0.0
 11
10.000061035156264
 21
105.10002248818358
 31
0.0
  0
LINE
  5
53C
100
AcDbEntity
  8
0
  6
CONTINUOUS
 62
               4
100
AcDbLine
 10
28.00006103515625
 20
109.80002288818361
 30
0.0
 11
27.900061035156256
 21
109.9000228881836
 31
0.0
  0
LINE
  5
53D
100
AcDbEntity
  8
0
  6
CONTINUOUS
 62
               4
100
AcDbLine
 10
10.000061035156264
 20
109.80002288818361
 30
0.0
 11
10.100061035156259
 21
109.9000228881836
 31
0.0
  0
LINE
  5
53E
100
AcDbEntity
  8
0
  6
CONTINUOUS
 62
               4
100
AcDbLine
 10
10.200061035156267
 20
104.9000228881836
 30
0.0
 11
10.000061035156264
 21
104.70002268818359
 31
0.0
  0
LINE
  5
53F
100
AcDbEntity
  8
0
  6
CONTINUOUS
 62
               4
100
AcDbLine
 10
27.300061035156261
 20
110.80002288818361
 30
0.0
 11
27.300061035156261
 21
109.9000228881836
 31
0.0
  0
LINE
  5
540
100
AcDbEntity
  8
0
  6
CONTINUOUS
 62
               4
100
AcDbLine
 10
10.700061035156267
 20
110.80002288818361
 30
0.0
 11
10.700061035156267
 21
109.9000228881836
 31
0.0
  0
LINE
  5
541
100
AcDbEntity
  8
0
  6
CONTINUOUS
 62
               4
100
AcDbLine
 10
27.800061035156261
 20
104.9000228881836
 30
0.0
 11
28.00006103515625
 21
104.70002268818359
 31
0.0
  0
LINE
  5
542
100
AcDbEntity
  8
0
  6
CONTINUOUS
 62
               4
100
AcDbLine
 10
10.000061035156264
 20
105.10002248818358
 30
0.0
 11
28.00006103515625
 21
105.10002248818358
 31
0.0
  0
LINE
  5
543
100
AcDbEntity
  8
0
  6
CONTINUOUS
 62
               4
100
AcDbLine
 10
25.00006103515625
 20
115.9000228881836
 30
0.0
 11
25.00006103515625
 21
115.50002288818359
 31
0.0
  0
LINE
  5
544
100
AcDbEntity
  8
0
  6
CONTINUOUS
 62
               4
100
AcDbLine
 10
11.90006103515627
 20
115.4000228881836
 30
0.0
 11
26.100061035156259
 21
115.4000228881836
 31
0.0
  0
LINE
  5
545
100
AcDbEntity
  8
0
  6
CONTINUOUS
 62
               4
100
AcDbLine
 10
10.753651435156257
 20
113.80002188818361
 30
0.0
 11
27.246470635156257
 21
113.80002188818361
 31
0.0
  0
LINE
  5
546
100
AcDbEntity
  8
0
  6
CONTINUOUS
 62
               4
100
AcDbLine
 10
10.000061035156264
 20
113.3649358881836
 30
0.0
 11
28.00006103515625
 21
113.3649358881836
 31
0.0
  0
LINE
  5
547
100
AcDbEntity
  8
0
  6
CONTINUOUS
 62
               4
100
AcDbLine
 10
10.000061035156264
 20
111.00002288818359
 30
0.0
 11
28.00006103515625
 21
111.00002288818359
 31
0.0
  0
LINE
  5
548
100
AcDbEntity
  8
0
  6
CONTINUOUS
 62
               4
100
AcDbLine
 10
10.000061035156264
 20
109.80002288818361
 30
0.0
 11
28.00006103515625
 21
109.80002288818361
 31
0.0
  0
LINE
  5
549
100
AcDbEntity
  8
0
  6
CONTINUOUS
 62
               4
100
AcDbLine
 10
28.00006103515625
 20
104.70002268818359
 30
0.0
 11
10.00006103515625
 21
104.70002268818359
 31
0.0
  0
LINE
  5
54A
100
AcDbEntity
  8
0
  6
CONTINUOUS
 62
               4
100
AcDbLine
 10
15.278900535156254
 20
94.000022888183594
 30
0.0
 11
10.00006103515625
 21
94.000022888183594
 31
0.0
  0
ARC
  5
54B
100
AcDbEntity
  8
0
  6
CONTINUOUS
 62
               4
100
AcDbCircle
 10
24.300061047077179
 20
89.500015258789063
 30
0.0
 40
1.5
100
AcDbArc
 50
89.999986339621458
 51
160.52877936550897
  0
ARC
  5
54C
100
AcDbEntity
  8
0
  6
CONTINUOUS
 62
               4
100
AcDbCircle
 10
26.800061047077179
 20
89.500015258789063
 30
0.0
 40
1.5
100
AcDbArc
 50
0.0000179860893428
 51
89.999986339621458
  0
LINE
  5
54D
100
AcDbEntity
  8
0
  6
CONTINUOUS
 62
               4
100
AcDbLine
 10
24.300061404705048
 20
91.00001525878902
 30
0.0
 11
26.800061404705048
 21
91.00001525878902
 31
0.0
  0
ARC
  5
54E
100
AcDbEntity
  8
0
  6
CONTINUOUS
 62
               4
100
AcDbCircle
 10
19.00006103515625
 20
107.69054602068758
 30
0.0
 40
14.187228732503996
100
AcDbArc
 50
254.79404619011382
 51
285.2059538098851
  0
LINE
  5
54F
100
AcDbEntity
  8
0
  6
CONTINUOUS
 62
               4
100
AcDbLine
 10
28.00006103515625
 20
94.000022888183594
 30
0.0
 11
22.721221535156261
 21
94.000022888183594
 31
0.0
  0
LINE
  5
550
100
AcDbEntity
  8
0
  6
CONTINUOUS
 62
               4
100
AcDbLine
 10
28.00006103515625
 20
93.503317288183581
 30
0.0
 11
28.00006103515625
 21
90.400015274683625
 31
0.0
  0
LINE
  5
551
100
AcDbEntity
  8
0
  6
CONTINUOUS
 62
               7
100
AcDbLine
 10
26.50006103515625
 20
89.000022888183594
 30
0.0
 11
28.300061047077179
 21
89.000022888183594
 31
0.0
  0
LINE
  5
552
100
AcDbEntity
  8
0
  6
CONTINUOUS
 62
               7
100
AcDbLine
 10
28.300061047077179
 20
89.500015258789063
 30
0.0
 11
28.300061047077179
 21
89.000015258789063
 31
0.0
  0
LINE
  5
553
100
AcDbEntity
  8
0
  6
CONTINUOUS
 62
               7
100
AcDbLine
 10
10.00006103515625
 20
89.000022888183594
 30
0.0
 11
11.50006103515625
 21
89.000022888183594
 31
0.0
  0
LINE
  5
554
100
AcDbEntity
  8
0
  6
CONTINUOUS
 62
               4
100
AcDbLine
 10
10.00006103515625
 20
90.905282888183592
 30
0.0
 11
12.50006103515625
 21
90.905282888183592
 31
0.0
  0
SPLINE
  5
555
100
AcDbEntity
  8
0
  6
CONTINUOUS
 62
               4
100
AcDbSpline
210
0.0
220
0.0
230
1.0
 70
               0
 71
               3
 72
               0
 73
               0
 74
              41
 44
0.000001
 12
0.9936236052884185
 22
0.1127480865187747
 32
0.0
 13
-0.7599872673059157
 23
0.6499379612954506
 33
0.0
 11
12.50006103515625
 21
90.905282888183592
 31
0.0
 11
12.68365604397361
 21
90.928138526398101
 31
0.0
 11
12.866729715798709
 21
90.954910676493711
 31
0.0
 11
13.049252098481979
 21
90.985494623288119
 31
0.0
 11
13.231117858710945
 21
91.019773794696931
 31
0.0
 11
13.440723659214912
 21
91.064014240309746
 31
0.0
 11
13.649167914100353
 21
91.11343434725255
 31
0.0
 11
13.856220526212308
 21
91.168403237491788
 31
0.0
 11
14.061619048247621
 21
91.229273549983247
 31
0.0
 11
14.235366985158214
 21
91.286262965815837
 31
0.0
 11
14.407239561349822
 21
91.348653795441592
 31
0.0
 11
14.576732784835079
 21
91.417273911446372
 31
0.0
 11
14.743240283174842
 21
91.492879353018481
 31
0.0
 11
14.884719559035327
 21
91.564962017811496
 31
0.0
 11
15.022081114331703
 21
91.644599600620836
 31
0.0
 11
15.154031889563617
 21
91.733540094748719
 31
0.0
 11
15.278401295860689
 21
91.832723871544815
 31
0.0
 11
15.346935327544532
 21
91.896298364777223
 31
0.0
 11
15.410607107288435
 21
91.964752195999822
 31
0.0
 11
15.46719798630199
 21
92.03819130830388
 31
0.0
 11
15.515058904607855
 21
92.117461980992459
 31
0.0
 11
15.549978864612164
 21
92.196228558557422
 31
0.0
 11
15.575576715300919
 21
92.278592103607366
 31
0.0
 11
15.592259348452433
 21
92.363687049649883
 31
0.0
 11
15.600061035156244
 21
92.450022888183597
 31
0.0
 11
15.595694017947883
 21
92.581522453298163
 31
0.0
 11
15.57397607108288
 21
92.711482524291938
 31
0.0
 11
15.53726574319818
 21
92.838601237088824
 31
0.0
 11
15.488064417330051
 21
92.961392871653587
 31
0.0
 11
15.430213848541404
 21
93.07640274546165
 31
0.0
 11
15.363714561081402
 21
93.186615569829598
 31
0.0
 11
15.289747497542914
 21
93.291472933755728
 31
0.0
 11
15.209092330493533
 21
93.391284284155745
 31
0.0
 11
15.124586645020477
 21
93.484152973985942
 31
0.0
 11
15.035351473470495
 21
93.57248845614528
 31
0.0
 11
14.942045022583416
 21
93.656637686592759
 31
0.0
 11
14.845387193593496
 21
93.736891813329891
 31
0.0
 11
14.761328513078317
 21
93.802469224523179
 31
0.0
 11
14.676545261151308
 21
93.867139960983607
 31
0.0
 11
14.592378054249329
 21
93.932448404447257
 31
0.0
 11
14.510061035156255
 21
94.000022888183594
 31
0.0
  0
LINE
  5
556
100
AcDbEntity
  8
0
  6
CONTINUOUS
 62
               4
100
AcDbLine
 10
22.50006103515625
 20
91.214641888183593
 30
0.0
 11
22.50006103515625
 21
90.000015258789063
 31
0.0
  0
SPLINE
  5
557
100
AcDbEntity
  8
0
  6
CONTINUOUS
 62
               4
100
AcDbSpline
210
0.0
220
0.0
230
1.0
 70
               0
 71
               3
 72
               0
 73
               0
 74
              37
 44
0.000001
 12
-0.9881349170157097
 22
-0.1535883647102106
 32
0.0
 13
-0.280139572274745
 23
-0.9599592804102282
 33
0.0
 11
25.50006103515625
 21
93.214641888183593
 31
0.0
 11
25.369821177421827
 21
93.192774475122974
 31
0.0
 11
25.240143679332473
 21
93.167741761642475
 31
0.0
 11
25.111095869133713
 21
93.139544477288595
 31
0.0
 11
24.982783229923655
 21
93.108188918554418
 31
0.0
 11
24.886119989135842
 21
93.082337950693784
 31
0.0
 11
24.789954168485281
 21
93.054697533973552
 31
0.0
 11
24.69431773913735
 21
93.02529106422736
 31
0.0
 11
24.599233775834662
 21
92.994140181304871
 31
0.0
 11
24.48200767149077
 21
92.953059867960363
 31
0.0
 11
24.365763214263165
 21
92.909275947309069
 31
0.0
 11
24.250587600305646
 21
92.862737063061545
 31
0.0
 11
24.136584533748277
 21
92.813398343583245
 31
0.0
 11
24.037436514381422
 21
92.767679077327145
 31
0.0
 11
23.93936542882804
 21
92.719694465028937
 31
0.0
 11
23.842478725854651
 21
92.669385000387194
 31
0.0
 11
23.746872190830146
 21
92.616685317548942
 31
0.0
 11
23.668092260378788
 21
92.57079692248584
 31
0.0
 11
23.590366463537045
 21
92.523147029816997
 31
0.0
 11
23.513776813726874
 21
92.47368051165526
 31
0.0
 11
23.438420616288653
 21
92.422352694090307
 31
0.0
 11
23.359164785991759
 21
92.365234920362042
 31
0.0
 11
23.281598899373325
 21
92.305841938562054
 31
0.0
 11
23.205899087381962
 21
92.244097088416325
 31
0.0
 11
23.132245509883347
 21
92.179926925308109
 31
0.0
 11
23.066615251948939
 21
92.118846105834834
 31
0.0
 11
23.003034320734876
 21
92.055636105622469
 31
0.0
 11
22.941665585069845
 21
91.990263904350911
 31
0.0
 11
22.882693058195727
 21
91.922720688589024
 31
0.0
 11
22.827199545906343
 21
91.854116896120615
 31
0.0
 11
22.774510340987323
 21
91.783337596821056
 31
0.0
 11
22.724941795309707
 21
91.710333592470647
 31
0.0
 11
22.678834753447859
 21
91.635097730510907
 31
0.0
 11
22.6246089815895
 21
91.5342516598608
 31
0.0
 11
22.57675513845389
 21
91.430195867283004
 31
0.0
 11
22.535255445881216
 21
91.323517116740589
 31
0.0
 11
22.50006103515625
 21
91.214641888183593
 31
0.0
  0
LINE
  5
558
100
AcDbEntity
  8
0
  6
CONTINUOUS
 62
               4
100
AcDbLine
 10
28.00006103515625
 20
93.214641888183593
 30
0.0
 11
25.50006103515625
 21
93.214641888183593
 31
0.0
  0
LINE
  5
559
100
AcDbEntity
  8
0
  6
CONTINUOUS
 62
               7
100
AcDbLine
 10
11.50006103515625
 20
89.000015258789063
 30
0.0
 11
11.50006103515625
 21
88.000015258789063
 31
0.0
  0
LINE
  5
55A
100
AcDbEntity
  8
0
  6
CONTINUOUS
 62
               7
100
AcDbLine
 10
26.50006103515625
 20
89.000015258789063
 30
0.0
 11
26.50006103515625
 21
88.000015258789063
 31
0.0
  0
LINE
  5
55B
100
AcDbEntity
  8
0
  6
CONTINUOUS
 62
               7
100
AcDbLine
 10
66.5
 20
54.0
 30
0.0
 11
85.5
 21
54.0
 31
0.0
  0
ELLIPSE
  5
55C
100
AcDbEntity
  8
0
  6
CONTINUOUS
 62
               7
100
AcDbEllipse
 10
89.0
 20
69.123062133789063
 30
0.0
 11
-2.7499999999998539
 21
0.0000008960637956
 31
0.0
210
0.0
220
0.0
230
1.0
 40
0.7071089311079546
 41
4.0383942762957865
 42
5.616371814404614
  0
ELLIPSE
  5
55D
100
AcDbEntity
  8
0
  6
CONTINUOUS
 62
               7
100
AcDbEllipse
 10
103.0
 20
69.123062133789063
 30
0.0
 11
2.75
 21
0.0
 31
0.0
210
0.0
220
0.0
230
1.0
 40
0.7071089311079546
 41
0.6668129563331648
 42
2.2447919845581072
  0
ELLIPSE
  5
55E
100
AcDbEntity
  8
0
  6
CONTINUOUS
 62
               7
100
AcDbEllipse
 10
89.0
 20
69.123077392578125
 30
0.0
 11
3.5
 21
0.0
 31
0.0
210
0.0
220
0.0
230
1.0
 40
0.7070999145507813
 41
0.8374626636505049
 42
1.5707960128784175
  0
ELLIPSE
  5
55F
100
AcDbEntity
  8
0
  6
CONTINUOUS
 62
               7
100
AcDbEllipse
 10
103.0
 20
72.800003051757812
 30
0.0
 11
-3.4999999999998148
 21
0.0000011404445106
 31
0.0
210
0.0
220
0.0
230
1.0
 40
0.7070999145507813
 41
4.7123883406267932
 42
1.5707956870370001
  0
ELLIPSE
  5
560
100
AcDbEntity
  8
0
  6
CONTINUOUS
 62
               7
100
AcDbEllipse
 10
103.0
 20
69.123077392578125
 30
0.0
 11
-3.4999999999998148
 21
0.0000011404445106
 31
0.0
210
0.0
220
0.0
230
1.0
 40
0.7070999145507813
 41
4.7123883406267932
 42
5.4457228223429741
  0
ELLIPSE
  5
561
100
AcDbEntity
  8
0
  6
CONTINUOUS
 62
               7
100
AcDbEllipse
 10
89.0
 20
72.800003051757812
 30
0.0
 11
3.5
 21
0.0
 31
0.0
210
0.0
220
0.0
230
1.0
 40
0.7070999145507813
 41
4.7123892943011692
 42
1.570796640711376
  0
CIRCLE
  5
562
100
AcDbEntity
  8
0
  6
CONTINUOUS
 62
               7
100
AcDbCircle
 10
25.000091552734375
 20
57.0
 30
0.0
 40
2.7999992370605469
  0
ARC
  5
563
100
AcDbEntity
  8
0
  6
CONTINUOUS
 62
               7
100
AcDbCircle
 10
25.000091552734375
 20
57.0
 30
0.0
 40
3.0
100
AcDbArc
 50
89.999982013910454
 51
179.99996402782091
  0
CIRCLE
  5
564
100
AcDbEntity
  8
0
  6
CONTINUOUS
 62
               7
100
AcDbCircle
 10
13.000091552734375
 20
83.000030517578125
 30
0.0
 40
2.7999992370605469
  0
ARC
  5
565
100
AcDbEntity
  8
0
  6
CONTINUOUS
 62
               7
100
AcDbCircle
 10
10.500091552734375
 20
87.500030517578125
 30
0.0
 40
0.5
100
AcDbArc
 50
89.999982013910454
 51
180.00001866933428
  0
ARC
  5
566
100
AcDbEntity
  8
0
  6
CONTINUOUS
 62
               7
100
AcDbCircle
 10
27.500091552734375
 20
87.500030517578125
 30
0.0
 40
0.5
100
AcDbArc
 50
0.00001366037834
 51
89.999982013910454
  0
ARC
  5
567
100
AcDbEntity
  8
0
  6
CONTINUOUS
 62
               7
100
AcDbCircle
 10
13.000091552734375
 20
83.000030517578125
 30
0.0
 40
3.0
100
AcDbArc
 50
270.00001798608872
 51
90.00014593845053
  0
ARC
  5
568
100
AcDbEntity
  8
0
  6
CONTINUOUS
 62
               4
100
AcDbCircle
 10
68.200057983398438
 20
57.699996948242187
 30
0.0
 40
1.5
100
AcDbArc
 50
89.999982013910454
 51
179.99996402782091
  0
ARC
  5
569
100
AcDbEntity
  8
0
  6
CONTINUOUS
 62
               4
100
AcDbCircle
 10
70.800064086914063
 20
57.699996948242187
 30
0.0
 40
1.5
100
AcDbArc
 50
0.0
 51
89.999982013910454
  0
ARC
  5
56A
100
AcDbEntity
  8
0
  6
CONTINUOUS
 62
               4
100
AcDbCircle
 10
81.200057983398438
 20
57.699996948242187
 30
0.0
 40
1.5
100
AcDbArc
 50
89.999982013910454
 51
179.99996402782091
  0
ARC
  5
56B
100
AcDbEntity
  8
0
  6
CONTINUOUS
 62
               4
100
AcDbCircle
 10
83.800064086914063
 20
57.699996948242187
 30
0.0
 40
1.5
100
AcDbArc
 50
0.0
 51
89.999982013910454
  0
LINE
  5
56C
100
AcDbEntity
  8
0
  6
CONTINUOUS
 62
               7
100
AcDbLine
 10
13.000106811523438
 20
86.000015258789063
 30
0.0
 11
10.000106811523437
 21
86.000015258789063
 31
0.0
  0
LINE
  5
56D
100
AcDbEntity
  8
0
  6
CONTINUOUS
 62
               7
100
AcDbLine
 10
23.939438374472047
 20
58.060619253301411
 30
0.0
 11
26.060758145285035
 21
55.939298230790882
 31
0.0
  0
LINE
  5
56E
100
AcDbEntity
  8
0
  6
CONTINUOUS
 62
               7
100
AcDbLine
 10
26.060909825404451
 20
58.060489152286209
 30
0.0
 11
23.93957801329725
 21
55.939158591882915
 31
0.0
  0
LINE
  5
56F
100
AcDbEntity
  8
0
  6
CONTINUOUS
 62
               7
100
AcDbLine
 10
22.000091552734375
 20
57.0
 30
0.0
 11
22.000091552734375
 21
54.0
 31
0.0
  0
LINE
  5
570
100
AcDbEntity
  8
0
  6
CONTINUOUS
 62
               7
100
AcDbLine
 10
25.000106811523437
 20
60.0
 30
0.0
 11
28.000106811523438
 21
60.0
 31
0.0
  0
LINE
  5
571
100
AcDbEntity
  8
0
  6
CONTINUOUS
 62
               7
100
AcDbLine
 10
11.939539891594904
 20
81.939238549795846
 30
0.0
 11
14.060861271733302
 21
84.060557962980965
 31
0.0
  0
LINE
  5
572
100
AcDbEntity
  8
0
  6
CONTINUOUS
 62
               7
100
AcDbLine
 10
14.060763181970287
 20
81.939356251892605
 30
0.0
 11
11.939443768785168
 21
84.060677632031002
 31
0.0
  0
LINE
  5
573
100
AcDbEntity
  8
0
  6
CONTINUOUS
 62
               7
100
AcDbLine
 10
27.500091552734375
 20
88.000015258789063
 30
0.0
 11
10.500091552734375
 21
88.000015258789063
 31
0.0
  0
LINE
  5
574
100
AcDbEntity
  8
0
  6
CONTINUOUS
 62
               7
100
AcDbLine
 10
10.000076293945312
 20
87.50003035465744
 30
0.0
 11
10.000076293945312
 21
54.0
 31
0.0
  0
LINE
  5
575
100
AcDbEntity
  8
0
  6
CONTINUOUS
 62
               7
100
AcDbLine
 10
28.000076293945312
 20
89.000022888183594
 30
0.0
 11
28.000076293945312
 21
54.0
 31
0.0
  0
LINE
  5
576
100
AcDbEntity
  8
0
  6
CONTINUOUS
 62
             200
100
AcDbLine
 10
19.00006103515625
 20
119.06111145019531
 30
0.0
 11
19.00006103515625
 21
89.000015258789063
 31
0.0
  0
LINE
  5
577
100
AcDbEntity
  8
0
  6
CONTINUOUS
 62
               7
100
AcDbLine
 10
13.000091552734375
 20
80.000015258789063
 30
0.0
 11
10.000091552734375
 21
80.000015258789063
 31
0.0
  0
LINE
  5
578
100
AcDbEntity
  8
0
  6
CONTINUOUS
 62
               7
100
AcDbLine
 10
122.5
 20
40.0
 30
0.0
 11
109.5
 21
40.0
 31
0.0
  0
LINE
  5
579
100
AcDbEntity
  8
0
  6
CONTINUOUS
 62
               7
100
AcDbLine
 10
109.5
 20
54.0
 30
0.0
 11
109.5
 21
40.0
 31
0.0
  0
LINE
  5
57A
100
AcDbEntity
  8
0
  6
CONTINUOUS
 62
               7
100
AcDbLine
 10
122.5
 20
54.0
 30
0.0
 11
106.5
 21
54.0
 31
0.0
  0
LINE
  5
57B
100
AcDbEntity
  8
0
  6
CONTINUOUS
 62
               7
100
AcDbLine
 10
89.0
 20
71.597930908203125
 30
0.0
 11
85.5
 21
71.597930908203125
 31
0.0
  0
LINE
  5
57C
100
AcDbEntity
  8
0
  6
CONTINUOUS
 62
               7
100
AcDbLine
 10
103.0
 20
71.597930908203125
 30
0.0
 11
106.5
 21
71.597930908203125
 31
0.0
  0
LINE
  5
57D
100
AcDbEntity
  8
0
  6
CONTINUOUS
 62
               7
100
AcDbLine
 10
85.5
 20
69.600006103515625
 30
0.0
 11
106.5
 21
69.600006103515625
 31
0.0
  0
LINE
  5
57E
100
AcDbEntity
  8
0
  6
CONTINUOUS
 62
               7
100
AcDbLine
 10
91.0
 20
21.0
 30
0.0
 11
101.0
 21
21.0
 31
0.0
  0
LINE
  5
57F
100
AcDbEntity
  8
0
  6
CONTINUOUS
 62
               7
100
AcDbLine
 10
101.0
 20
22.0
 30
0.0
 11
106.5
 21
22.0
 31
0.0
  0
LINE
  5
580
100
AcDbEntity
  8
0
  6
CONTINUOUS
 62
               7
100
AcDbLine
 10
91.0
 20
20.800003051757813
 30
0.0
 11
101.0
 21
20.800003051757813
 31
0.0
  0
LINE
  5
581
100
AcDbEntity
  8
0
  6
CONTINUOUS
 62
               7
100
AcDbLine
 10
101.0
 20
22.0
 30
0.0
 11
101.0
 21
20.800003051757813
 31
0.0
  0
LINE
  5
582
100
AcDbEntity
  8
0
  6
CONTINUOUS
 62
               7
100
AcDbLine
 10
91.0
 20
22.0
 30
0.0
 11
91.0
 21
20.800003051757813
 31
0.0
  0
LINE
  5
583
100
AcDbEntity
  8
0
  6
CONTINUOUS
 62
             200
100
AcDbLine
 10
96.0
 20
103.39435492996147
 30
0.0
 11
96.0
 21
76.0
 31
0.0
  0
LINE
  5
584
100
AcDbEntity
  8
0
  6
CONTINUOUS
 62
               7
100
AcDbLine
 10
85.5
 20
22.0
 30
0.0
 11
91.0
 21
22.0
 31
0.0
  0
LINE
  5
585
100
AcDbEntity
  8
0
  6
CONTINUOUS
 62
               7
100
AcDbLine
 10
85.5
 20
76.0
 30
0.0
 11
106.5
 21
76.0
 31
0.0
  0
LINE
  5
586
100
AcDbEntity
  8
0
  6
CONTINUOUS
 62
               7
100
AcDbLine
 10
-6.5
 20
40.0
 30
0.0
 11
6.5
 21
40.0
 31
0.0
  0
LINE
  5
587
100
AcDbEntity
  8
0
  6
CONTINUOUS
 62
               7
100
AcDbLine
 10
6.5
 20
54.0
 30
0.0
 11
6.5
 21
40.0
 31
0.0
  0
LINE
  5
588
100
AcDbEntity
  8
0
  6
CONTINUOUS
 62
               7
100
AcDbLine
 10
-6.5
 20
54.0
 30
0.0
 11
28.5
 21
54.0
 31
0.0
  0
LINE
  5
589
100
AcDbEntity
  8
0
  6
CONTINUOUS
 62
               7
100
AcDbLine
 10
106.5
 20
70.32513427734375
 30
0.0
 11
103.0
 21
70.32513427734375
 31
0.0
  0
LINE
  5
58A
100
AcDbEntity
  8
0
  6
CONTINUOUS
 62
               7
100
AcDbLine
 10
106.5
 20
75.274887084960937
 30
0.0
 11
103.0
 21
75.274887084960937
 31
0.0
  0
LINE
  5
58B
100
AcDbEntity
  8
0
  6
CONTINUOUS
 62
               7
100
AcDbLine
 10
85.5
 20
70.32513427734375
 30
0.0
 11
89.0
 21
70.32513427734375
 31
0.0
  0
LINE
  5
58C
100
AcDbEntity
  8
0
  6
CONTINUOUS
 62
               7
100
AcDbLine
 10
85.5
 20
75.274887084960937
 30
0.0
 11
89.0
 21
75.274887084960937
 31
0.0
  0
LINE
  5
58D
100
AcDbEntity
  8
0
  6
CONTINUOUS
 62
               4
100
AcDbLine
 10
81.200057983398438
 20
59.199996948242188
 30
0.0
 11
83.800064086914063
 21
59.199996948242188
 31
0.0
  0
LINE
  5
58E
100
AcDbEntity
  8
0
  6
CONTINUOUS
 62
               4
100
AcDbLine
 10
68.200057983398438
 20
59.199996948242188
 30
0.0
 11
70.800064086914063
 21
59.199996948242188
 31
0.0
  0
LINE
  5
58F
100
AcDbEntity
  8
0
  6
CONTINUOUS
 62
               4
100
AcDbLine
 10
79.700057983398438
 20
57.699996948242187
 30
0.0
 11
79.700057983398438
 21
57.199996948242188
 31
0.0
  0
LINE
  5
590
100
AcDbEntity
  8
0
  6
CONTINUOUS
 62
               4
100
AcDbLine
 10
85.300064086914063
 20
57.699996948242187
 30
0.0
 11
85.300064086914063
 21
57.199996948242188
 31
0.0
  0
LINE
  5
591
100
AcDbEntity
  8
0
  6
CONTINUOUS
 62
               4
100
AcDbLine
 10
66.700057983398438
 20
57.699996948242187
 30
0.0
 11
66.700057983398438
 21
57.199996948242188
 31
0.0
  0
LINE
  5
592
100
AcDbEntity
  8
0
  6
CONTINUOUS
 62
               4
100
AcDbLine
 10
72.300064086914062
 20
57.699996948242187
 30
0.0
 11
72.300064086914062
 21
57.199996948242188
 31
0.0
  0
LINE
  5
593
100
AcDbEntity
  8
0
  6
CONTINUOUS
 62
               4
100
AcDbLine
 10
85.00006103515625
 20
57.199996948242188
 30
0.0
 11
85.00006103515625
 21
54.0
 31
0.0
  0
LINE
  5
594
100
AcDbEntity
  8
0
  6
CONTINUOUS
 62
               4
100
AcDbLine
 10
67.00006103515625
 20
57.199996948242188
 30
0.0
 11
67.00006103515625
 21
54.0
 31
0.0
  0
LINE
  5
595
100
AcDbEntity
  8
0
  6
CONTINUOUS
 62
               2
100
AcDbLine
 10
76.00006103515625
 20
59.59344482421875
 30
0.0
 11
76.00006103515625
 21
54.0
 31
0.0
  0
LINE
  5
596
100
AcDbEntity
  8
0
  6
CONTINUOUS
 62
               4
100
AcDbLine
 10
66.700057983398438
 20
57.199996948242188
 30
0.0
 11
85.300064086914063
 21
57.199996948242188
 31
0.0
  0
LINE
  5
597
100
AcDbEntity
  8
0
  6
CONTINUOUS
 62
               7
100
AcDbLine
 10
-6.5
 20
0.0
 30
0.0
 11
9.5
 21
0.0
 31
0.0
  0
LINE
  5
598
100
AcDbEntity
  8
0
  6
CONTINUOUS
 62
               7
100
AcDbLine
 10
9.5
 20
1.0
 30
0.0
 11
28.5
 21
1.0
 31
0.0
  0
LINE
  5
599
100
AcDbEntity
  8
0
  6
CONTINUOUS
 62
               7
100
AcDbLine
 10
10.00006103515625
 20
1.199981689453125
 30
0.0
 11
28.00006103515625
 21
1.199981689453125
 31
0.0
  0
LINE
  5
59A
100
AcDbEntity
  8
0
  6
CONTINUOUS
 62
               7
100
AcDbLine
 10
29.00006103515625
 20
1.199981689453125
 30
0.0
 11
47.00006103515625
 21
1.199981689453125
 31
0.0
  0
LINE
  5
59B
100
AcDbEntity
  8
0
  6
CONTINUOUS
 62
               7
100
AcDbLine
 10
28.5
 20
1.0
 30
0.0
 11
47.5
 21
1.0
 31
0.0
  0
LINE
  5
59C
100
AcDbEntity
  8
0
  6
CONTINUOUS
 62
               7
100
AcDbLine
 10
67.00006103515625
 20
1.199981689453125
 30
0.0
 11
85.00006103515625
 21
1.199981689453125
 31
0.0
  0
LINE
  5
59D
100
AcDbEntity
  8
0
  6
CONTINUOUS
 62
               7
100
AcDbLine
 10
47.5
 20
1.0
 30
0.0
 11
66.5
 21
1.0
 31
0.0
  0
LINE
  5
59E
100
AcDbEntity
  8
0
  6
CONTINUOUS
 62
               7
100
AcDbLine
 10
48.00006103515625
 20
1.199981689453125
 30
0.0
 11
66.00006103515625
 21
1.199981689453125
 31
0.0
  0
LINE
  5
59F
100
AcDbEntity
  8
0
  6
CONTINUOUS
 62
               7
100
AcDbLine
 10
66.5
 20
1.0
 30
0.0
 11
106.5
 21
1.0
 31
0.0
  0
LINE
  5
5A0
100
AcDbEntity
  8
0
  6
CONTINUOUS
 62
               7
100
AcDbLine
 10
122.5
 20
0.0
 30
0.0
 11
106.5
 21
0.0
 31
0.0
  0
ENDBLK
  5
5A1
100
AcDbEntity
  8
0
100
AcDbBlockEnd
  0
BLOCK
  5
60A
100
AcDbEntity
  8
0
  6
ByBlock
 62
               0
100
AcDbBlockBegin
  2
*D3
 70
               1
 10
0.0
 20
0.0
 30
0.0
  3
*D3
  1

  0
LINE
  5
60B
100
AcDbEntity
  8
0
  6
CONTINUOUS
 62
               2
100
AcDbLine
 10
-99.04449462890625
 20
8.6457481384277344
 30
0.0
 11
-105.54449462890625
 21
8.6457481384277344
 31
0.0
  0
LINE
  5
60C
100
AcDbEntity
  8
0
  6
CONTINUOUS
 62
               2
100
AcDbLine
 10
-105.54449462890625
 20
8.6457481384277344
 30
0.0
 11
-118.1707763671875
 21
8.6457481384277344
 31
0.0
  0
LINE
  5
60D
100
AcDbEntity
  8
0
  6
CONTINUOUS
 62
               2
100
AcDbLine
 10
-99.04449462890625
 20
31.667831420898438
 30
0.0
 11
-99.04449462890625
 21
7.1457481384277344
 31
0.0
  0
LINE
  5
60E
100
AcDbEntity
  8
0
  6
CONTINUOUS
 62
               2
100
AcDbLine
 10
-99.04449462890625
 20
8.6457481384277344
 30
0.0
 11
-95.488494634628296
 21
8.6457481384277344
 31
0.0
  0
LINE
  5
60F
100
AcDbEntity
  8
0
  6
CONTINUOUS
 62
               2
100
AcDbLine
 10
-105.54449462890625
 20
8.6457481384277344
 30
0.0
 11
-109.1004946231842
 21
8.6457481384277344
 31
0.0
  0
INSERT
  5
616
100
AcDbEntity
  8
0
  6
CONTINUOUS
 62
               2
100
AcDbBlockReference
  2
_OPEN30
 10
-99.04449462890625
 20
8.6457481384277344
 30
0.0
 41
2.77
 42
2.77
 43
2.77
 50
180.0
  0
INSERT
  5
617
100
AcDbEntity
  8
0
  6
CONTINUOUS
 62
               2
100
AcDbBlockReference
  2
_OPEN30
 10
-105.54449462890625
 20
8.6457481384277344
 30
0.0
 41
2.77
 42
2.77
 43
2.77
  0
MTEXT
  5
618
100
AcDbEntity
  8
0
  6
CONTINUOUS
 62
               2
100
AcDbMText
 10
-112.9207763671875
 20
11.895748138427734
 30
0.0
 40
4.5
 41
0.0
 71
               5
 72
               1
  1
\A1;6.5
 11
1.0
 21
-0.0000000000000001
 31
0.0
  0
POINT
  5
619
100
AcDbEntity
  8
DEFPOINTS
  6
CONTINUOUS
 62
               0
100
AcDbPoint
 10
-99.04449462890625
 20
31.667831420898438
 30
0.0
  0
POINT
  5
61A
100
AcDbEntity
  8
DEFPOINTS
  6
CONTINUOUS
 62
               0
100
AcDbPoint
 10
-105.54449462890625
 20
30.182464599609375
 30
0.0
  0
POINT
  5
61B
100
AcDbEntity
  8
DEFPOINTS
  6
CONTINUOUS
 62
               0
100
AcDbPoint
 10
-105.54449462890625
 20
8.6457481384277344
 30
0.0
  0
ENDBLK
  5
61C
100
AcDbEntity
  8
0
  6
ByBlock
 62
               0
100
AcDbBlockEnd
  0
BLOCK
  5
611
100
AcDbEntity
  8
0
  6
ByBlock
 62
               0
100
AcDbBlockBegin
  2
_OPEN30
 70
               2
 10
0.0
 20
0.0
 30
0.0
  3
_OPEN30
  1

  0
LINE
  5
612
100
AcDbEntity
  8
0
  6
ByBlock
 62
               0
100
AcDbLine
 10
-1.0
 20
0.267949
 30
0.0
 11
0.0
 21
0.0
 31
0.0
  0
LINE
  5
613
100
AcDbEntity
  8
0
  6
ByBlock
 62
               0
100
AcDbLine
 10
0.0
 20
0.0
 30
0.0
 11
-1.0
 21
-0.267949
 31
0.0
  0
LINE
  5
614
100
AcDbEntity
  8
0
  6
ByBlock
 62
               0
100
AcDbLine
 10
0.0
 20
0.0
 30
0.0
 11
-1.0
 21
0.0
 31
0.0
  0
ENDBLK
  5
615
100
AcDbEntity
  8
0
  6
ByBlock
 62
               0
100
AcDbBlockEnd
  0
BLOCK
  5
61F
100
AcDbEntity
  8
0
  6
ByBlock
 62
               0
100
AcDbBlockBegin
  2
*D5
 70
               1
 10
0.0
 20
0.0
 30
0.0
  3
*D5
  1

  0
LINE
  5
620
100
AcDbEntity
  8
0
  6
CONTINUOUS
 62
               2
100
AcDbLine
 10
16.955490112304688
 20
8.6457481384277344
 30
0.0
 11
-99.04449462890625
 21
8.6457481384277344
 31
0.0
  0
LINE
  5
621
100
AcDbEntity
  8
0
  6
CONTINUOUS
 62
               2
100
AcDbLine
 10
16.955490112304688
 20
31.667831420898438
 30
0.0
 11
16.955490112304688
 21
7.1457481384277344
 31
0.0
  0
INSERT
  5
622
100
AcDbEntity
  8
0
  6
CONTINUOUS
 62
               2
100
AcDbBlockReference
  2
_OPEN30
 10
16.955490112304688
 20
8.6457481384277344
 30
0.0
 41
2.77
 42
2.77
 43
2.77
  0
INSERT
  5
623
100
AcDbEntity
  8
0
  6
CONTINUOUS
 62
               2
100
AcDbBlockReference
  2
_OPEN30
 10
-99.04449462890625
 20
8.6457481384277344
 30
0.0
 41
2.77
 42
2.77
 43
2.77
 50
180.0
  0
MTEXT
  5
624
100
AcDbEntity
  8
0
  6
CONTINUOUS
 62
               2
100
AcDbMText
 10
-41.04449462890625
 20
11.895748138427734
 30
0.0
 40
4.5
 41
0.0
 71
               5
 72
               1
  1
\A1;P
 11
1.0
 21
-0.0000000000000001
 31
0.0
  0
POINT
  5
625
100
AcDbEntity
  8
DEFPOINTS
  6
CONTINUOUS
 62
               0
100
AcDbPoint
 10
16.955490112304688
 20
31.667831420898438
 30
0.0
  0
POINT
  5
626
100
AcDbEntity
  8
DEFPOINTS
  6
CONTINUOUS
 62
               0
100
AcDbPoint
 10
-99.04449462890625
 20
31.667831420898438
 30
0.0
  0
POINT
  5
627
100
AcDbEntity
  8
DEFPOINTS
  6
CONTINUOUS
 62
               0
100
AcDbPoint
 10
-99.04449462890625
 20
8.6457481384277344
 30
0.0
  0
ENDBLK
  5
628
100
AcDbEntity
  8
0
  6
ByBlock
 62
               0
100
AcDbBlockEnd
  0
BLOCK
  5
62B
100
AcDbEntity
  8
0
  6
ByBlock
 62
               0
100
AcDbBlockBegin
  2
*D6
 70
               1
 10
0.0
 20
0.0
 30
0.0
  3
*D6
  1

  0
LINE
  5
62C
100
AcDbEntity
  8
0
  6
CONTINUOUS
 62
               2
100
AcDbLine
 10
23.455490112304688
 20
8.6457481384277344
 30
0.0
 11
16.955490112304688
 21
8.6457481384277344
 31
0.0
  0
LINE
  5
62D
100
AcDbEntity
  8
0
  6
CONTINUOUS
 62
               2
100
AcDbLine
 10
37.60919189453125
 20
8.6457481384277344
 30
0.0
 11
23.455490112304688
 21
8.6457481384277344
 31
0.0
  0
LINE
  5
62E
100
AcDbEntity
  8
0
  6
CONTINUOUS
 62
               2
100
AcDbLine
 10
23.455490112304688
 20
8.6457481384277344
 30
0.0
 11
27.011490106582642
 21
8.6457481384277344
 31
0.0
  0
LINE
  5
62F
100
AcDbEntity
  8
0
  6
CONTINUOUS
 62
               2
100
AcDbLine
 10
16.955490112304688
 20
8.6457481384277344
 30
0.0
 11
13.399490118026733
 21
8.6457481384277344
 31
0.0
  0
INSERT
  5
630
100
AcDbEntity
  8
0
  6
CONTINUOUS
 62
               2
100
AcDbBlockReference
  2
_OPEN30
 10
23.455490112304688
 20
8.6457481384277344
 30
0.0
 41
2.77
 42
2.77
 43
2.77
 50
180.0
  0
INSERT
  5
631
100
AcDbEntity
  8
0
  6
CONTINUOUS
 62
               2
100
AcDbBlockReference
  2
_OPEN30
 10
16.955490112304688
 20
8.6457481384277344
 30
0.0
 41
2.77
 42
2.77
 43
2.77
  0
MTEXT
  5
632
100
AcDbEntity
  8
0
  6
CONTINUOUS
 62
               2
100
AcDbMText
 10
32.35919189453125
 20
11.895748138427734
 30
0.0
 40
4.5
 41
0.0
 71
               5
 72
               1
  1
\A1;6.5
 11
1.0
 21
-0.0000000000000001
 31
0.0
  0
POINT
  5
633
100
AcDbEntity
  8
DEFPOINTS
  6
CONTINUOUS
 62
               0
100
AcDbPoint
 10
23.455490112304688
 20
30.182464599609375
 30
0.0
  0
POINT
  5
634
100
AcDbEntity
  8
DEFPOINTS
  6
CONTINUOUS
 62
               0
100
AcDbPoint
 10
16.955490112304688
 20
31.667831420898438
 30
0.0
  0
POINT
  5
635
100
AcDbEntity
  8
DEFPOINTS
  6
CONTINUOUS
 62
               0
100
AcDbPoint
 10
16.955490112304688
 20
8.6457481384277344
 30
0.0
  0
ENDBLK
  5
636
100
AcDbEntity
  8
0
  6
ByBlock
 62
               0
100
AcDbBlockEnd
  0
BLOCK
  5
639
100
AcDbEntity
  8
0
  6
ByBlock
 62
               0
100
AcDbBlockBegin
  2
*D7
 70
               1
 10
0.0
 20
0.0
 30
0.0
  3
*D7
  1

  0
LINE
  5
63A
100
AcDbEntity
  8
0
  6
CONTINUOUS
 62
               2
100
AcDbLine
 10
23.455490112304688
 20
-6.354248046875
 30
0.0
 11
-105.54449462890625
 21
-6.354248046875
 31
0.0
  0
LINE
  5
63B
100
AcDbEntity
  8
0
  6
CONTINUOUS
 62
               2
100
AcDbLine
 10
23.455490112304688
 20
28.682464599609375
 30
0.0
 11
23.455490112304688
 21
-7.854248046875
 31
0.0
  0
LINE
  5
63C
100
AcDbEntity
  8
0
  6
CONTINUOUS
 62
               2
100
AcDbLine
 10
-105.54449462890625
 20
28.682464599609375
 30
0.0
 11
-105.54449462890625
 21
-7.854248046875
 31
0.0
  0
INSERT
  5
63D
100
AcDbEntity
  8
0
  6
CONTINUOUS
 62
               2
100
AcDbBlockReference
  2
_OPEN30
 10
23.455490112304688
 20
-6.354248046875
 30
0.0
 41
2.77
 42
2.77
 43
2.77
  0
INSERT
  5
63E
100
AcDbEntity
  8
0
  6
CONTINUOUS
 62
               2
100
AcDbBlockReference
  2
_OPEN30
 10
-105.54449462890625
 20
-6.354248046875
 30
0.0
 41
2.77
 42
2.77
 43
2.77
 50
180.0
  0
MTEXT
  5
63F
100
AcDbEntity
  8
0
  6
CONTINUOUS
 62
               2
100
AcDbMText
 10
-41.04449462890625
 20
-3.104248046875
 30
0.0
 40
4.5
 41
0.0
 71
               5
 72
               1
  1
\A1;L
 11
1.0
 21
-0.0000000000000001
 31
0.0
  0
POINT
  5
640
100
AcDbEntity
  8
DEFPOINTS
  6
CONTINUOUS
 62
               0
100
AcDbPoint
 10
23.455490112304688
 20
30.182464599609375
 30
0.0
  0
POINT
  5
641
100
AcDbEntity
  8
DEFPOINTS
  6
CONTINUOUS
 62
               0
100
AcDbPoint
 10
-105.54449462890625
 20
30.182464599609375
 30
0.0
  0
POINT
  5
642
100
AcDbEntity
  8
DEFPOINTS
  6
CONTINUOUS
 62
               0
100
AcDbPoint
 10
-105.54449462890625
 20
-6.354248046875
 30
0.0
  0
ENDBLK
  5
643
100
AcDbEntity
  8
0
  6
ByBlock
 62
               0
100
AcDbBlockEnd
  0
ENDSEC
  0
SECTION
  2
ENTITIES
  0
INSERT
  5
5A2
100
AcDbEntity
  8
0
  6
ByBlock
100
AcDbBlockReference
  2
F18MN_SAMPLE-1
 10
-99.04449462890625
 20
114.6824951171875
 30
0.0
  0
INSERT
  5
5A3
100
AcDbEntity
  8
0
  6
ByBlock
100
AcDbBlockReference
  2
F18MN_SAMPLE-2
 10
178.45550537109375
 20
114.6824951171875
 30
0.0
  0
INSERT
  5
5A4
100
AcDbEntity
  8
0
  6
ByBlock
100
AcDbBlockReference
  2
F18MN_SAMPLE-3
 10
-99.04449462890625
 20
-172.3175048828125
 30
0.0
  0
LINE
  5
5A5
100
AcDbEntity
  8
0
  6
CONTINUOUS
 62
               7
100
AcDbLine
 10
-281.25
 20
195.5
 30
0.0
 11
282.10000000000002
 21
195.5
 31
0.0
  0
LINE
  5
5A6
100
AcDbEntity
  8
0
  6
CONTINUOUS
 62
               7
100
AcDbLine
 10
282.10000000000002
 20
195.5
 30
0.0
 11
282.10000000000002
 21
-195.0
 31
0.0
  0
LINE
  5
5A7
100
AcDbEntity
  8
0
  6
CONTINUOUS
 62
               7
100
AcDbLine
 10
-281.25
 20
-195.0
 30
0.0
 11
282.10000000000002
 21
-195.0
 31
0.0
  0
LINE
  5
5A8
100
AcDbEntity
  8
0
  6
CONTINUOUS
 62
               7
100
AcDbLine
 10
162.09999999999999
 20
-175.0
 30
0.0
 11
162.09999999999999
 21
-195.0
 31
0.0
  0
LINE
  5
5A9
100
AcDbEntity
  8
0
  6
CONTINUOUS
 62
               7
100
AcDbLine
 10
162.09999999999999
 20
-175.0
 30
0.0
 11
282.10000000000002
 21
-175.0
 31
0.0
  0
LINE
  5
5AA
100
AcDbEntity
  8
0
  6
CONTINUOUS
 62
               7
100
AcDbLine
 10
162.09999999999999
 20
175.5
 30
0.0
 11
282.10000000000002
 21
175.5
 31
0.0
  0
LINE
  5
5AB
100
AcDbEntity
  8
0
  6
CONTINUOUS
 62
               7
100
AcDbLine
 10
-281.25
 20
175.5
 30
0.0
 11
-161.25
 21
175.5
 31
0.0
  0
LINE
  5
5AC
100
AcDbEntity
  8
0
  6
CONTINUOUS
 62
               7
100
AcDbLine
 10
162.09999999999999
 20
195.5
 30
0.0
 11
162.09999999999999
 21
175.5
 31
0.0
  0
LINE
  5
5AD
100
AcDbEntity
  8
0
  6
CONTINUOUS
 62
               7
100
AcDbLine
 10
-161.25
 20
195.5
 30
0.0
 11
-161.25
 21
175.5
 31
0.0
  0
LINE
  5
5AE
100
AcDbEntity
  8
0
  6
CONTINUOUS
 62
               7
100
AcDbLine
 10
-281.25
 20
-195.0
 30
0.0
 11
-281.25
 21
195.5
 31
0.0
  0
LINE
  5
5AF
100
AcDbEntity
  8
0
  6
CONTINUOUS
 62
               7
100
AcDbLine
 10
-266.25
 20
-180.0
 30
0.0
 11
-166.25
 21
-180.0
 31
0.0
  0
LINE
  5
5B0
100
AcDbEntity
  8
0
  6
CONTINUOUS
 62
               7
100
AcDbLine
 10
-266.25
 20
-172.0
 30
0.0
 11
-166.25
 21
-172.0
 31
0.0
  0
LINE
  5
5B1
100
AcDbEntity
  8
0
  6
CONTINUOUS
 62
               7
100
AcDbLine
 10
-266.25
 20
-164.0
 30
0.0
 11
-166.25
 21
-164.0
 31
0.0
  0
LINE
  5
5B2
100
AcDbEntity
  8
0
  6
CONTINUOUS
 62
               7
100
AcDbLine
 10
-266.25
 20
-156.0
 30
0.0
 11
-166.25
 21
-156.0
 31
0.0
  0
LINE
  5
5B3
100
AcDbEntity
  8
0
  6
CONTINUOUS
 62
               7
100
AcDbLine
 10
-266.25
 20
-148.0
 30
0.0
 11
-166.25
 21
-148.0
 31
0.0
  0
LINE
  5
5B4
100
AcDbEntity
  8
0
  6
CONTINUOUS
 62
               7
100
AcDbLine
 10
-266.25
 20
-140.0
 30
0.0
 11
-166.25
 21
-140.0
 31
0.0
  0
LINE
  5
5B5
100
AcDbEntity
  8
0
  6
CONTINUOUS
 62
               7
100
AcDbLine
 10
-266.25
 20
-132.0
 30
0.0
 11
-166.25
 21
-132.0
 31
0.0
  0
LINE
  5
5B6
100
AcDbEntity
  8
0
  6
CONTINUOUS
 62
               7
100
AcDbLine
 10
-266.25
 20
-124.0
 30
0.0
 11
-166.25
 21
-124.0
 31
0.0
  0
LINE
  5
5B7
100
AcDbEntity
  8
0
  6
CONTINUOUS
 62
               7
100
AcDbLine
 10
-266.25
 20
-116.0
 30
0.0
 11
-166.25
 21
-116.0
 31
0.0
  0
LINE
  5
5B8
100
AcDbEntity
  8
0
  6
CONTINUOUS
 62
               7
100
AcDbLine
 10
-266.25
 20
-108.0
 30
0.0
 11
-166.25
 21
-108.0
 31
0.0
  0
LINE
  5
5B9
100
AcDbEntity
  8
0
  6
CONTINUOUS
 62
               7
100
AcDbLine
 10
-266.25
 20
-100.0
 30
0.0
 11
-166.25
 21
-100.0
 31
0.0
  0
LINE
  5
5BA
100
AcDbEntity
  8
0
  6
CONTINUOUS
 62
               7
100
AcDbLine
 10
-266.25
 20
-92.0
 30
0.0
 11
-166.25
 21
-92.0
 31
0.0
  0
LINE
  5
5BB
100
AcDbEntity
  8
0
  6
CONTINUOUS
 62
               7
100
AcDbLine
 10
-266.25
 20
-84.0
 30
0.0
 11
-166.25
 21
-84.0
 31
0.0
  0
LINE
  5
5BC
100
AcDbEntity
  8
0
  6
CONTINUOUS
 62
               7
100
AcDbLine
 10
-266.25
 20
-76.0
 30
0.0
 11
-166.25
 21
-76.0
 31
0.0
  0
LINE
  5
5BD
100
AcDbEntity
  8
0
  6
CONTINUOUS
 62
               7
100
AcDbLine
 10
-266.25
 20
-68.0
 30
0.0
 11
-166.25
 21
-68.0
 31
0.0
  0
LINE
  5
5BE
100
AcDbEntity
  8
0
  6
CONTINUOUS
 62
               7
100
AcDbLine
 10
-266.25
 20
-60.0
 30
0.0
 11
-166.25
 21
-60.0
 31
0.0
  0
LINE
  5
5BF
100
AcDbEntity
  8
0
  6
CONTINUOUS
 62
               7
100
AcDbLine
 10
-266.25
 20
-52.0
 30
0.0
 11
-166.25
 21
-52.0
 31
0.0
  0
LINE
  5
5C0
100
AcDbEntity
  8
0
  6
CONTINUOUS
 62
               7
100
AcDbLine
 10
-266.25
 20
-44.0
 30
0.0
 11
-166.25
 21
-44.0
 31
0.0
  0
LINE
  5
5C1
100
AcDbEntity
  8
0
  6
CONTINUOUS
 62
               7
100
AcDbLine
 10
-266.25
 20
-36.0
 30
0.0
 11
-166.25
 21
-36.0
 31
0.0
  0
LINE
  5
5C2
100
AcDbEntity
  8
0
  6
CONTINUOUS
 62
               7
100
AcDbLine
 10
-266.25
 20
-28.0
 30
0.0
 11
-166.25
 21
-28.0
 31
0.0
  0
LINE
  5
5C3
100
AcDbEntity
  8
0
  6
CONTINUOUS
 62
               7
100
AcDbLine
 10
-266.25
 20
-20.0
 30
0.0
 11
-166.25
 21
-20.0
 31
0.0
  0
LINE
  5
5C4
100
AcDbEntity
  8
0
  6
CONTINUOUS
 62
               7
100
AcDbLine
 10
-226.25
 20
-20.0
 30
0.0
 11
-226.25
 21
-180.0
 31
0.0
  0
LINE
  5
5C5
100
AcDbEntity
  8
0
  6
CONTINUOUS
 62
               7
100
AcDbLine
 10
-266.25
 20
-20.0
 30
0.0
 11
-266.25
 21
-180.0
 31
0.0
  0
LINE
  5
5C6
100
AcDbEntity
  8
0
  6
CONTINUOUS
 62
               7
100
AcDbLine
 10
-196.25
 20
-20.0
 30
0.0
 11
-196.25
 21
-180.0
 31
0.0
  0
LINE
  5
5C7
100
AcDbEntity
  8
0
  6
CONTINUOUS
 62
               7
100
AcDbLine
 10
-166.25
 20
-20.0
 30
0.0
 11
-166.25
 21
-180.0
 31
0.0
  0
MTEXT
  5
5C8
100
AcDbEntity
  8
0
  6
CONTINUOUS
 62
               7
100
AcDbMText
 10
201.30997488927844
 20
185.5
 30
0.0
 40
6.3000001907348633
 41
0.0
 71
               4
 72
               1
  1
\W1.200;\A1;Ver.3.0
  0
MTEXT
  5
5C9
100
AcDbEntity
  8
0
  6
CONTINUOUS
 62
               7
100
AcDbMText
 10
170.28099805280428
 20
-185.0
 30
0.0
 40
9.0
 41
0.0
 71
               4
 72
               1
  1
\W1.121;\A1;KOGANEI CORP.
  0
MTEXT
  5
5CA
100
AcDbEntity
  8
0
  6
CONTINUOUS
 62
               7
100
AcDbMText
 10
-251.5746278087926
 20
185.5
 30
0.0
 40
6.3000001907348633
 41
0.0
 71
               4
 72
               1
  1
\W1.119;\A1;F18 SERIES
  0
MTEXT
  5
5CB
100
AcDbEntity
  8
0
  6
CONTINUOUS
 62
               7
100
AcDbMText
 10
-268.27500006012224
 20
160.5
 30
0.0
 40
6.3000001907348633
 41
0.0
 71
               4
 72
               1
  1
\W1.071;\A1;MODEL:F18M4N-JR
  0
MTEXT
  5
5CC
100
AcDbEntity
  8
0
  6
CONTINUOUS
 62
               7
100
AcDbMText
 10
-254.5
 20
-24.0
 30
0.0
 40
4.5
 41
0.0
 71
               4
 72
               1
  1
\A1;TYPE
  0
MTEXT
  5
5CD
100
AcDbEntity
  8
0
  6
CONTINUOUS
 62
               7
100
AcDbMText
 10
-246.91666665578606
 20
-16.0
 30
0.0
 40
4.5
 41
0.0
 71
               4
 72
               1
  1
\W1.111;\A1;DIMENSION LIST
  0
MTEXT
  5
5CE
100
AcDbEntity
  8
0
  6
CONTINUOUS
 62
               7
100
AcDbMText
 10
-217.25
 20
-176.0
 30
0.0
 40
4.5
 41
0.0
 71
               4
 72
               1
  1
\A1;433
  0
MTEXT
  5
5CF
100
AcDbEntity
  8
0
  6
CONTINUOUS
 62
               7
100
AcDbMText
 10
-187.20588234180306
 20
-176.0
 30
0.0
 40
4.5
 41
0.0
 71
               4
 72
               1
  1
\W1.059;\A1;420
  0
MTEXT
  5
5D0
100
AcDbEntity
  8
0
  6
CONTINUOUS
 62
               7
100
AcDbMText
 10
-261.19230771599672
 20
-176.0
 30
0.0
 40
4.5
 41
0.0
 71
               4
 72
               1
  1
\W1.077;\A1;F18M20N
  0
MTEXT
  5
5D1
100
AcDbEntity
  8
0
  6
CONTINUOUS
 62
               7
100
AcDbMText
 10
-256.70588235851022
 20
-32.0
 30
0.0
 40
4.5
 41
0.0
 71
               4
 72
               1
  1
\W1.059;\A1;F18M2N
  0
MTEXT
  5
5D2
100
AcDbEntity
  8
0
  6
CONTINUOUS
 62
               7
100
AcDbMText
 10
-256.70588235851022
 20
-40.0
 30
0.0
 40
4.5
 41
0.0
 71
               4
 72
               1
  1
\W1.059;\A1;F18M3N
  0
MTEXT
  5
5D3
100
AcDbEntity
  8
0
  6
CONTINUOUS
 62
               7
100
AcDbMText
 10
-256.70588235851022
 20
-48.0
 30
0.0
 40
4.5
 41
0.0
 71
               4
 72
               1
  1
\W1.059;\A1;F18M4N
  0
MTEXT
  5
5D4
100
AcDbEntity
  8
0
  6
CONTINUOUS
 62
               7
100
AcDbMText
 10
-256.70588235851022
 20
-56.0
 30
0.0
 40
4.5
 41
0.0
 71
               4
 72
               1
  1
\W1.059;\A1;F18M5N
  0
MTEXT
  5
5D5
100
AcDbEntity
  8
0
  6
CONTINUOUS
 62
               7
100
AcDbMText
 10
-256.70588235851022
 20
-64.0
 30
0.0
 40
4.5
 41
0.0
 71
               4
 72
               1
  1
\W1.059;\A1;F18M6N
  0
MTEXT
  5
5D6
100
AcDbEntity
  8
0
  6
CONTINUOUS
 62
               7
100
AcDbMText
 10
-256.70588235851022
 20
-72.0
 30
0.0
 40
4.5
 41
0.0
 71
               4
 72
               1
  1
\W1.059;\A1;F18M7N
  0
MTEXT
  5
5D7
100
AcDbEntity
  8
0
  6
CONTINUOUS
 62
               7
100
AcDbMText
 10
-256.70588235851022
 20
-80.0
 30
0.0
 40
4.5
 41
0.0
 71
               4
 72
               1
  1
\W1.059;\A1;F18M8N
  0
MTEXT
  5
5D8
100
AcDbEntity
  8
0
  6
CONTINUOUS
 62
               7
100
AcDbMText
 10
-256.70588235851022
 20
-88.0
 30
0.0
 40
4.5
 41
0.0
 71
               4
 72
               1
  1
\W1.059;\A1;F18M9N
  0
MTEXT
  5
5D9
100
AcDbEntity
  8
0
  6
CONTINUOUS
 62
               7
100
AcDbMText
 10
-261.1486486944076
 20
-96.0
 30
0.0
 40
4.5
 41
0.0
 71
               4
 72
               1
  1
\W1.135;\A1;F18M10N
  0
MTEXT
  5
5DA
100
AcDbEntity
  8
0
  6
CONTINUOUS
 62
               7
100
AcDbMText
 10
-261.12499999751896
 20
-104.0
 30
0.0
 40
4.5
 41
0.0
 71
               4
 72
               1
  1
\W1.167;\A1;F18M11N
  0
MTEXT
  5
5DB
100
AcDbEntity
  8
0
  6
CONTINUOUS
 62
               7
100
AcDbMText
 10
-261.17105266080216
 20
-112.0
 30
0.0
 40
4.5
 41
0.0
 71
               4
 72
               1
  1
\W1.105;\A1;F18M12N
  0
MTEXT
  5
5DC
100
AcDbEntity
  8
0
  6
CONTINUOUS
 62
               7
100
AcDbMText
 10
-261.17105266080216
 20
-120.0
 30
0.0
 40
4.5
 41
0.0
 71
               4
 72
               1
  1
\W1.105;\A1;F18M13N
  0
MTEXT
  5
5DD
100
AcDbEntity
  8
0
  6
CONTINUOUS
 62
               7
100
AcDbMText
 10
-261.17105266080216
 20
-128.0
 30
0.0
 40
4.5
 41
0.0
 71
               4
 72
               1
  1
\W1.105;\A1;F18M14N
  0
MTEXT
  5
5DE
100
AcDbEntity
  8
0
  6
CONTINUOUS
 62
               7
100
AcDbMText
 10
-261.17105266080216
 20
-136.0
 30
0.0
 40
4.5
 41
0.0
 71
               4
 72
               1
  1
\W1.105;\A1;F18M15N
  0
MTEXT
  5
5DF
100
AcDbEntity
  8
0
  6
CONTINUOUS
 62
               7
100
AcDbMText
 10
-261.17105266080216
 20
-144.0
 30
0.0
 40
4.5
 41
0.0
 71
               4
 72
               1
  1
\W1.105;\A1;F18M16N
  0
MTEXT
  5
5E0
100
AcDbEntity
  8
0
  6
CONTINUOUS
 62
               7
100
AcDbMText
 10
-261.17105266080216
 20
-152.0
 30
0.0
 40
4.5
 41
0.0
 71
               4
 72
               1
  1
\W1.105;\A1;F18M17N
  0
MTEXT
  5
5E1
100
AcDbEntity
  8
0
  6
CONTINUOUS
 62
               7
100
AcDbMText
 10
-261.17105266080216
 20
-160.0
 30
0.0
 40
4.5
 41
0.0
 71
               4
 72
               1
  1
\W1.105;\A1;F18M18N
  0
MTEXT
  5
5E2
100
AcDbEntity
  8
0
  6
CONTINUOUS
 62
               7
100
AcDbMText
 10
-261.17105266080216
 20
-168.0
 30
0.0
 40
4.5
 41
0.0
 71
               4
 72
               1
  1
\W1.105;\A1;F18M19N
  0
MTEXT
  5
5E3
100
AcDbEntity
  8
0
  6
CONTINUOUS
 62
               7
100
AcDbMText
 10
-212.75
 20
-24.0
 30
0.0
 40
4.5
 41
0.0
 71
               4
 72
               1
  1
\A1;L
  0
MTEXT
  5
5E4
100
AcDbEntity
  8
0
  6
CONTINUOUS
 62
               7
100
AcDbMText
 10
-182.75
 20
-24.0
 30
0.0
 40
4.5
 41
0.0
 71
               4
 72
               1
  1
\A1;P
  0
MTEXT
  5
5E5
100
AcDbEntity
  8
0
  6
CONTINUOUS
 62
               7
100
AcDbMText
 10
-212.60000005722048
 20
-32.0
 30
0.0
 40
4.5
 41
0.0
 71
               4
 72
               1
  1
\W1.200;\A1;91
  0
MTEXT
  5
5E6
100
AcDbEntity
  8
0
  6
CONTINUOUS
 62
               7
100
AcDbMText
 10
-182.75
 20
-32.0
 30
0.0
 40
4.5
 41
0.0
 71
               4
 72
               1
  1
\A1;78
  0
MTEXT
  5
5E7
100
AcDbEntity
  8
0
  6
CONTINUOUS
 62
               7
100
AcDbMText
 10
-216.96153852185111
 20
-40.0
 30
0.0
 40
4.5
 41
0.0
 71
               4
 72
               1
  1
\W1.385;\A1;110
  0
MTEXT
  5
5E8
100
AcDbEntity
  8
0
  6
CONTINUOUS
 62
               7
100
AcDbMText
 10
-182.75
 20
-40.0
 30
0.0
 40
4.5
 41
0.0
 71
               4
 72
               1
  1
\A1;97
  0
MTEXT
  5
5E9
100
AcDbEntity
  8
0
  6
CONTINUOUS
 62
               7
100
AcDbMText
 10
-217.15625001257285
 20
-48.0
 30
0.0
 40
4.5
 41
0.0
 71
               4
 72
               1
  1
\W1.125;\A1;129
  0
MTEXT
  5
5EA
100
AcDbEntity
  8
0
  6
CONTINUOUS
 62
               7
100
AcDbMText
 10
-187.03571434410617
 20
-48.0
 30
0.0
 40
4.5
 41
0.0
 71
               4
 72
               1
  1
\W1.286;\A1;116
  0
MTEXT
  5
5EB
100
AcDbEntity
  8
0
  6
CONTINUOUS
 62
               7
100
AcDbMText
 10
-217.15625001257285
 20
-56.0
 30
0.0
 40
4.5
 41
0.0
 71
               4
 72
               1
  1
\W1.125;\A1;148
  0
MTEXT
  5
5EC
100
AcDbEntity
  8
0
  6
CONTINUOUS
 62
               7
100
AcDbMText
 10
-187.15625001257285
 20
-56.0
 30
0.0
 40
4.5
 41
0.0
 71
               4
 72
               1
  1
\W1.125;\A1;135
  0
MTEXT
  5
5ED
100
AcDbEntity
  8
0
  6
CONTINUOUS
 62
               7
100
AcDbMText
 10
-217.15625001257285
 20
-64.0
 30
0.0
 40
4.5
 41
0.0
 71
               4
 72
               1
  1
\W1.125;\A1;167
  0
MTEXT
  5
5EE
100
AcDbEntity
  8
0
  6
CONTINUOUS
 62
               7
100
AcDbMText
 10
-187.15625001257285
 20
-64.0
 30
0.0
 40
4.5
 41
0.0
 71
               4
 72
               1
  1
\W1.125;\A1;154
  0
MTEXT
  5
5EF
100
AcDbEntity
  8
0
  6
CONTINUOUS
 62
               7
100
AcDbMText
 10
-217.15625001257285
 20
-72.0
 30
0.0
 40
4.5
 41
0.0
 71
               4
 72
               1
  1
\W1.125;\A1;186
  0
MTEXT
  5
5F0
100
AcDbEntity
  8
0
  6
CONTINUOUS
 62
               7
100
AcDbMText
 10
-187.15625001257285
 20
-72.0
 30
0.0
 40
4.5
 41
0.0
 71
               4
 72
               1
  1
\W1.125;\A1;173
  0
MTEXT
  5
5F1
100
AcDbEntity
  8
0
  6
CONTINUOUS
 62
               7
100
AcDbMText
 10
-217.20588234180306
 20
-80.0
 30
0.0
 40
4.5
 41
0.0
 71
               4
 72
               1
  1
\W1.059;\A1;205
  0
MTEXT
  5
5F2
100
AcDbEntity
  8
0
  6
CONTINUOUS
 62
               7
100
AcDbMText
 10
-187.15625001257285
 20
-80.0
 30
0.0
 40
4.5
 41
0.0
 71
               4
 72
               1
  1
\W1.125;\A1;192
  0
MTEXT
  5
5F3
100
AcDbEntity
  8
0
  6
CONTINUOUS
 62
               7
100
AcDbMText
 10
-217.25
 20
-88.0
 30
0.0
 40
4.5
 41
0.0
 71
               4
 72
               1
  1
\A1;224
  0
MTEXT
  5
5F4
100
AcDbEntity
  8
0
  6
CONTINUOUS
 62
               7
100
AcDbMText
 10
-187.03571434410617
 20
-88.0
 30
0.0
 40
4.5
 41
0.0
 71
               4
 72
               1
  1
\W1.286;\A1;211
  0
MTEXT
  5
5F5
100
AcDbEntity
  8
0
  6
CONTINUOUS
 62
               7
100
AcDbMText
 10
-217.25
 20
-96.0
 30
0.0
 40
4.5
 41
0.0
 71
               4
 72
               1
  1
\A1;243
  0
MTEXT
  5
5F6
100
AcDbEntity
  8
0
  6
CONTINUOUS
 62
               7
100
AcDbMText
 10
-187.20588234180306
 20
-96.0
 30
0.0
 40
4.5
 41
0.0
 71
               4
 72
               1
  1
\W1.059;\A1;230
  0
MTEXT
  5
5F7
100
AcDbEntity
  8
0
  6
CONTINUOUS
 62
               7
100
AcDbMText
 10
-217.25
 20
-104.0
 30
0.0
 40
4.5
 41
0.0
 71
               4
 72
               1
  1
\A1;262
  0
MTEXT
  5
5F8
100
AcDbEntity
  8
0
  6
CONTINUOUS
 62
               7
100
AcDbMText
 10
-187.25
 20
-104.0
 30
0.0
 40
4.5
 41
0.0
 71
               4
 72
               1
  1
\A1;249
  0
MTEXT
  5
5F9
100
AcDbEntity
  8
0
  6
CONTINUOUS
 62
               7
100
AcDbMText
 10
-217.15625001257285
 20
-112.0
 30
0.0
 40
4.5
 41
0.0
 71
               4
 72
               1
  1
\W1.125;\A1;281
  0
MTEXT
  5
5FA
100
AcDbEntity
  8
0
  6
CONTINUOUS
 62
               7
100
AcDbMText
 10
-187.25
 20
-112.0
 30
0.0
 40
4.5
 41
0.0
 71
               4
 72
               1
  1
\A1;268
  0
MTEXT
  5
5FB
100
AcDbEntity
  8
0
  6
CONTINUOUS
 62
               7
100
AcDbMText
 10
-217.15624997485429
 20
-120.0
 30
0.0
 40
4.5
 41
0.0
 71
               4
 72
               1
  1
\W1.125;\A1;300
  0
MTEXT
  5
5FC
100
AcDbEntity
  8
0
  6
CONTINUOUS
 62
               7
100
AcDbMText
 10
-187.25
 20
-120.0
 30
0.0
 40
4.5
 41
0.0
 71
               4
 72
               1
  1
\A1;287
  0
MTEXT
  5
5FD
100
AcDbEntity
  8
0
  6
CONTINUOUS
 62
               7
100
AcDbMText
 10
-217.15625001257285
 20
-128.0
 30
0.0
 40
4.5
 41
0.0
 71
               4
 72
               1
  1
\W1.125;\A1;319
  0
MTEXT
  5
5FE
100
AcDbEntity
  8
0
  6
CONTINUOUS
 62
               7
100
AcDbMText
 10
-187.20588234180306
 20
-128.0
 30
0.0
 40
4.5
 41
0.0
 71
               4
 72
               1
  1
\W1.059;\A1;306
  0
MTEXT
  5
5FF
100
AcDbEntity
  8
0
  6
CONTINUOUS
 62
               7
100
AcDbMText
 10
-217.25
 20
-136.0
 30
0.0
 40
4.5
 41
0.0
 71
               4
 72
               1
  1
\A1;338
  0
MTEXT
  5
600
100
AcDbEntity
  8
0
  6
CONTINUOUS
 62
               7
100
AcDbMText
 10
-187.25
 20
-136.0
 30
0.0
 40
4.5
 41
0.0
 71
               4
 72
               1
  1
\A1;325
  0
MTEXT
  5
601
100
AcDbEntity
  8
0
  6
CONTINUOUS
 62
               7
100
AcDbMText
 10
-217.25
 20
-144.0
 30
0.0
 40
4.5
 41
0.0
 71
               4
 72
               1
  1
\A1;357
  0
MTEXT
  5
602
100
AcDbEntity
  8
0
  6
CONTINUOUS
 62
               7
100
AcDbMText
 10
-187.25
 20
-144.0
 30
0.0
 40
4.5
 41
0.0
 71
               4
 72
               1
  1
\A1;344
  0
MTEXT
  5
603
100
AcDbEntity
  8
0
  6
CONTINUOUS
 62
               7
100
AcDbMText
 10
-217.25
 20
-152.0
 30
0.0
 40
4.5
 41
0.0
 71
               4
 72
               1
  1
\A1;376
  0
MTEXT
  5
604
100
AcDbEntity
  8
0
  6
CONTINUOUS
 62
               7
100
AcDbMText
 10
-187.25
 20
-152.0
 30
0.0
 40
4.5
 41
0.0
 71
               4
 72
               1
  1
\A1;363
  0
MTEXT
  5
605
100
AcDbEntity
  8
0
  6
CONTINUOUS
 62
               7
100
AcDbMText
 10
-217.25
 20
-160.0
 30
0.0
 40
4.5
 41
0.0
 71
               4
 72
               1
  1
\A1;395
  0
MTEXT
  5
606
100
AcDbEntity
  8
0
  6
CONTINUOUS
 62
               7
100
AcDbMText
 10
-187.25
 20
-160.0
 30
0.0
 40
4.5
 41
0.0
 71
               4
 72
               1
  1
\A1;382
  0
MTEXT
  5
607
100
AcDbEntity
  8
0
  6
CONTINUOUS
 62
               7
100
AcDbMText
 10
-217.15625001257285
 20
-168.0
 30
0.0
 40
4.5
 41
0.0
 71
               4
 72
               1
  1
\W1.125;\A1;414
  0
MTEXT
  5
608
100
AcDbEntity
  8
0
  6
CONTINUOUS
 62
               7
100
AcDbMText
 10
-187.10000003576278
 20
-168.0
 30
0.0
 40
4.5
 41
0.0
 71
               4
 72
               1
  1
\W1.200;\A1;401
  0
DIMENSION
  5
61D
100
AcDbEntity
  8
0
  6
CONTINUOUS
 62
               2
100
AcDbDimension
  2
*D3
 10
-105.54449462890625
 20
8.6457481384277344
 30
0.0
 11
-112.9207763671875
 21
8.6457481384277344
 31
0.0
 70
             128
  1
<>
  3
MXDIMSTYLE
100
AcDbAlignedDimension
 13
-99.04449462890625
 23
31.667831420898438
 33
0.0
 14
-105.54449462890625
 24
30.182464599609375
 34
0.0
100
AcDbRotatedDimension
1001
ACAD
1000
DSTYLE
1002
{
1070
               6
1000
_OPEN30
1070
               7
1000
_OPEN30
1070
              41
1040
2.77
1070
              42
1040
0.0
1070
              76
1070
               1
1070
             140
1040
4.5
1070
             173
1070
               1
1070
             271
1070
               1
1070
             284
1070
               8
1070
             341
1005
610
1002
}
  0
DIMENSION
  5
629
100
AcDbEntity
  8
0
  6
CONTINUOUS
 62
               2
100
AcDbDimension
  2
*D5
 10
-99.04449462890625
 20
8.6457481384277344
 30
0.0
 11
-41.04449462890625
 21
8.6457481384277344
 31
0.0
 70
             128
  1
P
  3
MXDIMSTYLE
100
AcDbAlignedDimension
 13
16.955490112304688
 23
31.667831420898438
 33
0.0
 14
-99.04449462890625
 24
31.667831420898438
 34
0.0
100
AcDbRotatedDimension
1001
ACAD
1000
DSTYLE
1002
{
1070
               6
1000
_OPEN30
1070
               7
1000
_OPEN30
1070
              41
1040
2.77
1070
              42
1040
0.0
1070
              76
1070
               1
1070
              78
1070
               0
1070
             140
1040
4.5
1070
             173
1070
               1
1070
             271
1070
               0
1070
             341
1005
610
1002
}
  0
DIMENSION
  5
637
100
AcDbEntity
  8
0
  6
CONTINUOUS
 62
               2
100
AcDbDimension
  2
*D6
 10
16.955490112304688
 20
8.6457481384277344
 30
0.0
 11
32.35919189453125
 21
8.6457481384277344
 31
0.0
 70
             128
  1
<>
  3
MXDIMSTYLE
100
AcDbAlignedDimension
 13
23.455490112304688
 23
30.182464599609375
 33
0.0
 14
16.955490112304688
 24
31.667831420898438
 34
0.0
100
AcDbRotatedDimension
1001
ACAD
1000
DSTYLE
1002
{
1070
               6
1000
_OPEN30
1070
               7
1000
_OPEN30
1070
              41
1040
2.77
1070
              75
1070
               1
1070
              76
1070
               1
1070
             140
1040
4.5
1070
             173
1070
               1
1070
             271
1070
               1
1070
             284
1070
               8
1070
             341
1005
610
1002
}
  0
DIMENSION
  5
644
100
AcDbEntity
  8
0
  6
CONTINUOUS
 62
               2
100
AcDbDimension
  2
*D7
 10
-105.54449462890625
 20
-6.354248046875
 30
0.0
 11
-41.04449462890625
 21
-6.354248046875
 31
0.0
 70
             128
  1
L
  3
MXDIMSTYLE
100
AcDbAlignedDimension
 13
23.455490112304688
 23
30.182464599609375
 33
0.0
 14
-105.54449462890625
 24
30.182464599609375
 34
0.0
100
AcDbRotatedDimension
1001
ACAD
1000
DSTYLE
1002
{
1070
               6
1000
_OPEN30
1070
               7
1000
_OPEN30
1070
              41
1040
2.77
1070
              78
1070
               0
1070
             140
1040
4.5
1070
             173
1070
               1
1070
             271
1070
               0
1070
             341
1005
610
1002
}
  0
MTEXT
  5
645
100
AcDbEntity
  8
0
  6
CONTINUOUS
 62
               2
100
AcDbMText
 10
-139.77329401294713
 20
-41.993750476837157
 30
0.0
 40
4.5
 41
0.0
 71
               4
 72
               1
  1
\W1.059;\A1;F18T1N-FJ-PS
  0
LEADER
  5
646
100
AcDbEntity
  8
0
  6
CONTINUOUS
 62
               2
100
AcDbLeader
  3
MXDIMSTYLE
 73
               3
 74
               0
 75
               0
 40
0.0
 76
               3
 10
-80.044403076171875
 20
-55.317459106445313
 30
0.0
 10
-85.040000000000006
 20
-46.649999999999999
 30
0.0
 10
-139.77329401016237
 20
-46.649999999999999
 30
0.0
 77
               2
1001
ACAD
1000
DSTYLE
1002
{
1070
               6
1000
_OPEN30
1070
               7
1000
_OPEN30
1070
              41
1040
2.77
1070
             173
1070
               1
1070
             341
1005
610
1002
}
  0
MTEXT
  5
647
100
AcDbEntity
  8
0
  6
CONTINUOUS
 62
               2
100
AcDbMText
 10
-50.361265066984295
 20
-33.33375047683716
 30
0.0
 40
4.5
 41
0.0
 71
               4
 72
               1
  1
\W1.029;\A1;F18T2N-FJ-PS
  0
LEADER
  5
648
100
AcDbEntity
  8
0
  6
CONTINUOUS
 62
               2
100
AcDbLeader
  3
MXDIMSTYLE
 73
               3
 74
               0
 75
               0
 40
0.0
 76
               3
 10
-61.04443359375
 20
-55.3175048828125
 30
0.0
 10
-51.039999999999999
 20
-37.990000000000002
 30
0.0
 10
3.6387348985672006
 20
-37.990000000000002
 30
0.0
 77
               2
1001
ACAD
1000
DSTYLE
1002
{
1070
               6
1000
_OPEN30
1070
               7
1000
_OPEN30
1070
              41
1040
2.77
1070
             173
1070
               1
1070
             341
1005
610
1002
}
  0
MTEXT
  5
649
100
AcDbEntity
  8
0
  6
CONTINUOUS
 62
               2
100
AcDbMText
 10
-35.36698258292973
 20
-41.993750476837157
 30
0.0
 40
4.5
 41
0.0
 71
               4
 72
               1
  1
\W1.029;\A1;F18T2N-FJ-PS
  0
LEADER
  5
64A
100
AcDbEntity
  8
0
  6
CONTINUOUS
 62
               2
100
AcDbLeader
  3
MXDIMSTYLE
 73
               3
 74
               0
 75
               0
 40
0.0
 76
               3
 10
-42.04449462890625
 20
-55.3175048828125
 30
0.0
 10
-37.039999999999999
 20
-46.649999999999999
 30
0.0
 10
18.633017382621766
 20
-46.649999999999999
 30
0.0
 77
               2
1001
ACAD
1000
DSTYLE
1002
{
1070
               6
1000
_OPEN30
1070
               7
1000
_OPEN30
1070
              41
1040
2.77
1070
             173
1070
               1
1070
             341
1005
610
1002
}
  0
MTEXT
  5
64B
100
AcDbEntity
  8
0
  6
CONTINUOUS
 62
               2
100
AcDbMText
 10
-9.206744968053485
 20
-62.164955496788025
 30
0.0
 40
4.5
 41
0.0
 71
               4
 72
               1
  1
\W1.071;\A1;F18BP
  0
LEADER
  5
64C
100
AcDbEntity
  8
0
  6
CONTINUOUS
 62
               2
100
AcDbLeader
  3
MXDIMSTYLE
 73
               3
 74
               0
 75
               0
 40
0.0
 76
               3
 10
-23.044403076171875
 20
-115.11749267578125
 30
0.0
 10
-10.103438973426819
 20
-66.821205019950867
 30
0.0
 10
13.293255031108856
 20
-66.821205019950867
 30
0.0
 77
               2
1001
ACAD
1000
DSTYLE
1002
{
1070
               6
1000
_OPEN30
1070
               7
1000
_OPEN30
1070
              41
1040
2.77
1070
             173
1070
               1
1070
             341
1005
610
1002
}
  0
ENDSEC
  0
SECTION
  2
OBJECTS
  0
DICTIONARY
  5
19
100
AcDbDictionary
  3
ACAD_GROUP
350
1A
  3
ACAD_MLINESTYLE
350
1B
  0
DICTIONARY
  5
1A
102
{ACAD_REACTORS
330
19
102
}
100
AcDbDictionary
  0
DICTIONARY
  5
1B
102
{ACAD_REACTORS
330
19
102
}
100
AcDbDictionary
  3
STANDARD
350
1C
  0
MLINESTYLE
  5
1C
102
{ACAD_REACTORS
330
1B
102
}
100
AcDbMlineStyle
  2
Standard
 70
               0
  3

 62
               0
 51
90.0
 52
90.0
 71
               2
 49
0.5
 62
             256
  6
ByLayer
 49
-0.5
 62
             256
  6
ByLayer
  0
ENDSEC
  0
EOF
