  0
SECTION
  2
HEADER
  9
$ACADVER
  1
AC1012
  9
$DWGCODEPAGE
  3
dos932
  9
$INSBASE
 10
0.0
 20
0.0
 30
0.0
  9
$EXTMIN
 10
-281.25
 20
-195.0
 30
0.0
  9
$EXTMAX
 10
285.6319057062413
 20
195.5
 30
0.0
  9
$LIMMIN
 10
-281.25
 20
-195.0
  9
$LIMMAX
 10
285.6319057062413
 20
195.5
  9
$ORTHOMODE
 70
               0
  9
$REGENMODE
 70
               1
  9
$FILLMODE
 70
               1
  9
$QTEXTMODE
 70
               0
  9
$MIRRTEXT
 70
               1
  9
$DRAGMODE
 70
               2
  9
$LTSCALE
 40
1.0
  9
$OSMODE
 70
               0
  9
$ATTMODE
 70
               1
  9
$TEXTSIZE
 40
3.2000000476837158
  9
$TRACEWID
 40
0.05
  9
$TEXTSTYLE
  7
MX_NOTE_STANDARD
  9
$CLAYER
  8
0
  9
$CELTYPE
  6
CONTINUOUS
  9
$CECOLOR
 62
             256
  9
$CELTSCALE
 40
1.0
  9
$DELOBJ
 70
               1
  9
$DISPSILH
 70
               0
  9
$DIMSCALE
 40
1.0
  9
$DIMASZ
 40
2.5
  9
$DIMEXO
 40
1.5
  9
$DIMDLI
 40
3.75
  9
$DIMRND
 40
0.0
  9
$DIMDLE
 40
0.0
  9
$DIMEXE
 40
1.5
  9
$DIMTP
 40
0.0
  9
$DIMTM
 40
0.0
  9
$DIMTXT
 40
3.2000000476837158
  9
$DIMCEN
 40
2.5
  9
$DIMTSZ
 40
0.0
  9
$DIMTOL
 70
               0
  9
$DIMLIM
 70
               0
  9
$DIMTIH
 70
               0
  9
$DIMTOH
 70
               0
  9
$DIMSE1
 70
               0
  9
$DIMSE2
 70
               0
  9
$DIMTAD
 70
               1
  9
$DIMZIN
 70
               8
  9
$DIMBLK
  1

  9
$DIMASO
 70
               1
  9
$DIMSHO
 70
               1
  9
$DIMPOST
  1

  9
$DIMAPOST
  1

  9
$DIMALT
 70
               0
  9
$DIMALTD
 70
               4
  9
$DIMALTF
 40
0.03937007874016
  9
$DIMLFAC
 40
1.0
  9
$DIMTOFL
 70
               1
  9
$DIMTVP
 40
0.0
  9
$DIMTIX
 70
               0
  9
$DIMSOXD
 70
               0
  9
$DIMSAH
 70
               0
  9
$DIMBLK1
  1

  9
$DIMBLK2
  1

  9
$DIMSTYLE
  2
MXDIMSTYLE
  9
$DIMCLRD
 70
               0
  9
$DIMCLRE
 70
               0
  9
$DIMCLRT
 70
               0
  9
$DIMTFAC
 40
1.0
  9
$DIMGAP
 40
1.0
  9
$DIMJUST
 70
               0
  9
$DIMSD1
 70
               0
  9
$DIMSD2
 70
               0
  9
$DIMTOLJ
 70
               1
  9
$DIMTZIN
 70
               0
  9
$DIMALTZ
 70
               0
  9
$DIMALTTZ
 70
               0
  9
$DIMFIT
 70
               3
  9
$DIMUPT
 70
               1
  9
$DIMUNIT
 70
               2
  9
$DIMDEC
 70
               4
  9
$DIMTDEC
 70
               4
  9
$DIMALTU
 70
               2
  9
$DIMALTTD
 70
               4
  9
$DIMTXSTY
  7
MX_NOTE_STANDARD
  9
$DIMAUNIT
 70
               0
  9
$LUNITS
 70
               2
  9
$LUPREC
 70
               4
  9
$SKETCHINC
 40
0.1
  9
$FILLETRAD
 40
0.0
  9
$AUNITS
 70
               0
  9
$AUPREC
 70
               0
  9
$MENU
  1
acad
  9
$ELEVATION
 40
0.0
  9
$PELEVATION
 40
0.0
  9
$THICKNESS
 40
0.0
  9
$LIMCHECK
 70
               0
  9
$BLIPMODE
 70
               1
  9
$CHAMFERA
 40
0.0
  9
$CHAMFERB
 40
0.0
  9
$CHAMFERC
 40
0.0
  9
$CHAMFERD
 40
0.0
  9
$SKPOLY
 70
               0
  9
$TDCREATE
 40
2453378.356504630
  9
$TDUPDATE
 40
2453378.356504630
  9
$TDINDWG
 40
0.0000000000
  9
$TDUSRTIMER
 40
0.0000000000
  9
$USRTIMER
 70
               1
  9
$ANGBASE
 50
0.0
  9
$ANGDIR
 70
               0
  9
$PDMODE
 70
               0
  9
$PDSIZE
 40
0.0
  9
$PLINEWID
 40
0.0
  9
$COORDS
 70
               1
  9
$SPLFRAME
 70
               0
  9
$SPLINETYPE
 70
               6
  9
$SPLINESEGS
 70
               8
  9
$ATTDIA
 70
               0
  9
$ATTREQ
 70
               1
  9
$HANDLING
 70
               1
  9
$HANDSEED
  5
5C8
  9
$SURFTAB1
 70
               6
  9
$SURFTAB2
 70
               6
  9
$SURFTYPE
 70
               6
  9
$SURFU
 70
               6
  9
$SURFV
 70
               6
  9
$UCSNAME
  2

  9
$UCSORG
 10
0.0
 20
0.0
 30
0.0
  9
$UCSXDIR
 10
1.0
 20
0.0
 30
0.0
  9
$UCSYDIR
 10
0.0
 20
1.0
 30
0.0
  9
$PUCSNAME
  2

  9
$PUCSORG
 10
0.0
 20
0.0
 30
0.0
  9
$PUCSXDIR
 10
1.0
 20
0.0
 30
0.0
  9
$PUCSYDIR
 10
0.0
 20
1.0
 30
0.0
  9
$USERI1
 70
               0
  9
$USERI2
 70
               0
  9
$USERI3
 70
               0
  9
$USERI4
 70
               0
  9
$USERI5
 70
               0
  9
$USERR1
 40
0.0
  9
$USERR2
 40
0.0
  9
$USERR3
 40
0.0
  9
$USERR4
 40
0.0
  9
$USERR5
 40
0.0
  9
$WORLDVIEW
 70
               1
  9
$SHADEDGE
 70
               3
  9
$SHADEDIF
 70
              70
  9
$TILEMODE
 70
               1
  9
$MAXACTVP
 70
              16
  9
$PINSBASE
 10
0.0
 20
0.0
 30
0.0
  9
$PLIMCHECK
 70
               0
  9
$PEXTMIN
 10
1.0000000000000000E+20
 20
1.0000000000000000E+20
 30
1.0000000000000000E+20
  9
$PEXTMAX
 10
-1.0000000000000000E+20
 20
-1.0000000000000000E+20
 30
-1.0000000000000000E+20
  9
$PLIMMIN
 10
0.0
 20
0.0
  9
$PLIMMAX
 10
12.0
 20
9.0
  9
$UNITMODE
 70
               0
  9
$VISRETAIN
 70
               0
  9
$PLINEGEN
 70
               1
  9
$PSLTSCALE
 70
               0
  9
$TREEDEPTH
 70
            3020
  9
$PICKSTYLE
 70
               1
  9
$CMLSTYLE
  2
Standard
  9
$CMLJUST
 70
               0
  9
$CMLSCALE
 40
1.0
  9
$SAVEIMAGES
 70
               0
  0
ENDSEC
  0
SECTION
  2
CLASSES
  0
CLASS
  1
LWPOLYLINE
  2
AcDbPolyline
  3
"AutoCAD"
 90
        0
280
               0
281
               1
  0
CLASS
  1
IMAGE
  2
AcDbRasterImage
  3
ISM
 90
      127
280
               0
281
               1
  0
CLASS
  1
OLE2FRAME
  2
AcDbOle2Frame
  3
""
 90
        0
280
               0
281
               1
  0
CLASS
  1
HATCH
  2
AcDbHatch
  3
"ACAD_SEDONA"
 90
        0
280
               0
281
               1
  0
CLASS
  1
DICTIONARYVAR
  2
AcDbDictionaryVar
  3
"AutoCAD"
 90
        0
280
               0
281
               0
  0
CLASS
  1
RASTERVARIABLES
  2
AcDbRasterVariables
  3
ISM
 90
        0
280
               0
281
               0
  0
CLASS
  1
IMAGEDEF
  2
AcDbRasterImageDef
  3
ISM
 90
        0
280
               0
281
               0
  0
CLASS
  1
IMAGEDEF_REACTOR
  2
AcDbRasterImageDefReactor
  3
ISM
 90
        1
280
               0
281
               0
  0
CLASS
  1
IDBUFFER
  2
AcDbIdBuffer
  3
"Acad"
 90
        0
280
               0
281
               0
  0
CLASS
  1
SPATIAL_FILTER
  2
AcDbSpatialFilter
  3
"Acad"
 90
        0
280
               0
281
               0
  0
CLASS
  1
XRECORD
  2
AcDbXrecord
  3
"<Built In>"
 90
        0
280
               0
281
               0
  0
CLASS
  1
SORTENTSTABLE
  2
AcDbSortentsTable
  3
"AutoCAD"
 90
        0
280
               0
281
               0
  0
CLASS
  1
LAYER_INDEX
  2
AcDbLayerIndex
  3
"Acad"
 90
        0
280
               0
281
               0
  0
CLASS
  1
SPATIAL_INDEX
  2
AcDbSpatialIndex
  3
"Acad"
 90
        0
280
               0
281
               0
  0
CLASS
  1
OBJECT_PTR
  2
CAseDLPNTableRecord
  3
"ASE-LPNTableRecord"
 90
        1
280
               0
281
               0
  0
CLASS
  1
LAYOUT
  2
AcDbLayout
  3
"AutoCAD 2000"
 90
        1
280
               0
281
               0
  0
CLASS
  1
PLOTSETTINGS
  2
AcDbPlotSettings
  3
"AutoCAD 2000"
 90
        1
280
               0
281
               0
  0
CLASS
  1
ACDBDICTIONARYWDFLT
  2
AcDbDictionaryWithDefault
  3
"AutoCAD 2000"
 90
        1
280
               0
281
               0
  0
CLASS
  1
ACDBPLACEHOLDER
  2
AcDbPlaceHolder
  3
"AutoCAD 2000"
 90
        1
280
               0
281
               0
  0
ENDSEC
  0
SECTION
  2
TABLES
  0
TABLE
  2
VPORT
  5
7
100
AcDbSymbolTable
 70
               1
  0
VPORT
  5
15
100
AcDbSymbolTableRecord
100
AcDbViewportTableRecord
  2
*ACTIVE
 70
               0
 10
0.0
 20
0.0
 11
1.0
 21
1.0
 12
2.1909528531206206
 22
0.25
 13
0.0
 23
0.0
 14
1.0
 24
1.0
 15
0.0
 25
0.0
 16
0.0
 26
0.0
 36
1.0
 17
0.0
 27
0.0
 37
0.0
 40
394.40500000000003
 41
1.7320508075688772
 42
50.0
 43
0.0
 44
0.0
 50
0.0
 51
0.0
 71
               0
 72
             100
 73
               1
 74
               1
 75
               0
 76
               0
 77
               0
 78
               0
  0
ENDTAB
  0
TABLE
  2
LTYPE
  5
4
100
AcDbSymbolTable
 70
               3
  0
LTYPE
  5
11
100
AcDbSymbolTableRecord
100
AcDbLinetypeTableRecord
  2
BYBLOCK
 70
              64
  3

 72
              65
 73
               0
 40
0.0
  0
LTYPE
  5
12
100
AcDbSymbolTableRecord
100
AcDbLinetypeTableRecord
  2
BYLAYER
 70
              64
  3

 72
              65
 73
               0
 40
0.0
  0
LTYPE
  5
13
100
AcDbSymbolTableRecord
100
AcDbLinetypeTableRecord
  2
CONTINUOUS
 70
              64
  3
Solid line
 72
              65
 73
               0
 40
0.0
  0
ENDTAB
  0
TABLE
  2
LAYER
  5
2
100
AcDbSymbolTable
 70
               2
  0
LAYER
  5
14
100
AcDbSymbolTableRecord
100
AcDbLayerTableRecord
  2
0
 70
               0
 62
               7
  6
CONTINUOUS
  0
LAYER
  5
1D
100
AcDbSymbolTableRecord
100
AcDbLayerTableRecord
  2
DEFPOINTS
 70
               0
 62
               7
  6
CONTINUOUS
  0
ENDTAB
  0
TABLE
  2
STYLE
  5
3
100
AcDbSymbolTable
 70
               1
  0
STYLE
  5
17
100
AcDbSymbolTableRecord
100
AcDbTextStyleTableRecord
  2
MX_NOTE_STANDARD
 70
               0
 40
0.0
 41
1.0
 50
0.0
 71
               0
 42
3.2000000476837158
  3
txt.shx
  4
extfont.shx
  0
ENDTAB
  0
TABLE
  2
VIEW
  5
5
100
AcDbSymbolTable
 70
               0
  0
ENDTAB
  0
TABLE
  2
UCS
  5
6
100
AcDbSymbolTable
 70
               0
  0
ENDTAB
  0
TABLE
  2
APPID
  5
8
100
AcDbSymbolTable
 70
               1
  0
APPID
  5
16
100
AcDbSymbolTableRecord
100
AcDbRegAppTableRecord
  2
ACAD
 70
               0
  0
ENDTAB
  0
TABLE
  2
DIMSTYLE
  5
9
100
AcDbSymbolTable
 70
               1
  0
DIMSTYLE
105
18
100
AcDbSymbolTableRecord
100
AcDbDimStyleTableRecord
  2
MXDIMSTYLE
 70
               0
  3

  4

  5

  6

  7

 40
1.0
 41
2.5
 42
1.5
 43
3.75
 44
1.5
 45
0.0
 46
0.0
 47
0.0
 48
0.0
 71
               0
 72
               0
 73
               0
 74
               0
 75
               0
 76
               0
 77
               1
 78
               8
140
3.2000000476837158
141
2.5
142
0.0
143
0.03937007874016
144
1.0
145
0.0
146
1.0
147
1.0
170
               0
171
               4
172
               1
173
               0
174
               0
175
               0
176
               0
177
               0
178
               0
270
               2
271
               4
272
               4
273
               2
274
               4
275
               0
280
               0
281
               0
282
               0
283
               1
284
               0
285
               0
286
               0
287
               3
288
               1
340
17
  0
ENDTAB
  0
TABLE
  2
BLOCK_RECORD
  5
1
100
AcDbSymbolTable
 70
              13
  0
BLOCK_RECORD
  5
A
100
AcDbSymbolTableRecord
100
AcDbBlockTableRecord
  2
*MODEL_SPACE
  0
BLOCK_RECORD
  5
B
100
AcDbSymbolTableRecord
100
AcDbBlockTableRecord
  2
*PAPER_SPACE
  0
BLOCK_RECORD
  5
1E
100
AcDbSymbolTableRecord
100
AcDbBlockTableRecord
  2
F18MF-1
  0
BLOCK_RECORD
  5
1F
100
AcDbSymbolTableRecord
100
AcDbBlockTableRecord
  2
F18MF-2
  0
BLOCK_RECORD
  5
20
100
AcDbSymbolTableRecord
100
AcDbBlockTableRecord
  2
F18MF-3
  0
BLOCK_RECORD
  5
21
100
AcDbSymbolTableRecord
100
AcDbBlockTableRecord
  2
F18MF-4
  0
BLOCK_RECORD
  5
22
100
AcDbSymbolTableRecord
100
AcDbBlockTableRecord
  2
F18MF-5
  0
BLOCK_RECORD
  5
23
100
AcDbSymbolTableRecord
100
AcDbBlockTableRecord
  2
F18MF-6
  0
BLOCK_RECORD
  5
24
100
AcDbSymbolTableRecord
100
AcDbBlockTableRecord
  2
F18MF-7
  0
BLOCK_RECORD
  5
25
100
AcDbSymbolTableRecord
100
AcDbBlockTableRecord
  2
F18MF-8
  0
BLOCK_RECORD
  5
582
100
AcDbSymbolTableRecord
100
AcDbBlockTableRecord
  2
*D8
  0
BLOCK_RECORD
  5
589
100
AcDbSymbolTableRecord
100
AcDbBlockTableRecord
  2
_OPEN30
  0
BLOCK_RECORD
  5
597
100
AcDbSymbolTableRecord
100
AcDbBlockTableRecord
  2
*D10
  0
BLOCK_RECORD
  5
5A3
100
AcDbSymbolTableRecord
100
AcDbBlockTableRecord
  2
*D11
  0
BLOCK_RECORD
  5
5B1
100
AcDbSymbolTableRecord
100
AcDbBlockTableRecord
  2
*D12
  0
ENDTAB
  0
ENDSEC
  0
SECTION
  2
BLOCKS
  0
BLOCK
  5
D
100
AcDbEntity
  8
0
100
AcDbBlockBegin
  2
*MODEL_SPACE
 70
               0
 10
0.0
 20
0.0
 30
0.0
  3
*MODEL_SPACE
  1

  0
ENDBLK
  5
E
100
AcDbEntity
  8
0
100
AcDbBlockEnd
  0
BLOCK
  5
F
100
AcDbEntity
 67
               1
  8
0
100
AcDbBlockBegin
  2
*PAPER_SPACE
 70
               0
 10
0.0
 20
0.0
 30
0.0
  3
*PAPER_SPACE
  1

  0
ENDBLK
  5
10
100
AcDbEntity
 67
               1
  8
0
100
AcDbBlockEnd
  0
BLOCK
  5
26
100
AcDbEntity
  8
0
100
AcDbBlockBegin
  2
F18MF-1
 70
               0
 10
0.0
 20
0.0
 30
0.0
  3
F18MF-1
  1

  0
LINE
  5
27
100
AcDbEntity
  8
0
  6
CONTINUOUS
 62
               4
100
AcDbLine
 10
42.999984741210937
 20
-29.9339599609375
 30
0.0
 11
42.999984741210937
 21
9.3543300628662109
 31
0.0
  0
LINE
  5
28
100
AcDbEntity
  8
0
  6
CONTINUOUS
 62
               7
100
AcDbLine
 10
60.999984741210937
 20
-60.500015258789063
 30
0.0
 11
60.999984741210937
 21
-37.800014495849609
 31
0.0
  0
LINE
  5
29
100
AcDbEntity
  8
0
  6
CONTINUOUS
 62
             200
100
AcDbLine
 10
3.5
 20
-2.0
 30
0.0
 11
42.499983787536621
 21
-2.0000267028808594
 31
0.0
  0
LINE
  5
2A
100
AcDbEntity
  8
0
  6
CONTINUOUS
 62
             200
100
AcDbLine
 10
3.5
 20
-21.000015258789063
 30
0.0
 11
42.499982833862305
 21
-21.000026702880859
 31
0.0
  0
LINE
  5
2B
100
AcDbEntity
  8
0
  6
CONTINUOUS
 62
               7
100
AcDbLine
 10
41.999984741210938
 20
-60.500015258789063
 30
0.0
 11
41.999984741210938
 21
-34.645671844482422
 31
0.0
  0
LINE
  5
2C
100
AcDbEntity
  8
0
  6
CONTINUOUS
 62
               2
100
AcDbLine
 10
51.999984741210937
 20
16.42935848236084
 30
0.0
 11
51.999984741210937
 21
85.777215773150175
 31
0.0
  0
LINE
  5
2D
100
AcDbEntity
  8
0
  6
CONTINUOUS
 62
               2
100
AcDbLine
 10
32.999984741210938
 20
16.42935848236084
 30
0.0
 11
32.999984741210938
 21
85.777215773150175
 31
0.0
  0
LINE
  5
2E
100
AcDbEntity
  8
0
  6
CONTINUOUS
 62
               2
100
AcDbLine
 10
14.0
 20
16.42935848236084
 30
0.0
 11
14.0
 21
85.777215773150175
 31
0.0
  0
LINE
  5
2F
100
AcDbEntity
  8
0
  6
CONTINUOUS
 62
               7
100
AcDbLine
 10
9.0
 20
38.5
 30
0.0
 11
9.0
 21
27.5
 31
0.0
  0
LINE
  5
30
100
AcDbEntity
  8
0
  6
CONTINUOUS
 62
               7
100
AcDbLine
 10
19.0
 20
38.5
 30
0.0
 11
19.0
 21
27.5
 31
0.0
  0
LINE
  5
31
100
AcDbEntity
  8
0
  6
CONTINUOUS
 62
               7
100
AcDbLine
 10
27.999984741210937
 20
38.499984741210937
 30
0.0
 11
27.999984741210937
 21
27.499984741210938
 31
0.0
  0
LINE
  5
32
100
AcDbEntity
  8
0
  6
CONTINUOUS
 62
               7
100
AcDbLine
 10
37.999984741210937
 20
38.499984741210937
 30
0.0
 11
37.999984741210937
 21
27.499984741210938
 31
0.0
  0
LINE
  5
33
100
AcDbEntity
  8
0
  6
CONTINUOUS
 62
               7
100
AcDbLine
 10
46.999984741210937
 20
38.499984741210937
 30
0.0
 11
46.999984741210937
 21
27.499984741210938
 31
0.0
  0
LINE
  5
34
100
AcDbEntity
  8
0
  6
CONTINUOUS
 62
               7
100
AcDbLine
 10
56.999984741210937
 20
38.499984741210937
 30
0.0
 11
56.999984741210937
 21
27.499984741210938
 31
0.0
  0
LINE
  5
35
100
AcDbEntity
  8
0
  6
CONTINUOUS
 62
               7
100
AcDbLine
 10
60.999984741210937
 20
24.999984741210937
 30
0.0
 11
60.999984741210937
 21
14.999984741210938
 31
0.0
  0
LINE
  5
36
100
AcDbEntity
  8
0
  6
CONTINUOUS
 62
               7
100
AcDbLine
 10
42.999984741210937
 20
24.999984741210937
 30
0.0
 11
42.999984741210937
 21
14.999984741210938
 31
0.0
  0
LINE
  5
37
100
AcDbEntity
  8
0
  6
CONTINUOUS
 62
               7
100
AcDbLine
 10
41.999930232304877
 20
24.999984741210937
 30
0.0
 11
41.999930232304877
 21
14.999984741210938
 31
0.0
  0
LINE
  5
38
100
AcDbEntity
  8
0
  6
CONTINUOUS
 62
               7
100
AcDbLine
 10
23.999984741210937
 20
14.999984741210938
 30
0.0
 11
41.999984741210938
 21
14.999984741210938
 31
0.0
  0
LINE
  5
39
100
AcDbEntity
  8
0
  6
CONTINUOUS
 62
               7
100
AcDbLine
 10
23.999984741210937
 20
-38.0
 30
0.0
 11
41.999984741210938
 21
-38.0
 31
0.0
  0
LINE
  5
3A
100
AcDbEntity
  8
0
  6
CONTINUOUS
 62
               7
100
AcDbLine
 10
23.999984741210937
 20
-50.0
 30
0.0
 11
41.999984741210938
 21
-50.0
 31
0.0
  0
LINE
  5
3B
100
AcDbEntity
  8
0
  6
CONTINUOUS
 62
               7
100
AcDbLine
 10
24.499984741210938
 20
-61.0
 30
0.0
 11
41.499984741210938
 21
-61.0
 31
0.0
  0
LINE
  5
3C
100
AcDbEntity
  8
0
  6
CONTINUOUS
 62
               7
100
AcDbLine
 10
27.999984741210937
 20
28.999984741210938
 30
0.0
 11
37.999984741210937
 21
28.999984741210938
 31
0.0
  0
LINE
  5
3D
100
AcDbEntity
  8
0
  6
CONTINUOUS
 62
               2
100
AcDbLine
 10
30.499984741210937
 20
35.199981689453125
 30
0.0
 11
35.499984741210938
 21
35.199981689453125
 31
0.0
  0
LINE
  5
3E
100
AcDbEntity
  8
0
  6
CONTINUOUS
 62
               4
100
AcDbLine
 10
28.0
 20
62.5
 30
0.0
 11
38.0
 21
62.5
 31
0.0
  0
LINE
  5
3F
100
AcDbEntity
  8
0
  6
CONTINUOUS
 62
               4
100
AcDbLine
 10
27.999984741210937
 20
38.499984741210937
 30
0.0
 11
37.999984741210937
 21
38.499984741210937
 31
0.0
  0
LINE
  5
40
100
AcDbEntity
  8
0
  6
CONTINUOUS
 62
               7
100
AcDbLine
 10
31.073196411132812
 20
34.899978637695313
 30
0.0
 11
34.926773071289063
 21
34.899978637695313
 31
0.0
  0
LINE
  5
41
100
AcDbEntity
  8
0
  6
CONTINUOUS
 62
               7
100
AcDbLine
 10
31.073196411132812
 20
35.499984741210938
 30
0.0
 11
34.926773071289063
 21
35.499984741210938
 31
0.0
  0
LINE
  5
42
100
AcDbEntity
  8
0
  6
CONTINUOUS
 62
               4
100
AcDbLine
 10
28.04998779296875
 20
62.499984741210938
 30
0.0
 11
28.04998779296875
 21
75.999984741210938
 31
0.0
  0
LINE
  5
43
100
AcDbEntity
  8
0
  6
CONTINUOUS
 62
               4
100
AcDbLine
 10
37.5
 20
71.5
 30
0.0
 11
28.5
 21
71.5
 31
0.0
  0
LINE
  5
44
100
AcDbEntity
  8
0
  6
CONTINUOUS
 62
             200
100
AcDbLine
 10
37.949981689453125
 20
67.0
 30
0.0
 11
28.04998779296875
 21
67.0
 31
0.0
  0
LINE
  5
45
100
AcDbEntity
  8
0
  6
CONTINUOUS
 62
               4
100
AcDbLine
 10
37.949981689453125
 20
62.499984741210938
 30
0.0
 11
37.949981689453125
 21
75.999984741210938
 31
0.0
  0
LINE
  5
46
100
AcDbEntity
  8
0
  6
CONTINUOUS
 62
               4
100
AcDbLine
 10
34.28497314453125
 20
82.499984741210937
 30
0.0
 11
34.28497314453125
 21
86.32666015625
 31
0.0
  0
LINE
  5
47
100
AcDbEntity
  8
0
  6
CONTINUOUS
 62
               4
100
AcDbLine
 10
35.714996337890625
 20
82.499984741210937
 30
0.0
 11
35.714996337890625
 21
86.709823608398438
 31
0.0
  0
LINE
  5
48
100
AcDbEntity
  8
0
  6
CONTINUOUS
 62
               4
100
AcDbLine
 10
34.5999755859375
 20
90.499984741210937
 30
0.0
 11
34.5999755859375
 21
95.499984741210938
 31
0.0
  0
LINE
  5
49
100
AcDbEntity
  8
0
  6
CONTINUOUS
 62
               4
100
AcDbLine
 10
35.399993896484375
 20
90.499984741210937
 30
0.0
 11
35.399993896484375
 21
95.499984741210938
 31
0.0
  0
LINE
  5
4A
100
AcDbEntity
  8
0
  6
CONTINUOUS
 62
               4
100
AcDbLine
 10
34.5999755859375
 20
95.499984741210938
 30
0.0
 11
35.399978637695312
 21
95.499984741210938
 31
0.0
  0
LINE
  5
4B
100
AcDbEntity
  8
0
  6
CONTINUOUS
 62
               4
100
AcDbLine
 10
34.28497314453125
 20
90.499984741210937
 30
0.0
 11
35.714981079101563
 21
90.499984741210937
 31
0.0
  0
LINE
  5
4C
100
AcDbEntity
  8
0
  6
CONTINUOUS
 62
               4
100
AcDbLine
 10
34.28497314453125
 20
87.361923217773438
 30
0.0
 11
34.28497314453125
 21
90.499984741210937
 31
0.0
  0
LINE
  5
4D
100
AcDbEntity
  8
0
  6
CONTINUOUS
 62
               4
100
AcDbLine
 10
35.714996337890625
 20
87.745101928710937
 30
0.0
 11
35.714996337890625
 21
90.499984741210937
 31
0.0
  0
LINE
  5
4E
100
AcDbEntity
  8
0
  6
CONTINUOUS
 62
               4
100
AcDbLine
 10
28.04998779296875
 20
75.999984741210938
 30
0.0
 11
29.5
 21
75.999984741210938
 31
0.0
  0
LINE
  5
4F
100
AcDbEntity
  8
0
  6
CONTINUOUS
 62
               4
100
AcDbLine
 10
28.949981689453125
 20
71.499984741210938
 30
0.0
 11
28.949981689453125
 21
73.999984741210937
 31
0.0
  0
LINE
  5
50
100
AcDbEntity
  8
0
  6
CONTINUOUS
 62
               4
100
AcDbLine
 10
37.04998779296875
 20
71.499984741210938
 30
0.0
 11
37.04998779296875
 21
73.999984741210937
 31
0.0
  0
LINE
  5
51
100
AcDbEntity
  8
0
  6
CONTINUOUS
 62
               4
100
AcDbLine
 10
36.499984741210937
 20
71.998458862304688
 30
0.0
 11
36.499984741210937
 21
82.499984741210937
 31
0.0
  0
LINE
  5
52
100
AcDbEntity
  8
0
  6
CONTINUOUS
 62
               4
100
AcDbLine
 10
29.499984741210938
 20
71.998458862304688
 30
0.0
 11
29.499984741210938
 21
82.499984741210937
 31
0.0
  0
LINE
  5
53
100
AcDbEntity
  8
0
  6
CONTINUOUS
 62
               4
100
AcDbLine
 10
29.5
 20
71.998458862304688
 30
0.0
 11
36.5
 21
71.998458862304688
 31
0.0
  0
LINE
  5
54
100
AcDbEntity
  8
0
  6
CONTINUOUS
 62
               4
100
AcDbLine
 10
29.5
 20
75.556137084960938
 30
0.0
 11
36.5
 21
75.556137084960938
 31
0.0
  0
LINE
  5
55
100
AcDbEntity
  8
0
  6
CONTINUOUS
 62
               4
100
AcDbLine
 10
29.5
 20
80.999984741210937
 30
0.0
 11
36.5
 21
80.999984741210937
 31
0.0
  0
LINE
  5
56
100
AcDbEntity
  8
0
  6
CONTINUOUS
 62
               4
100
AcDbLine
 10
28.099990844726563
 20
82.499984741210937
 30
0.0
 11
37.899993896484375
 21
82.499984741210937
 31
0.0
  0
LINE
  5
57
100
AcDbEntity
  8
0
  6
CONTINUOUS
 62
               4
100
AcDbLine
 10
36.5
 20
75.999984741210938
 30
0.0
 11
37.949981689453125
 21
75.999984741210938
 31
0.0
  0
LINE
  5
58
100
AcDbEntity
  8
0
  6
CONTINUOUS
 62
               4
100
AcDbLine
 10
36.5
 20
74.999984741210938
 30
0.0
 11
37.04998779296875
 21
74.999984741210938
 31
0.0
  0
LINE
  5
59
100
AcDbEntity
  8
0
  6
CONTINUOUS
 62
               4
100
AcDbLine
 10
36.5
 20
73.999984741210937
 30
0.0
 11
37.04998779296875
 21
73.999984741210937
 31
0.0
  0
LINE
  5
5A
100
AcDbEntity
  8
0
  6
CONTINUOUS
 62
               4
100
AcDbLine
 10
28.949981689453125
 20
74.999984741210938
 30
0.0
 11
29.5
 21
74.999984741210938
 31
0.0
  0
LINE
  5
5B
100
AcDbEntity
  8
0
  6
CONTINUOUS
 62
               4
100
AcDbLine
 10
28.949981689453125
 20
73.999984741210937
 30
0.0
 11
29.5
 21
73.999984741210937
 31
0.0
  0
LINE
  5
5C
100
AcDbEntity
  8
0
  6
CONTINUOUS
 62
               4
100
AcDbLine
 10
28.949981689453125
 20
74.999984741210938
 30
0.0
 11
28.949981689453125
 21
75.999984741210938
 31
0.0
  0
LINE
  5
5D
100
AcDbEntity
  8
0
  6
CONTINUOUS
 62
               4
100
AcDbLine
 10
37.04998779296875
 20
74.999984741210938
 30
0.0
 11
37.04998779296875
 21
75.999984741210938
 31
0.0
  0
LINE
  5
5E
100
AcDbEntity
  8
0
  6
CONTINUOUS
 62
               4
100
AcDbLine
 10
31.714996337890625
 20
86.673309326171875
 30
0.0
 11
31.714996337890625
 21
90.499984741210937
 31
0.0
  0
LINE
  5
5F
100
AcDbEntity
  8
0
  6
CONTINUOUS
 62
               4
100
AcDbLine
 10
30.28497314453125
 20
86.290130615234375
 30
0.0
 11
30.28497314453125
 21
90.499984741210937
 31
0.0
  0
LINE
  5
60
100
AcDbEntity
  8
0
  6
CONTINUOUS
 62
               4
100
AcDbLine
 10
30.28497314453125
 20
90.499984741210937
 30
0.0
 11
31.714981079101563
 21
90.499984741210937
 31
0.0
  0
LINE
  5
61
100
AcDbEntity
  8
0
  6
CONTINUOUS
 62
               4
100
AcDbLine
 10
31.399993896484375
 20
90.499984741210937
 30
0.0
 11
31.399993896484375
 21
95.499984741210938
 31
0.0
  0
LINE
  5
62
100
AcDbEntity
  8
0
  6
CONTINUOUS
 62
               4
100
AcDbLine
 10
30.5999755859375
 20
90.499984741210937
 30
0.0
 11
30.5999755859375
 21
95.499984741210938
 31
0.0
  0
LINE
  5
63
100
AcDbEntity
  8
0
  6
CONTINUOUS
 62
               4
100
AcDbLine
 10
30.5999755859375
 20
95.499984741210938
 30
0.0
 11
31.399978637695313
 21
95.499984741210938
 31
0.0
  0
LINE
  5
64
100
AcDbEntity
  8
0
  6
CONTINUOUS
 62
               4
100
AcDbLine
 10
31.714996337890625
 20
82.499984741210937
 30
0.0
 11
31.714996337890625
 21
85.638031005859375
 31
0.0
  0
LINE
  5
65
100
AcDbEntity
  8
0
  6
CONTINUOUS
 62
               4
100
AcDbLine
 10
30.28497314453125
 20
82.499984741210937
 30
0.0
 11
30.28497314453125
 21
85.254852294921875
 31
0.0
  0
LINE
  5
66
100
AcDbEntity
  8
0
  6
CONTINUOUS
 62
               4
100
AcDbLine
 10
37.999984741210937
 20
38.499984741210937
 30
0.0
 11
37.999984741210937
 21
62.499984741210938
 31
0.0
  0
LINE
  5
67
100
AcDbEntity
  8
0
  6
CONTINUOUS
 62
               4
100
AcDbLine
 10
27.999984741210937
 20
38.499984741210937
 30
0.0
 11
27.999984741210937
 21
62.499984741210938
 31
0.0
  0
LINE
  5
68
100
AcDbEntity
  8
0
  6
CONTINUOUS
 62
               4
100
AcDbLine
 10
37.899993896484375
 20
75.999984741210938
 30
0.0
 11
37.899993896484375
 21
82.499984741210937
 31
0.0
  0
LINE
  5
69
100
AcDbEntity
  8
0
  6
CONTINUOUS
 62
               4
100
AcDbLine
 10
28.099990844726563
 20
75.999984741210938
 30
0.0
 11
28.099990844726563
 21
82.499984741210937
 31
0.0
  0
LINE
  5
6A
100
AcDbEntity
  8
0
  6
CONTINUOUS
 62
               4
100
AcDbLine
 10
28.999984741210938
 20
75.999984741210938
 30
0.0
 11
28.999984741210938
 21
82.499984741210937
 31
0.0
  0
LINE
  5
6B
100
AcDbEntity
  8
0
  6
CONTINUOUS
 62
               4
100
AcDbLine
 10
36.999984741210938
 20
75.999984741210938
 30
0.0
 11
36.999984741210938
 21
82.499984741210937
 31
0.0
  0
LINE
  5
6C
100
AcDbEntity
  8
0
  6
CONTINUOUS
 62
               7
100
AcDbLine
 10
23.999984741210937
 20
24.999984741210937
 30
0.0
 11
41.999984741210938
 21
24.999984741210937
 31
0.0
  0
LINE
  5
6D
100
AcDbEntity
  8
0
  6
CONTINUOUS
 62
               7
100
AcDbLine
 10
23.999984741210937
 20
-60.5
 30
0.0
 11
23.999984741210937
 21
-33.066009521484375
 31
0.0
  0
LINE
  5
6E
100
AcDbEntity
  8
0
  6
CONTINUOUS
 62
               7
100
AcDbLine
 10
25.439339831937332
 20
-32.56065767781547
 30
0.0
 11
27.560660318006057
 21
-30.439337370560679
 31
0.0
  0
LINE
  5
6F
100
AcDbEntity
  8
0
  6
CONTINUOUS
 62
               7
100
AcDbLine
 10
25.439353408337411
 20
-30.439307609772186
 30
0.0
 11
27.560673715592202
 21
-32.560628095840912
 31
0.0
  0
LINE
  5
70
100
AcDbEntity
  8
0
  6
CONTINUOUS
 62
               4
100
AcDbLine
 10
38.439338333293904
 20
7.4393171400729443
 30
0.0
 11
40.560658819362629
 21
9.5606374473277356
 31
0.0
  0
LINE
  5
71
100
AcDbEntity
  8
0
  6
CONTINUOUS
 62
               4
100
AcDbLine
 10
38.439347863595685
 20
9.5606496750269798
 30
0.0
 11
40.560668170850477
 21
7.4393291889582542
 31
0.0
  0
LINE
  5
72
100
AcDbEntity
  8
0
  6
CONTINUOUS
 62
               4
100
AcDbLine
 10
23.999984741210937
 20
-29.9339599609375
 30
0.0
 11
23.999984741210937
 21
9.239044189453125
 31
0.0
  0
LINE
  5
73
100
AcDbEntity
  8
0
  6
CONTINUOUS
 62
               4
100
AcDbLine
 10
41.999984741210938
 20
11.499973297119141
 30
0.0
 11
41.999984741210938
 21
14.799971580505371
 31
0.0
  0
LINE
  5
74
100
AcDbEntity
  8
0
  6
CONTINUOUS
 62
               7
100
AcDbLine
 10
23.999984741210937
 20
11.760955810546875
 30
0.0
 11
23.999984741210937
 21
24.999984741210937
 31
0.0
  0
LINE
  5
75
100
AcDbEntity
  8
0
  6
CONTINUOUS
 62
               2
100
AcDbLine
 10
30.383316040039063
 20
-46.0
 30
0.0
 11
35.616653442382813
 21
-46.0
 31
0.0
  0
LINE
  5
76
100
AcDbEntity
  8
0
  6
CONTINUOUS
 62
               7
100
AcDbLine
 10
31.073196411132812
 20
-46.300003051757813
 30
0.0
 11
34.926773071289063
 21
-46.300003051757813
 31
0.0
  0
LINE
  5
77
100
AcDbEntity
  8
0
  6
CONTINUOUS
 62
               7
100
AcDbLine
 10
31.073196411132812
 20
-45.70001220703125
 30
0.0
 11
34.926773071289063
 21
-45.70001220703125
 31
0.0
  0
LINE
  5
78
100
AcDbEntity
  8
0
  6
CONTINUOUS
 62
               7
100
AcDbLine
 10
23.999984741210937
 20
-47.0
 30
0.0
 11
26.999984741210938
 21
-47.0
 31
0.0
  0
LINE
  5
79
100
AcDbEntity
  8
0
  6
CONTINUOUS
 62
               7
100
AcDbLine
 10
23.999984741210937
 20
-41.0
 30
0.0
 11
26.999984741210938
 21
-41.0
 31
0.0
  0
LINE
  5
7A
100
AcDbEntity
  8
0
  6
CONTINUOUS
 62
               7
100
AcDbLine
 10
26.499984741210938
 20
-50.0
 30
0.0
 11
26.499984741210938
 21
-47.0
 31
0.0
  0
LINE
  5
7B
100
AcDbEntity
  8
0
  6
CONTINUOUS
 62
               7
100
AcDbLine
 10
39.499984741210938
 20
-50.000015258789062
 30
0.0
 11
39.499984741210938
 21
-47.000015258789063
 31
0.0
  0
LINE
  5
7C
100
AcDbEntity
  8
0
  6
CONTINUOUS
 62
               7
100
AcDbLine
 10
38.999984741210938
 20
-47.0
 30
0.0
 11
41.999984741210938
 21
-47.0
 31
0.0
  0
LINE
  5
7D
100
AcDbEntity
  8
0
  6
CONTINUOUS
 62
               7
100
AcDbLine
 10
38.999984741210938
 20
-41.0
 30
0.0
 11
41.999984741210938
 21
-41.0
 31
0.0
  0
LINE
  5
7E
100
AcDbEntity
  8
0
  6
CONTINUOUS
 62
               7
100
AcDbLine
 10
39.499984741210938
 20
-41.000015258789063
 30
0.0
 11
39.499984741210938
 21
-38.000015258789062
 31
0.0
  0
LINE
  5
7F
100
AcDbEntity
  8
0
  6
CONTINUOUS
 62
               7
100
AcDbLine
 10
26.499984741210938
 20
-41.0
 30
0.0
 11
26.499984741210938
 21
-38.0
 31
0.0
  0
LINE
  5
80
100
AcDbEntity
  8
0
  6
CONTINUOUS
 62
               7
100
AcDbLine
 10
30.499979019165039
 20
-46.0
 30
0.0
 11
29.499979019165039
 21
-46.0
 31
0.0
  0
LINE
  5
81
100
AcDbEntity
  8
0
  6
CONTINUOUS
 62
               7
100
AcDbLine
 10
32.999985662285326
 20
-42.5
 30
0.0
 11
32.999985662285326
 21
-43.5
 31
0.0
  0
LINE
  5
82
100
AcDbEntity
  8
0
  6
CONTINUOUS
 62
               7
100
AcDbLine
 10
32.999981913711053
 20
-42.999997835139766
 30
0.0
 11
31.999982686013652
 21
-42.732048707451838
 31
0.0
  0
LINE
  5
83
100
AcDbEntity
  8
0
  6
CONTINUOUS
 62
               7
100
AcDbLine
 10
25.999985694885254
 20
27.499984741210938
 30
0.0
 11
39.999981880187988
 21
27.499984741210938
 31
0.0
  0
LINE
  5
84
100
AcDbEntity
  8
0
  6
CONTINUOUS
 62
               7
100
AcDbLine
 10
24.000038358181882
 20
24.999976784274622
 30
0.0
 11
25.999991906933246
 21
27.499983076464559
 31
0.0
  0
LINE
  5
85
100
AcDbEntity
  8
0
  6
CONTINUOUS
 62
               7
100
AcDbLine
 10
41.999931183789158
 20
24.999983551825608
 30
0.0
 11
39.999986403675393
 21
27.499977547132403
 31
0.0
  0
LINE
  5
86
100
AcDbEntity
  8
0
  6
CONTINUOUS
 62
               7
100
AcDbLine
 10
35.499984741210938
 20
35.199996948242187
 30
0.0
 11
36.499984741210937
 21
35.199996948242187
 31
0.0
  0
LINE
  5
87
100
AcDbEntity
  8
0
  6
CONTINUOUS
 62
               7
100
AcDbLine
 10
32.999984741210938
 20
31.699996948242187
 30
0.0
 11
32.999984741210938
 21
32.699996948242188
 31
0.0
  0
LINE
  5
88
100
AcDbEntity
  8
0
  6
CONTINUOUS
 62
               7
100
AcDbLine
 10
32.999982138742666
 20
32.199996816436283
 30
0.0
 11
33.999981428147294
 21
31.932047873870033
 31
0.0
  0
ARC
  5
89
100
AcDbEntity
  8
0
  6
CONTINUOUS
 62
               4
100
AcDbCircle
 10
39.499984741210938
 20
8.5
 30
0.0
 40
3.0
100
AcDbArc
 50
89.999982013910454
 51
269.99994604173139
  0
ARC
  5
8A
100
AcDbEntity
  8
0
  6
CONTINUOUS
 62
               4
100
AcDbCircle
 10
26.499984741210938
 20
-31.499984741210938
 30
0.0
 40
3.0
100
AcDbArc
 50
269.99996334457541
 51
89.999982013910454
  0
ARC
  5
8B
100
AcDbEntity
  8
0
  6
CONTINUOUS
 62
               7
100
AcDbCircle
 10
41.499984741210938
 20
-60.5
 30
0.0
 40
0.5
100
AcDbArc
 50
270.00001798608872
 51
0.00001366037834
  0
ARC
  5
8C
100
AcDbEntity
  8
0
  6
CONTINUOUS
 62
               7
100
AcDbCircle
 10
24.499984741210938
 20
-60.5
 30
0.0
 40
0.5
100
AcDbArc
 50
180.0000359721783
 51
269.99996334457541
  0
ARC
  5
8D
100
AcDbEntity
  8
0
  6
CONTINUOUS
 62
               7
100
AcDbCircle
 10
39.000030517578125
 20
28.000045776367188
 30
0.0
 40
2.5000734329223633
100
AcDbArc
 50
191.53802865027069
 51
319.45890333229545
  0
CIRCLE
  5
8E
100
AcDbEntity
  8
0
  6
CONTINUOUS
 62
               7
100
AcDbCircle
 10
32.999984741210938
 20
35.199996948242187
 30
0.0
 40
2.0
  0
CIRCLE
  5
8F
100
AcDbEntity
  8
0
  6
CONTINUOUS
 62
               7
100
AcDbCircle
 10
32.999984741210938
 20
35.199996948242187
 30
0.0
 40
1.9499998092651367
  0
ARC
  5
90
100
AcDbEntity
  8
0
  6
CONTINUOUS
 62
               4
100
AcDbCircle
 10
37.449981689453125
 20
71.0
 30
0.0
 40
0.5
100
AcDbArc
 50
359.99994535848583
 51
89.999982013910454
  0
ARC
  5
91
100
AcDbEntity
  8
0
  6
CONTINUOUS
 62
               4
100
AcDbCircle
 10
28.54998779296875
 20
71.0
 30
0.0
 40
0.5
100
AcDbArc
 50
89.999982013910454
 51
179.99996402782091
  0
CIRCLE
  5
92
100
AcDbEntity
  8
0
  6
CONTINUOUS
 62
               7
100
AcDbCircle
 10
26.5
 20
-31.499984741210938
 30
0.0
 40
2.7999992370605469
  0
CIRCLE
  5
93
100
AcDbEntity
  8
0
  6
CONTINUOUS
 62
               4
100
AcDbCircle
 10
39.499984741210938
 20
8.4999847412109375
 30
0.0
 40
2.7999992370605469
  0
CIRCLE
  5
94
100
AcDbEntity
  8
0
  6
CONTINUOUS
 62
               7
100
AcDbCircle
 10
32.999984741210938
 20
-46.0
 30
0.0
 40
2.0
  0
CIRCLE
  5
95
100
AcDbEntity
  8
0
  6
CONTINUOUS
 62
               7
100
AcDbCircle
 10
32.999984741210938
 20
-46.0
 30
0.0
 40
1.9499998092651367
  0
ARC
  5
96
100
AcDbEntity
  8
0
  6
CONTINUOUS
 62
               7
100
AcDbCircle
 10
32.899978637695313
 20
-46.0
 30
0.0
 40
3.0
100
AcDbArc
 50
88.08976934835465
 51
179.99996402782091
  0
ARC
  5
97
100
AcDbEntity
  8
0
  6
CONTINUOUS
 62
               7
100
AcDbCircle
 10
32.99997861078009
 20
-46.0
 30
0.0
 40
3.0
100
AcDbArc
 50
86.177425663777811
 51
183.82257501946691
  0
ARC
  5
98
100
AcDbEntity
  8
0
  6
CONTINUOUS
 62
               7
100
AcDbCircle
 10
33.099978566169739
 20
-46.0
 30
0.0
 40
3.0
100
AcDbArc
 50
91.910194679466258
 51
179.99996402782091
  0
CIRCLE
  5
99
100
AcDbEntity
  8
0
  6
CONTINUOUS
 62
               7
100
AcDbCircle
 10
39.499984741210938
 20
8.4999847412109375
 30
0.0
 40
2.9499998092651367
  0
CIRCLE
  5
9A
100
AcDbEntity
  8
0
  6
CONTINUOUS
 62
               7
100
AcDbCircle
 10
26.5
 20
-31.499984741210938
 30
0.0
 40
2.9499998092651367
  0
ARC
  5
9B
100
AcDbEntity
  8
0
  6
CONTINUOUS
 62
               7
100
AcDbCircle
 10
32.899984776973724
 20
35.199996948242187
 30
0.0
 40
3.0
100
AcDbArc
 50
271.91023065164455
 51
0.0
  0
ARC
  5
9C
100
AcDbEntity
  8
0
  6
CONTINUOUS
 62
               7
100
AcDbCircle
 10
33.099984705448151
 20
35.199996948242187
 30
0.0
 40
3.0
100
AcDbArc
 50
268.089805320533
 51
0.0
  0
ARC
  5
9D
100
AcDbEntity
  8
0
  6
CONTINUOUS
 62
               7
100
AcDbCircle
 10
32.999984741210938
 20
35.199996948242187
 30
0.0
 40
3.0
100
AcDbArc
 50
266.17746163595609
 51
3.822566595416411
  0
LINE
  5
9E
100
AcDbEntity
  8
0
  6
CONTINUOUS
 62
             200
100
AcDbLine
 10
28.999987348672221
 20
84.91054331918167
 30
0.0
 11
36.999989033338352
 21
87.054137328002071
 31
0.0
  0
LINE
  5
9F
100
AcDbEntity
  8
0
  6
CONTINUOUS
 62
             200
100
AcDbLine
 10
28.999982655490385
 20
85.945818228678036
 30
0.0
 11
36.999984340156516
 21
88.089412237498436
 31
0.0
  0
LINE
  5
A0
100
AcDbEntity
  8
0
  6
CONTINUOUS
 62
               7
100
AcDbLine
 10
23.999984741210937
 20
-37.800014495849609
 30
0.0
 11
23.999984741210937
 21
-34.500026702880859
 31
0.0
  0
LINE
  5
A1
100
AcDbEntity
  8
0
  6
CONTINUOUS
 62
               4
100
AcDbLine
 10
23.999985694885254
 20
14.799972534179688
 30
0.0
 11
41.999984741210938
 21
14.799972534179688
 31
0.0
  0
LINE
  5
A2
100
AcDbEntity
  8
0
  6
CONTINUOUS
 62
               4
100
AcDbLine
 10
23.999981880187988
 20
-37.800014495849609
 30
0.0
 11
41.999980926513672
 21
-37.800014495849609
 31
0.0
  0
LINE
  5
A3
100
AcDbEntity
  8
0
  6
CONTINUOUS
 62
               2
100
AcDbLine
 10
32.999984741210938
 20
-39.385585784912109
 30
0.0
 11
32.999984741210938
 21
16.42935848236084
 31
0.0
  0
LINE
  5
A4
100
AcDbEntity
  8
0
  6
CONTINUOUS
 62
               4
100
AcDbLine
 10
39.499981880187988
 20
-30.500026702880859
 30
0.0
 11
41.999981880187988
 21
-30.500026702880859
 31
0.0
  0
LINE
  5
A5
100
AcDbEntity
  8
0
  6
CONTINUOUS
 62
               4
100
AcDbLine
 10
36.499984741210937
 20
-37.800014495849609
 30
0.0
 11
36.499984741210937
 21
-33.500026702880859
 31
0.0
  0
LINE
  5
A6
100
AcDbEntity
  8
0
  6
CONTINUOUS
 62
               4
100
AcDbLine
 10
29.499984741210938
 20
10.499973070625458
 30
0.0
 11
29.499984741210938
 21
14.799972534179688
 31
0.0
  0
LINE
  5
A7
100
AcDbEntity
  8
0
  6
CONTINUOUS
 62
               4
100
AcDbLine
 10
23.999984741210937
 20
7.4999732971191406
 30
0.0
 11
26.499984514717255
 21
7.4999732971191406
 31
0.0
  0
LINE
  5
A8
100
AcDbEntity
  8
0
  6
CONTINUOUS
 62
               4
100
AcDbLine
 10
40.560642801027825
 20
-34.560683295483614
 30
0.0
 11
38.439322672586968
 21
-32.439362630600954
 31
0.0
  0
LINE
  5
A9
100
AcDbEntity
  8
0
  6
CONTINUOUS
 62
               4
100
AcDbLine
 10
27.560642918000724
 20
9.4393110772476376
 30
0.0
 11
25.439322789559867
 21
11.560631742130298
 31
0.0
  0
LINE
  5
AA
100
AcDbEntity
  8
0
  6
CONTINUOUS
 62
               4
100
AcDbLine
 10
25.439324699325823
 20
9.4393129423424824
 30
0.0
 11
27.560645185394549
 21
11.560633249597274
 31
0.0
  0
LINE
  5
AB
100
AcDbEntity
  8
0
  6
CONTINUOUS
 62
               4
100
AcDbLine
 10
38.439326202695156
 20
-34.560682020851345
 30
0.0
 11
40.560646688763882
 21
-32.439361713596554
 31
0.0
  0
LINE
  5
AC
100
AcDbEntity
  8
0
  6
CONTINUOUS
 62
               4
100
AcDbLine
 10
41.999984741210938
 20
-32.354381561279297
 30
0.0
 11
41.999984741210938
 21
5.4999723434448242
 31
0.0
  0
LINE
  5
AD
100
AcDbEntity
  8
0
  6
CONTINUOUS
 62
               7
100
AcDbLine
 10
23.999984741210937
 20
11.645617485046387
 30
0.0
 11
23.999984741210937
 21
14.799972534179688
 31
0.0
  0
LINE
  5
AE
100
AcDbEntity
  8
0
  6
CONTINUOUS
 62
               4
100
AcDbLine
 10
23.999981880187988
 20
-34.500026702880859
 30
0.0
 11
26.499981343805302
 21
-34.500026702880859
 31
0.0
  0
LINE
  5
AF
100
AcDbEntity
  8
0
  6
CONTINUOUS
 62
               4
100
AcDbLine
 10
23.999981880187988
 20
-28.500026702880859
 30
0.0
 11
26.499981796792781
 21
-28.500026702880859
 31
0.0
  0
LINE
  5
B0
100
AcDbEntity
  8
0
  6
CONTINUOUS
 62
               4
100
AcDbLine
 10
39.499984741210938
 20
5.4999732971191406
 30
0.0
 11
41.999984741210938
 21
5.4999732971191406
 31
0.0
  0
LINE
  5
B1
100
AcDbEntity
  8
0
  6
CONTINUOUS
 62
               4
100
AcDbLine
 10
39.499984741210938
 20
11.499973297119141
 30
0.0
 11
41.999984741210938
 21
11.499973297119141
 31
0.0
  0
LINE
  5
B2
100
AcDbEntity
  8
0
  6
CONTINUOUS
 62
               7
100
AcDbLine
 10
23.999984741210937
 20
-28.500026702880859
 30
0.0
 11
23.999984741210937
 21
9.3543300628662109
 31
0.0
  0
ARC
  5
B3
100
AcDbEntity
  8
0
  6
CONTINUOUS
 62
               4
100
AcDbCircle
 10
39.499981880187988
 20
-33.500026702880859
 30
0.0
 40
3.0
100
AcDbArc
 50
89.999982013910454
 51
179.99996402782091
  0
ARC
  5
B4
100
AcDbEntity
  8
0
  6
CONTINUOUS
 62
               4
100
AcDbCircle
 10
26.499984741210938
 20
10.499973297119141
 30
0.0
 40
3.0
100
AcDbArc
 50
270.00001798608872
 51
0.00001366037834
  0
CIRCLE
  5
B5
100
AcDbEntity
  8
0
  6
CONTINUOUS
 62
               4
100
AcDbCircle
 10
39.499981880187988
 20
-33.500026702880859
 30
0.0
 40
2.75
  0
CIRCLE
  5
B6
100
AcDbEntity
  8
0
  6
CONTINUOUS
 62
               4
100
AcDbCircle
 10
26.499984741210938
 20
10.499973297119141
 30
0.0
 40
2.75
  0
ARC
  5
B7
100
AcDbEntity
  8
0
  6
CONTINUOUS
 62
               7
100
AcDbCircle
 10
26.499981570299497
 20
-31.500026702880859
 30
0.0
 40
3.0
100
AcDbArc
 50
270.00001798608872
 51
89.999982013910454
  0
ARC
  5
B8
100
AcDbEntity
  8
0
  6
CONTINUOUS
 62
               7
100
AcDbCircle
 10
39.499984741210938
 20
8.4999723434448242
 30
0.0
 40
3.0
100
AcDbArc
 50
89.999982013910454
 51
269.99994604173139
  0
CIRCLE
  5
B9
100
AcDbEntity
  8
0
  6
CONTINUOUS
 62
               4
100
AcDbCircle
 10
32.999984741210923
 20
-2.0000267028808594
 30
0.0
 40
8.9499999999999993
  0
ARC
  5
BA
100
AcDbEntity
  8
0
  6
CONTINUOUS
 62
               4
100
AcDbCircle
 10
32.999984741210923
 20
-2.0000267028808594
 30
0.0
 40
8.4000000000000004
100
AcDbArc
 50
7.1848403149542479
 51
172.81515968504539
  0
ARC
  5
BB
100
AcDbEntity
  8
0
  6
CONTINUOUS
 62
               4
100
AcDbCircle
 10
32.999984741210923
 20
-2.0000267028808594
 30
0.0
 40
8.4000000000000004
100
AcDbArc
 50
187.18484031495382
 51
352.81515968504499
  0
CIRCLE
  5
BC
100
AcDbEntity
  8
0
  6
CONTINUOUS
 62
               4
100
AcDbCircle
 10
32.999984741210923
 20
-2.0000267028808594
 30
0.0
 40
5.0499999999999998
  0
CIRCLE
  5
BD
100
AcDbEntity
  8
0
  6
CONTINUOUS
 62
               4
100
AcDbCircle
 10
32.999984741210923
 20
-2.0000267028808594
 30
0.0
 40
4.0499999999999998
  0
CIRCLE
  5
BE
100
AcDbEntity
  8
0
  6
CONTINUOUS
 62
               4
100
AcDbCircle
 10
32.999984741210923
 20
-21.000026702880859
 30
0.0
 40
8.9499999999999993
  0
ARC
  5
BF
100
AcDbEntity
  8
0
  6
CONTINUOUS
 62
               4
100
AcDbCircle
 10
32.999984741210923
 20
-21.000026702880859
 30
0.0
 40
8.4000000000000004
100
AcDbArc
 50
7.1848403149542479
 51
172.81515968504539
  0
CIRCLE
  5
C0
100
AcDbEntity
  8
0
  6
CONTINUOUS
 62
               4
100
AcDbCircle
 10
32.999984741210923
 20
-21.000026702880859
 30
0.0
 40
5.0499999999999998
  0
CIRCLE
  5
C1
100
AcDbEntity
  8
0
  6
CONTINUOUS
 62
               4
100
AcDbCircle
 10
32.999984741210923
 20
-21.000026702880859
 30
0.0
 40
4.0499999999999998
  0
ARC
  5
C2
100
AcDbEntity
  8
0
  6
CONTINUOUS
 62
               4
100
AcDbCircle
 10
32.999984741210923
 20
-21.000026702880859
 30
0.0
 40
8.4000000000000004
100
AcDbArc
 50
187.18484031495382
 51
352.81515968504499
  0
LINE
  5
C3
100
AcDbEntity
  8
0
  6
CONTINUOUS
 62
               4
100
AcDbLine
 10
33.749984741210923
 20
-11.809814518170427
 30
0.0
 11
33.749984741210923
 21
-11.190238887591285
 31
0.0
  0
LINE
  5
C4
100
AcDbEntity
  8
0
  6
CONTINUOUS
 62
               4
100
AcDbLine
 10
32.249984741210923
 20
-11.809814518170427
 30
0.0
 11
32.249984741210923
 21
-11.190238887591285
 31
0.0
  0
ARC
  5
C5
100
AcDbEntity
  8
0
  6
CONTINUOUS
 62
               4
100
AcDbCircle
 10
31.949984741210926
 20
-11.190238887591285
 30
0.0
 40
0.3
100
AcDbArc
 50
0.0
 51
83.482105791022562
  0
ARC
  5
C6
100
AcDbEntity
  8
0
  6
CONTINUOUS
 62
               4
100
AcDbCircle
 10
31.949984741210926
 20
-11.809814518170427
 30
0.0
 40
0.3
100
AcDbArc
 50
276.5178942089774
 51
0.0
  0
ARC
  5
C7
100
AcDbEntity
  8
0
  6
CONTINUOUS
 62
               4
100
AcDbCircle
 10
34.04998474121092
 20
-11.190238887591285
 30
0.0
 40
0.3
100
AcDbArc
 50
96.517894208978376
 51
179.99999999999963
  0
ARC
  5
C8
100
AcDbEntity
  8
0
  6
CONTINUOUS
 62
               4
100
AcDbCircle
 10
34.04998474121092
 20
-11.809814518170427
 30
0.0
 40
0.3
100
AcDbArc
 50
179.99999999999963
 51
263.48210579102226
  0
LINE
  5
C9
100
AcDbEntity
  8
0
  6
CONTINUOUS
 62
               4
100
AcDbLine
 10
40.899984741210929
 20
-2.8000267028808565
 30
0.0
 11
41.334026496901402
 21
-3.0506208273682915
 31
0.0
  0
LINE
  5
CA
100
AcDbEntity
  8
0
  6
CONTINUOUS
 62
               4
100
AcDbLine
 10
40.899984741210929
 20
-1.2000267028808622
 30
0.0
 11
41.334026496901402
 21
-0.9494325783934272
 31
0.0
  0
LINE
  5
CB
100
AcDbEntity
  8
0
  6
CONTINUOUS
 62
               4
100
AcDbLine
 10
40.899984741210929
 20
-2.8000267028808565
 30
0.0
 11
40.899984741210929
 21
-1.200026708841321
 31
0.0
  0
LINE
  5
CC
100
AcDbEntity
  8
0
  6
CONTINUOUS
 62
               4
100
AcDbLine
 10
25.099984741210932
 20
-1.2000267028808622
 30
0.0
 11
24.665942985520445
 21
-0.9494325783934272
 31
0.0
  0
LINE
  5
CD
100
AcDbEntity
  8
0
  6
CONTINUOUS
 62
               4
100
AcDbLine
 10
25.099984741210932
 20
-2.8000267028808565
 30
0.0
 11
24.665942985520445
 21
-3.0506208273682915
 31
0.0
  0
LINE
  5
CE
100
AcDbEntity
  8
0
  6
CONTINUOUS
 62
               4
100
AcDbLine
 10
25.099984741210932
 20
-2.8000267028808565
 30
0.0
 11
25.099984741210932
 21
-1.200026708841321
 31
0.0
  0
LINE
  5
CF
100
AcDbEntity
  8
0
  6
CONTINUOUS
 62
               4
100
AcDbLine
 10
25.099984741210932
 20
-21.800026702880857
 30
0.0
 11
24.665942985520445
 21
-22.050620827368292
 31
0.0
  0
LINE
  5
D0
100
AcDbEntity
  8
0
  6
CONTINUOUS
 62
               4
100
AcDbLine
 10
25.099984741210932
 20
-20.200026702880855
 30
0.0
 11
24.665942985520445
 21
-19.949432578393427
 31
0.0
  0
LINE
  5
D1
100
AcDbEntity
  8
0
  6
CONTINUOUS
 62
               4
100
AcDbLine
 10
25.099984741210932
 20
-21.800026702880857
 30
0.0
 11
25.099984741210932
 21
-20.200026708841321
 31
0.0
  0
LINE
  5
D2
100
AcDbEntity
  8
0
  6
CONTINUOUS
 62
               7
100
AcDbLine
 10
40.899984741210929
 20
-21.800026702880857
 30
0.0
 11
41.334026496901402
 21
-22.050620827368292
 31
0.0
  0
LINE
  5
D3
100
AcDbEntity
  8
0
  6
CONTINUOUS
 62
               7
100
AcDbLine
 10
40.899984741210929
 20
-20.200026702880855
 30
0.0
 11
41.334026496901402
 21
-19.949432578393427
 31
0.0
  0
LINE
  5
D4
100
AcDbEntity
  8
0
  6
CONTINUOUS
 62
               7
100
AcDbLine
 10
40.899984741210929
 20
-21.800026702880857
 30
0.0
 11
40.899984741210929
 21
-20.200026708841321
 31
0.0
  0
LINE
  5
D5
100
AcDbEntity
  8
0
  6
CONTINUOUS
 62
               4
100
AcDbLine
 10
23.999984741210937
 20
6.1397192592747274
 30
0.0
 11
29.278824213691081
 21
6.1397192592747274
 31
0.0
  0
LINE
  5
D6
100
AcDbEntity
  8
0
  6
CONTINUOUS
 62
               4
100
AcDbLine
 10
36.72114527225493
 20
-29.139772665036446
 30
0.0
 11
41.999984741210923
 21
-29.139772665036446
 31
0.0
  0
LINE
  5
D7
100
AcDbEntity
  8
0
  6
CONTINUOUS
 62
               7
100
AcDbLine
 10
36.721145268730766
 20
6.1397192592747274
 30
0.0
 11
37.648198889680273
 21
6.1397192592747274
 31
0.0
  0
LINE
  5
D8
100
AcDbEntity
  8
0
  6
CONTINUOUS
 62
               7
100
AcDbLine
 10
28.351819213571133
 20
-29.139772665036446
 30
0.0
 11
29.278824210166931
 21
-29.139772665036446
 31
0.0
  0
LINE
  5
D9
100
AcDbEntity
  8
0
  6
CONTINUOUS
 62
               7
100
AcDbLine
 10
42.999984741210937
 20
14.999984741210938
 30
0.0
 11
60.999984741210937
 21
14.999984741210938
 31
0.0
  0
LINE
  5
DA
100
AcDbEntity
  8
0
  6
CONTINUOUS
 62
               7
100
AcDbLine
 10
42.999984741210937
 20
-38.0
 30
0.0
 11
60.999984741210937
 21
-38.0
 31
0.0
  0
LINE
  5
DB
100
AcDbEntity
  8
0
  6
CONTINUOUS
 62
               7
100
AcDbLine
 10
42.999984741210937
 20
-50.0
 30
0.0
 11
60.999984741210937
 21
-50.0
 31
0.0
  0
LINE
  5
DC
100
AcDbEntity
  8
0
  6
CONTINUOUS
 62
               7
100
AcDbLine
 10
43.499984741210938
 20
-61.0
 30
0.0
 11
60.499984741210937
 21
-61.0
 31
0.0
  0
LINE
  5
DD
100
AcDbEntity
  8
0
  6
CONTINUOUS
 62
               7
100
AcDbLine
 10
46.999984741210937
 20
28.999984741210938
 30
0.0
 11
56.999984741210937
 21
28.999984741210938
 31
0.0
  0
LINE
  5
DE
100
AcDbEntity
  8
0
  6
CONTINUOUS
 62
               2
100
AcDbLine
 10
49.499984741210938
 20
35.199981689453125
 30
0.0
 11
54.499984741210938
 21
35.199981689453125
 31
0.0
  0
LINE
  5
DF
100
AcDbEntity
  8
0
  6
CONTINUOUS
 62
               4
100
AcDbLine
 10
47.0
 20
62.5
 30
0.0
 11
57.0
 21
62.5
 31
0.0
  0
LINE
  5
E0
100
AcDbEntity
  8
0
  6
CONTINUOUS
 62
               4
100
AcDbLine
 10
46.999984741210937
 20
38.499984741210937
 30
0.0
 11
56.999984741210937
 21
38.499984741210937
 31
0.0
  0
LINE
  5
E1
100
AcDbEntity
  8
0
  6
CONTINUOUS
 62
               7
100
AcDbLine
 10
50.073196411132813
 20
34.899978637695313
 30
0.0
 11
53.926773071289062
 21
34.899978637695313
 31
0.0
  0
LINE
  5
E2
100
AcDbEntity
  8
0
  6
CONTINUOUS
 62
               7
100
AcDbLine
 10
50.073196411132813
 20
35.499984741210938
 30
0.0
 11
53.926773071289062
 21
35.499984741210938
 31
0.0
  0
LINE
  5
E3
100
AcDbEntity
  8
0
  6
CONTINUOUS
 62
               4
100
AcDbLine
 10
47.04998779296875
 20
62.499984741210938
 30
0.0
 11
47.04998779296875
 21
75.999984741210938
 31
0.0
  0
LINE
  5
E4
100
AcDbEntity
  8
0
  6
CONTINUOUS
 62
               4
100
AcDbLine
 10
56.5
 20
71.5
 30
0.0
 11
47.5
 21
71.5
 31
0.0
  0
LINE
  5
E5
100
AcDbEntity
  8
0
  6
CONTINUOUS
 62
             200
100
AcDbLine
 10
56.949981689453125
 20
67.0
 30
0.0
 11
47.04998779296875
 21
67.0
 31
0.0
  0
LINE
  5
E6
100
AcDbEntity
  8
0
  6
CONTINUOUS
 62
               4
100
AcDbLine
 10
56.949981689453125
 20
62.499984741210938
 30
0.0
 11
56.949981689453125
 21
75.999984741210938
 31
0.0
  0
LINE
  5
E7
100
AcDbEntity
  8
0
  6
CONTINUOUS
 62
               4
100
AcDbLine
 10
53.28497314453125
 20
82.499984741210937
 30
0.0
 11
53.28497314453125
 21
86.32666015625
 31
0.0
  0
LINE
  5
E8
100
AcDbEntity
  8
0
  6
CONTINUOUS
 62
               4
100
AcDbLine
 10
54.714996337890625
 20
82.499984741210937
 30
0.0
 11
54.714996337890625
 21
86.709823608398438
 31
0.0
  0
LINE
  5
E9
100
AcDbEntity
  8
0
  6
CONTINUOUS
 62
               4
100
AcDbLine
 10
53.5999755859375
 20
90.499984741210937
 30
0.0
 11
53.5999755859375
 21
95.499984741210938
 31
0.0
  0
LINE
  5
EA
100
AcDbEntity
  8
0
  6
CONTINUOUS
 62
               4
100
AcDbLine
 10
54.399993896484375
 20
90.499984741210937
 30
0.0
 11
54.399993896484375
 21
95.499984741210938
 31
0.0
  0
LINE
  5
EB
100
AcDbEntity
  8
0
  6
CONTINUOUS
 62
               4
100
AcDbLine
 10
53.5999755859375
 20
95.499984741210938
 30
0.0
 11
54.399978637695312
 21
95.499984741210938
 31
0.0
  0
LINE
  5
EC
100
AcDbEntity
  8
0
  6
CONTINUOUS
 62
               4
100
AcDbLine
 10
53.28497314453125
 20
90.499984741210937
 30
0.0
 11
54.714981079101562
 21
90.499984741210937
 31
0.0
  0
LINE
  5
ED
100
AcDbEntity
  8
0
  6
CONTINUOUS
 62
               4
100
AcDbLine
 10
53.28497314453125
 20
87.361923217773438
 30
0.0
 11
53.28497314453125
 21
90.499984741210937
 31
0.0
  0
LINE
  5
EE
100
AcDbEntity
  8
0
  6
CONTINUOUS
 62
               4
100
AcDbLine
 10
54.714996337890625
 20
87.745101928710937
 30
0.0
 11
54.714996337890625
 21
90.499984741210937
 31
0.0
  0
LINE
  5
EF
100
AcDbEntity
  8
0
  6
CONTINUOUS
 62
               4
100
AcDbLine
 10
47.04998779296875
 20
75.999984741210938
 30
0.0
 11
48.5
 21
75.999984741210938
 31
0.0
  0
LINE
  5
F0
100
AcDbEntity
  8
0
  6
CONTINUOUS
 62
               4
100
AcDbLine
 10
47.949981689453125
 20
71.499984741210938
 30
0.0
 11
47.949981689453125
 21
73.999984741210937
 31
0.0
  0
LINE
  5
F1
100
AcDbEntity
  8
0
  6
CONTINUOUS
 62
               4
100
AcDbLine
 10
56.04998779296875
 20
71.499984741210938
 30
0.0
 11
56.04998779296875
 21
73.999984741210937
 31
0.0
  0
LINE
  5
F2
100
AcDbEntity
  8
0
  6
CONTINUOUS
 62
               4
100
AcDbLine
 10
55.499984741210938
 20
71.998458862304688
 30
0.0
 11
55.499984741210938
 21
82.499984741210937
 31
0.0
  0
LINE
  5
F3
100
AcDbEntity
  8
0
  6
CONTINUOUS
 62
               4
100
AcDbLine
 10
48.499984741210937
 20
71.998458862304688
 30
0.0
 11
48.499984741210937
 21
82.499984741210937
 31
0.0
  0
LINE
  5
F4
100
AcDbEntity
  8
0
  6
CONTINUOUS
 62
               4
100
AcDbLine
 10
48.5
 20
71.998458862304688
 30
0.0
 11
55.5
 21
71.998458862304688
 31
0.0
  0
LINE
  5
F5
100
AcDbEntity
  8
0
  6
CONTINUOUS
 62
               4
100
AcDbLine
 10
48.5
 20
75.556137084960938
 30
0.0
 11
55.5
 21
75.556137084960938
 31
0.0
  0
LINE
  5
F6
100
AcDbEntity
  8
0
  6
CONTINUOUS
 62
               4
100
AcDbLine
 10
48.5
 20
80.999984741210937
 30
0.0
 11
55.5
 21
80.999984741210937
 31
0.0
  0
LINE
  5
F7
100
AcDbEntity
  8
0
  6
CONTINUOUS
 62
               4
100
AcDbLine
 10
47.099990844726563
 20
82.499984741210937
 30
0.0
 11
56.899993896484375
 21
82.499984741210937
 31
0.0
  0
LINE
  5
F8
100
AcDbEntity
  8
0
  6
CONTINUOUS
 62
               4
100
AcDbLine
 10
55.5
 20
75.999984741210938
 30
0.0
 11
56.949981689453125
 21
75.999984741210938
 31
0.0
  0
LINE
  5
F9
100
AcDbEntity
  8
0
  6
CONTINUOUS
 62
               4
100
AcDbLine
 10
55.5
 20
74.999984741210938
 30
0.0
 11
56.04998779296875
 21
74.999984741210938
 31
0.0
  0
LINE
  5
FA
100
AcDbEntity
  8
0
  6
CONTINUOUS
 62
               4
100
AcDbLine
 10
55.5
 20
73.999984741210937
 30
0.0
 11
56.04998779296875
 21
73.999984741210937
 31
0.0
  0
LINE
  5
FB
100
AcDbEntity
  8
0
  6
CONTINUOUS
 62
               4
100
AcDbLine
 10
47.949981689453125
 20
74.999984741210938
 30
0.0
 11
48.5
 21
74.999984741210938
 31
0.0
  0
LINE
  5
FC
100
AcDbEntity
  8
0
  6
CONTINUOUS
 62
               4
100
AcDbLine
 10
47.949981689453125
 20
73.999984741210937
 30
0.0
 11
48.5
 21
73.999984741210937
 31
0.0
  0
LINE
  5
FD
100
AcDbEntity
  8
0
  6
CONTINUOUS
 62
               4
100
AcDbLine
 10
47.949981689453125
 20
74.999984741210938
 30
0.0
 11
47.949981689453125
 21
75.999984741210938
 31
0.0
  0
LINE
  5
FE
100
AcDbEntity
  8
0
  6
CONTINUOUS
 62
               4
100
AcDbLine
 10
56.04998779296875
 20
74.999984741210938
 30
0.0
 11
56.04998779296875
 21
75.999984741210938
 31
0.0
  0
LINE
  5
FF
100
AcDbEntity
  8
0
  6
CONTINUOUS
 62
               4
100
AcDbLine
 10
50.714996337890625
 20
86.673309326171875
 30
0.0
 11
50.714996337890625
 21
90.499984741210937
 31
0.0
  0
LINE
  5
100
100
AcDbEntity
  8
0
  6
CONTINUOUS
 62
               4
100
AcDbLine
 10
49.28497314453125
 20
86.290130615234375
 30
0.0
 11
49.28497314453125
 21
90.499984741210937
 31
0.0
  0
LINE
  5
101
100
AcDbEntity
  8
0
  6
CONTINUOUS
 62
               4
100
AcDbLine
 10
49.28497314453125
 20
90.499984741210937
 30
0.0
 11
50.714981079101562
 21
90.499984741210937
 31
0.0
  0
LINE
  5
102
100
AcDbEntity
  8
0
  6
CONTINUOUS
 62
               4
100
AcDbLine
 10
50.399993896484375
 20
90.499984741210937
 30
0.0
 11
50.399993896484375
 21
95.499984741210938
 31
0.0
  0
LINE
  5
103
100
AcDbEntity
  8
0
  6
CONTINUOUS
 62
               4
100
AcDbLine
 10
49.5999755859375
 20
90.499984741210937
 30
0.0
 11
49.5999755859375
 21
95.499984741210938
 31
0.0
  0
LINE
  5
104
100
AcDbEntity
  8
0
  6
CONTINUOUS
 62
               4
100
AcDbLine
 10
49.5999755859375
 20
95.499984741210938
 30
0.0
 11
50.399978637695312
 21
95.499984741210938
 31
0.0
  0
LINE
  5
105
100
AcDbEntity
  8
0
  6
CONTINUOUS
 62
               4
100
AcDbLine
 10
50.714996337890625
 20
82.499984741210937
 30
0.0
 11
50.714996337890625
 21
85.638031005859375
 31
0.0
  0
LINE
  5
106
100
AcDbEntity
  8
0
  6
CONTINUOUS
 62
               4
100
AcDbLine
 10
49.28497314453125
 20
82.499984741210937
 30
0.0
 11
49.28497314453125
 21
85.254852294921875
 31
0.0
  0
LINE
  5
107
100
AcDbEntity
  8
0
  6
CONTINUOUS
 62
               4
100
AcDbLine
 10
56.999984741210937
 20
38.499984741210937
 30
0.0
 11
56.999984741210937
 21
62.499984741210938
 31
0.0
  0
LINE
  5
108
100
AcDbEntity
  8
0
  6
CONTINUOUS
 62
               4
100
AcDbLine
 10
46.999984741210937
 20
38.499984741210937
 30
0.0
 11
46.999984741210937
 21
62.499984741210938
 31
0.0
  0
LINE
  5
109
100
AcDbEntity
  8
0
  6
CONTINUOUS
 62
               4
100
AcDbLine
 10
56.899993896484375
 20
75.999984741210938
 30
0.0
 11
56.899993896484375
 21
82.499984741210937
 31
0.0
  0
LINE
  5
10A
100
AcDbEntity
  8
0
  6
CONTINUOUS
 62
               4
100
AcDbLine
 10
47.099990844726563
 20
75.999984741210938
 30
0.0
 11
47.099990844726563
 21
82.499984741210937
 31
0.0
  0
LINE
  5
10B
100
AcDbEntity
  8
0
  6
CONTINUOUS
 62
               4
100
AcDbLine
 10
47.999984741210938
 20
75.999984741210938
 30
0.0
 11
47.999984741210938
 21
82.499984741210937
 31
0.0
  0
LINE
  5
10C
100
AcDbEntity
  8
0
  6
CONTINUOUS
 62
               4
100
AcDbLine
 10
55.999984741210937
 20
75.999984741210938
 30
0.0
 11
55.999984741210937
 21
82.499984741210937
 31
0.0
  0
LINE
  5
10D
100
AcDbEntity
  8
0
  6
CONTINUOUS
 62
               7
100
AcDbLine
 10
42.999984741210937
 20
24.999984741210937
 30
0.0
 11
60.999984741210937
 21
24.999984741210937
 31
0.0
  0
LINE
  5
10E
100
AcDbEntity
  8
0
  6
CONTINUOUS
 62
               7
100
AcDbLine
 10
42.999984741210937
 20
-60.5
 30
0.0
 11
42.999984741210937
 21
-33.066009521484375
 31
0.0
  0
LINE
  5
10F
100
AcDbEntity
  8
0
  6
CONTINUOUS
 62
               4
100
AcDbLine
 10
44.439339831937332
 20
-32.56065767781547
 30
0.0
 11
46.560660318006057
 21
-30.439337370560679
 31
0.0
  0
LINE
  5
110
100
AcDbEntity
  8
0
  6
CONTINUOUS
 62
               4
100
AcDbLine
 10
44.439353408337411
 20
-30.439307609772186
 30
0.0
 11
46.560673715592202
 21
-32.560628095840912
 31
0.0
  0
LINE
  5
111
100
AcDbEntity
  8
0
  6
CONTINUOUS
 62
               4
100
AcDbLine
 10
57.439338333293904
 20
7.4393171400729443
 30
0.0
 11
59.560658819362629
 21
9.5606374473277356
 31
0.0
  0
LINE
  5
112
100
AcDbEntity
  8
0
  6
CONTINUOUS
 62
               4
100
AcDbLine
 10
57.439347863595685
 20
9.5606496750269798
 30
0.0
 11
59.560668170850477
 21
7.4393291889582542
 31
0.0
  0
LINE
  5
113
100
AcDbEntity
  8
0
  6
CONTINUOUS
 62
               4
100
AcDbLine
 10
60.999984741210937
 20
11.499973297119141
 30
0.0
 11
60.999984741210937
 21
14.799971580505371
 31
0.0
  0
LINE
  5
114
100
AcDbEntity
  8
0
  6
CONTINUOUS
 62
               4
100
AcDbLine
 10
42.999984741210937
 20
11.760955810546875
 30
0.0
 11
42.999984741210937
 21
14.799972534179688
 31
0.0
  0
LINE
  5
115
100
AcDbEntity
  8
0
  6
CONTINUOUS
 62
               7
100
AcDbLine
 10
60.999984741210937
 20
14.799972534179688
 30
0.0
 11
60.999984741210937
 21
11.499973297119141
 31
0.0
  0
LINE
  5
116
100
AcDbEntity
  8
0
  6
CONTINUOUS
 62
               2
100
AcDbLine
 10
49.383316040039063
 20
-46.0
 30
0.0
 11
54.616653442382812
 21
-46.0
 31
0.0
  0
LINE
  5
117
100
AcDbEntity
  8
0
  6
CONTINUOUS
 62
               7
100
AcDbLine
 10
50.073196411132813
 20
-46.300003051757813
 30
0.0
 11
53.926773071289062
 21
-46.300003051757813
 31
0.0
  0
LINE
  5
118
100
AcDbEntity
  8
0
  6
CONTINUOUS
 62
               7
100
AcDbLine
 10
50.073196411132813
 20
-45.70001220703125
 30
0.0
 11
53.926773071289062
 21
-45.70001220703125
 31
0.0
  0
LINE
  5
119
100
AcDbEntity
  8
0
  6
CONTINUOUS
 62
               7
100
AcDbLine
 10
42.999984741210937
 20
-47.0
 30
0.0
 11
45.999984741210938
 21
-47.0
 31
0.0
  0
LINE
  5
11A
100
AcDbEntity
  8
0
  6
CONTINUOUS
 62
               7
100
AcDbLine
 10
42.999984741210937
 20
-41.0
 30
0.0
 11
45.999984741210938
 21
-41.0
 31
0.0
  0
LINE
  5
11B
100
AcDbEntity
  8
0
  6
CONTINUOUS
 62
               7
100
AcDbLine
 10
45.499984741210938
 20
-50.0
 30
0.0
 11
45.499984741210938
 21
-47.0
 31
0.0
  0
LINE
  5
11C
100
AcDbEntity
  8
0
  6
CONTINUOUS
 62
               7
100
AcDbLine
 10
58.499984741210938
 20
-50.000015258789062
 30
0.0
 11
58.499984741210938
 21
-47.000015258789063
 31
0.0
  0
LINE
  5
11D
100
AcDbEntity
  8
0
  6
CONTINUOUS
 62
               7
100
AcDbLine
 10
57.999984741210938
 20
-47.0
 30
0.0
 11
60.999984741210937
 21
-47.0
 31
0.0
  0
LINE
  5
11E
100
AcDbEntity
  8
0
  6
CONTINUOUS
 62
               7
100
AcDbLine
 10
57.999984741210938
 20
-41.0
 30
0.0
 11
60.999984741210937
 21
-41.0
 31
0.0
  0
LINE
  5
11F
100
AcDbEntity
  8
0
  6
CONTINUOUS
 62
               7
100
AcDbLine
 10
58.499984741210938
 20
-41.000015258789063
 30
0.0
 11
58.499984741210938
 21
-38.000015258789062
 31
0.0
  0
LINE
  5
120
100
AcDbEntity
  8
0
  6
CONTINUOUS
 62
               7
100
AcDbLine
 10
45.499984741210938
 20
-41.0
 30
0.0
 11
45.499984741210938
 21
-38.0
 31
0.0
  0
LINE
  5
121
100
AcDbEntity
  8
0
  6
CONTINUOUS
 62
               7
100
AcDbLine
 10
49.499979019165039
 20
-46.0
 30
0.0
 11
48.499979019165039
 21
-46.0
 31
0.0
  0
LINE
  5
122
100
AcDbEntity
  8
0
  6
CONTINUOUS
 62
               7
100
AcDbLine
 10
51.999985662285326
 20
-42.5
 30
0.0
 11
51.999985662285326
 21
-43.5
 31
0.0
  0
LINE
  5
123
100
AcDbEntity
  8
0
  6
CONTINUOUS
 62
               7
100
AcDbLine
 10
51.999981913711053
 20
-42.999997835139766
 30
0.0
 11
50.999982686013652
 21
-42.732048707451838
 31
0.0
  0
LINE
  5
124
100
AcDbEntity
  8
0
  6
CONTINUOUS
 62
               7
100
AcDbLine
 10
44.999985694885254
 20
27.499984741210938
 30
0.0
 11
58.999981880187988
 21
27.499984741210938
 31
0.0
  0
LINE
  5
125
100
AcDbEntity
  8
0
  6
CONTINUOUS
 62
               7
100
AcDbLine
 10
43.000038358181882
 20
24.999976784274622
 30
0.0
 11
44.999991906933246
 21
27.499983076464559
 31
0.0
  0
LINE
  5
126
100
AcDbEntity
  8
0
  6
CONTINUOUS
 62
               7
100
AcDbLine
 10
60.999931183789158
 20
24.999983551825608
 30
0.0
 11
58.999986403675393
 21
27.499977547132403
 31
0.0
  0
LINE
  5
127
100
AcDbEntity
  8
0
  6
CONTINUOUS
 62
               7
100
AcDbLine
 10
54.499984741210938
 20
35.199996948242187
 30
0.0
 11
55.499984741210938
 21
35.199996948242187
 31
0.0
  0
LINE
  5
128
100
AcDbEntity
  8
0
  6
CONTINUOUS
 62
               7
100
AcDbLine
 10
51.999984741210937
 20
31.699996948242187
 30
0.0
 11
51.999984741210937
 21
32.699996948242188
 31
0.0
  0
LINE
  5
129
100
AcDbEntity
  8
0
  6
CONTINUOUS
 62
               7
100
AcDbLine
 10
51.999982138742666
 20
32.199996816436283
 30
0.0
 11
52.999981428147294
 21
31.932047873870033
 31
0.0
  0
ARC
  5
12A
100
AcDbEntity
  8
0
  6
CONTINUOUS
 62
               4
100
AcDbCircle
 10
58.499984741210938
 20
8.5
 30
0.0
 40
3.0
100
AcDbArc
 50
89.999982013910454
 51
269.99994604173139
  0
ARC
  5
12B
100
AcDbEntity
  8
0
  6
CONTINUOUS
 62
               4
100
AcDbCircle
 10
45.499984741210938
 20
-31.499984741210938
 30
0.0
 40
3.0
100
AcDbArc
 50
269.99996334457541
 51
89.999982013910454
  0
ARC
  5
12C
100
AcDbEntity
  8
0
  6
CONTINUOUS
 62
               7
100
AcDbCircle
 10
60.499984741210937
 20
-60.5
 30
0.0
 40
0.5
100
AcDbArc
 50
270.00001798608872
 51
0.00001366037834
  0
ARC
  5
12D
100
AcDbEntity
  8
0
  6
CONTINUOUS
 62
               7
100
AcDbCircle
 10
43.499984741210938
 20
-60.5
 30
0.0
 40
0.5
100
AcDbArc
 50
180.0000359721783
 51
269.99996334457541
  0
ARC
  5
12E
100
AcDbEntity
  8
0
  6
CONTINUOUS
 62
               7
100
AcDbCircle
 10
58.000030517578125
 20
28.000045776367188
 30
0.0
 40
2.5000734329223633
100
AcDbArc
 50
191.53802865027069
 51
319.45890333229545
  0
CIRCLE
  5
12F
100
AcDbEntity
  8
0
  6
CONTINUOUS
 62
               7
100
AcDbCircle
 10
51.999984741210937
 20
35.199996948242187
 30
0.0
 40
2.0
  0
CIRCLE
  5
130
100
AcDbEntity
  8
0
  6
CONTINUOUS
 62
               7
100
AcDbCircle
 10
51.999984741210937
 20
35.199996948242187
 30
0.0
 40
1.9499998092651367
  0
ARC
  5
131
100
AcDbEntity
  8
0
  6
CONTINUOUS
 62
               4
100
AcDbCircle
 10
56.449981689453125
 20
71.0
 30
0.0
 40
0.5
100
AcDbArc
 50
359.99994535848583
 51
89.999982013910454
  0
ARC
  5
132
100
AcDbEntity
  8
0
  6
CONTINUOUS
 62
               4
100
AcDbCircle
 10
47.54998779296875
 20
71.0
 30
0.0
 40
0.5
100
AcDbArc
 50
89.999982013910454
 51
179.99996402782091
  0
CIRCLE
  5
133
100
AcDbEntity
  8
0
  6
CONTINUOUS
 62
               4
100
AcDbCircle
 10
45.5
 20
-31.499984741210938
 30
0.0
 40
2.7999992370605469
  0
CIRCLE
  5
134
100
AcDbEntity
  8
0
  6
CONTINUOUS
 62
               4
100
AcDbCircle
 10
58.499984741210938
 20
8.4999847412109375
 30
0.0
 40
2.7999992370605469
  0
CIRCLE
  5
135
100
AcDbEntity
  8
0
  6
CONTINUOUS
 62
               7
100
AcDbCircle
 10
51.999984741210937
 20
-46.0
 30
0.0
 40
2.0
  0
CIRCLE
  5
136
100
AcDbEntity
  8
0
  6
CONTINUOUS
 62
               7
100
AcDbCircle
 10
51.999984741210937
 20
-46.0
 30
0.0
 40
1.9499998092651367
  0
ARC
  5
137
100
AcDbEntity
  8
0
  6
CONTINUOUS
 62
               7
100
AcDbCircle
 10
51.899978637695313
 20
-46.0
 30
0.0
 40
3.0
100
AcDbArc
 50
88.08976934835465
 51
179.99996402782091
  0
ARC
  5
138
100
AcDbEntity
  8
0
  6
CONTINUOUS
 62
               7
100
AcDbCircle
 10
51.99997861078009
 20
-46.0
 30
0.0
 40
3.0
100
AcDbArc
 50
86.177425663777811
 51
183.82257501946691
  0
ARC
  5
139
100
AcDbEntity
  8
0
  6
CONTINUOUS
 62
               7
100
AcDbCircle
 10
52.099978566169739
 20
-46.0
 30
0.0
 40
3.0
100
AcDbArc
 50
91.910194679466258
 51
179.99996402782091
  0
CIRCLE
  5
13A
100
AcDbEntity
  8
0
  6
CONTINUOUS
 62
               7
100
AcDbCircle
 10
58.499984741210938
 20
8.4999847412109375
 30
0.0
 40
2.9499998092651367
  0
CIRCLE
  5
13B
100
AcDbEntity
  8
0
  6
CONTINUOUS
 62
               4
100
AcDbCircle
 10
45.5
 20
-31.499984741210938
 30
0.0
 40
2.9499998092651367
  0
ARC
  5
13C
100
AcDbEntity
  8
0
  6
CONTINUOUS
 62
               7
100
AcDbCircle
 10
51.899984776973724
 20
35.199996948242187
 30
0.0
 40
3.0
100
AcDbArc
 50
271.91023065164455
 51
0.0
  0
ARC
  5
13D
100
AcDbEntity
  8
0
  6
CONTINUOUS
 62
               7
100
AcDbCircle
 10
52.099984705448151
 20
35.199996948242187
 30
0.0
 40
3.0
100
AcDbArc
 50
268.089805320533
 51
0.0
  0
ARC
  5
13E
100
AcDbEntity
  8
0
  6
CONTINUOUS
 62
               7
100
AcDbCircle
 10
51.999984741210937
 20
35.199996948242187
 30
0.0
 40
3.0
100
AcDbArc
 50
266.17746163595609
 51
3.822566595416411
  0
LINE
  5
13F
100
AcDbEntity
  8
0
  6
CONTINUOUS
 62
             200
100
AcDbLine
 10
47.999987348672221
 20
84.91054331918167
 30
0.0
 11
55.999989033338352
 21
87.054137328002071
 31
0.0
  0
LINE
  5
140
100
AcDbEntity
  8
0
  6
CONTINUOUS
 62
             200
100
AcDbLine
 10
47.999982655490385
 20
85.945818228678036
 30
0.0
 11
55.999984340156516
 21
88.089412237498436
 31
0.0
  0
LINE
  5
141
100
AcDbEntity
  8
0
  6
CONTINUOUS
 62
               4
100
AcDbLine
 10
42.999985694885254
 20
14.799972534179688
 30
0.0
 11
60.999984741210937
 21
14.799972534179688
 31
0.0
  0
LINE
  5
142
100
AcDbEntity
  8
0
  6
CONTINUOUS
 62
               4
100
AcDbLine
 10
42.999981880187988
 20
-37.800014495849609
 30
0.0
 11
60.999980926513672
 21
-37.800014495849609
 31
0.0
  0
LINE
  5
143
100
AcDbEntity
  8
0
  6
CONTINUOUS
 62
               2
100
AcDbLine
 10
51.999984741210937
 20
-39.385585784912109
 30
0.0
 11
51.999984741210937
 21
16.42935848236084
 31
0.0
  0
LINE
  5
144
100
AcDbEntity
  8
0
  6
CONTINUOUS
 62
               4
100
AcDbLine
 10
58.499981880187988
 20
-30.500026702880859
 30
0.0
 11
60.999981880187988
 21
-30.500026702880859
 31
0.0
  0
LINE
  5
145
100
AcDbEntity
  8
0
  6
CONTINUOUS
 62
               4
100
AcDbLine
 10
55.499984741210938
 20
-37.800014495849609
 30
0.0
 11
55.499984741210938
 21
-33.500026702880859
 31
0.0
  0
LINE
  5
146
100
AcDbEntity
  8
0
  6
CONTINUOUS
 62
               4
100
AcDbLine
 10
48.499984741210937
 20
10.499973070625458
 30
0.0
 11
48.499984741210937
 21
14.799972534179688
 31
0.0
  0
LINE
  5
147
100
AcDbEntity
  8
0
  6
CONTINUOUS
 62
               4
100
AcDbLine
 10
42.999984741210937
 20
7.4999732971191406
 30
0.0
 11
45.499984514717255
 21
7.4999732971191406
 31
0.0
  0
LINE
  5
148
100
AcDbEntity
  8
0
  6
CONTINUOUS
 62
               4
100
AcDbLine
 10
59.560642801027825
 20
-34.560683295483614
 30
0.0
 11
57.439322672586968
 21
-32.439362630600954
 31
0.0
  0
LINE
  5
149
100
AcDbEntity
  8
0
  6
CONTINUOUS
 62
               4
100
AcDbLine
 10
46.560642918000724
 20
9.4393110772476376
 30
0.0
 11
44.439322789559867
 21
11.560631742130298
 31
0.0
  0
LINE
  5
14A
100
AcDbEntity
  8
0
  6
CONTINUOUS
 62
               4
100
AcDbLine
 10
44.439324699325823
 20
9.4393129423424824
 30
0.0
 11
46.560645185394549
 21
11.560633249597274
 31
0.0
  0
LINE
  5
14B
100
AcDbEntity
  8
0
  6
CONTINUOUS
 62
               4
100
AcDbLine
 10
57.439326202695156
 20
-34.560682020851345
 30
0.0
 11
59.560646688763882
 21
-32.439361713596554
 31
0.0
  0
LINE
  5
14C
100
AcDbEntity
  8
0
  6
CONTINUOUS
 62
               4
100
AcDbLine
 10
60.999984741210937
 20
-32.354381561279297
 30
0.0
 11
60.999984741210937
 21
5.4999723434448242
 31
0.0
  0
LINE
  5
14D
100
AcDbEntity
  8
0
  6
CONTINUOUS
 62
               7
100
AcDbLine
 10
42.999984741210937
 20
11.645617485046387
 30
0.0
 11
42.999984741210937
 21
14.799972534179688
 31
0.0
  0
LINE
  5
14E
100
AcDbEntity
  8
0
  6
CONTINUOUS
 62
               4
100
AcDbLine
 10
42.999981880187988
 20
-34.500026702880859
 30
0.0
 11
45.499981343805302
 21
-34.500026702880859
 31
0.0
  0
LINE
  5
14F
100
AcDbEntity
  8
0
  6
CONTINUOUS
 62
               4
100
AcDbLine
 10
42.999981880187988
 20
-28.500026702880859
 30
0.0
 11
45.499981796792781
 21
-28.500026702880859
 31
0.0
  0
LINE
  5
150
100
AcDbEntity
  8
0
  6
CONTINUOUS
 62
               4
100
AcDbLine
 10
58.499984741210938
 20
5.4999732971191406
 30
0.0
 11
60.999984741210937
 21
5.4999732971191406
 31
0.0
  0
LINE
  5
151
100
AcDbEntity
  8
0
  6
CONTINUOUS
 62
               4
100
AcDbLine
 10
58.499984741210938
 20
11.499973297119141
 30
0.0
 11
60.999984741210937
 21
11.499973297119141
 31
0.0
  0
LINE
  5
152
100
AcDbEntity
  8
0
  6
CONTINUOUS
 62
             200
100
AcDbLine
 10
42.499982833862305
 20
-21.000026702880859
 30
0.0
 11
61.499982833862305
 21
-21.000026702880859
 31
0.0
  0
LINE
  5
153
100
AcDbEntity
  8
0
  6
CONTINUOUS
 62
             200
100
AcDbLine
 10
42.499983787536621
 20
-2.0000267028808594
 30
0.0
 11
61.499983787536621
 21
-2.0000267028808594
 31
0.0
  0
ARC
  5
154
100
AcDbEntity
  8
0
  6
CONTINUOUS
 62
               4
100
AcDbCircle
 10
58.499981880187988
 20
-33.500026702880859
 30
0.0
 40
3.0
100
AcDbArc
 50
89.999982013910454
 51
179.99996402782091
  0
ARC
  5
155
100
AcDbEntity
  8
0
  6
CONTINUOUS
 62
               4
100
AcDbCircle
 10
45.499984741210938
 20
10.499973297119141
 30
0.0
 40
3.0
100
AcDbArc
 50
270.00001798608872
 51
0.00001366037834
  0
CIRCLE
  5
156
100
AcDbEntity
  8
0
  6
CONTINUOUS
 62
               4
100
AcDbCircle
 10
58.499981880187988
 20
-33.500026702880859
 30
0.0
 40
2.75
  0
CIRCLE
  5
157
100
AcDbEntity
  8
0
  6
CONTINUOUS
 62
               4
100
AcDbCircle
 10
45.499984741210938
 20
10.499973297119141
 30
0.0
 40
2.75
  0
CIRCLE
  5
158
100
AcDbEntity
  8
0
  6
CONTINUOUS
 62
               4
100
AcDbCircle
 10
51.999984741210937
 20
-2.0000267028808594
 30
0.0
 40
8.9499999999999993
  0
ARC
  5
159
100
AcDbEntity
  8
0
  6
CONTINUOUS
 62
               4
100
AcDbCircle
 10
51.999984741210937
 20
-2.0000267028808594
 30
0.0
 40
8.4000000000000004
100
AcDbArc
 50
7.1848403149542479
 51
172.81515968504539
  0
ARC
  5
15A
100
AcDbEntity
  8
0
  6
CONTINUOUS
 62
               4
100
AcDbCircle
 10
51.999984741210937
 20
-2.0000267028808594
 30
0.0
 40
8.4000000000000004
100
AcDbArc
 50
187.18484031495382
 51
352.81515968504499
  0
CIRCLE
  5
15B
100
AcDbEntity
  8
0
  6
CONTINUOUS
 62
               4
100
AcDbCircle
 10
51.999984741210937
 20
-2.0000267028808594
 30
0.0
 40
5.0499999999999998
  0
CIRCLE
  5
15C
100
AcDbEntity
  8
0
  6
CONTINUOUS
 62
               4
100
AcDbCircle
 10
51.999984741210937
 20
-2.0000267028808594
 30
0.0
 40
4.0499999999999998
  0
CIRCLE
  5
15D
100
AcDbEntity
  8
0
  6
CONTINUOUS
 62
               4
100
AcDbCircle
 10
51.999984741210937
 20
-21.000026702880859
 30
0.0
 40
8.9499999999999993
  0
ARC
  5
15E
100
AcDbEntity
  8
0
  6
CONTINUOUS
 62
               4
100
AcDbCircle
 10
51.999984741210937
 20
-21.000026702880859
 30
0.0
 40
8.4000000000000004
100
AcDbArc
 50
7.1848403149542479
 51
172.81515968504539
  0
CIRCLE
  5
15F
100
AcDbEntity
  8
0
  6
CONTINUOUS
 62
               4
100
AcDbCircle
 10
51.999984741210937
 20
-21.000026702880859
 30
0.0
 40
5.0499999999999998
  0
CIRCLE
  5
160
100
AcDbEntity
  8
0
  6
CONTINUOUS
 62
               4
100
AcDbCircle
 10
51.999984741210937
 20
-21.000026702880859
 30
0.0
 40
4.0499999999999998
  0
ARC
  5
161
100
AcDbEntity
  8
0
  6
CONTINUOUS
 62
               4
100
AcDbCircle
 10
51.999984741210937
 20
-21.000026702880859
 30
0.0
 40
8.4000000000000004
100
AcDbArc
 50
187.18484031495382
 51
352.81515968504499
  0
LINE
  5
162
100
AcDbEntity
  8
0
  6
CONTINUOUS
 62
               4
100
AcDbLine
 10
52.749984741210938
 20
-11.809814518170427
 30
0.0
 11
52.749984741210938
 21
-11.190238887591285
 31
0.0
  0
LINE
  5
163
100
AcDbEntity
  8
0
  6
CONTINUOUS
 62
               4
100
AcDbLine
 10
51.249984741210937
 20
-11.809814518170427
 30
0.0
 11
51.249984741210937
 21
-11.190238887591285
 31
0.0
  0
ARC
  5
164
100
AcDbEntity
  8
0
  6
CONTINUOUS
 62
               4
100
AcDbCircle
 10
50.949984741210926
 20
-11.190238887591285
 30
0.0
 40
0.3
100
AcDbArc
 50
0.0
 51
83.482105791022562
  0
ARC
  5
165
100
AcDbEntity
  8
0
  6
CONTINUOUS
 62
               4
100
AcDbCircle
 10
50.949984741210926
 20
-11.809814518170427
 30
0.0
 40
0.3
100
AcDbArc
 50
276.5178942089774
 51
0.0
  0
ARC
  5
166
100
AcDbEntity
  8
0
  6
CONTINUOUS
 62
               4
100
AcDbCircle
 10
53.04998474121092
 20
-11.190238887591285
 30
0.0
 40
0.3
100
AcDbArc
 50
96.517894208978376
 51
179.99999999999963
  0
ARC
  5
167
100
AcDbEntity
  8
0
  6
CONTINUOUS
 62
               4
100
AcDbCircle
 10
53.04998474121092
 20
-11.809814518170427
 30
0.0
 40
0.3
100
AcDbArc
 50
179.99999999999963
 51
263.48210579102226
  0
LINE
  5
168
100
AcDbEntity
  8
0
  6
CONTINUOUS
 62
               4
100
AcDbLine
 10
59.899984741210915
 20
-2.8000267028808565
 30
0.0
 11
60.334026496901402
 21
-3.0506208273682915
 31
0.0
  0
LINE
  5
169
100
AcDbEntity
  8
0
  6
CONTINUOUS
 62
               4
100
AcDbLine
 10
59.899984741210915
 20
-1.2000267028808622
 30
0.0
 11
60.334026496901402
 21
-0.9494325783934272
 31
0.0
  0
LINE
  5
16A
100
AcDbEntity
  8
0
  6
CONTINUOUS
 62
               4
100
AcDbLine
 10
59.899984741210915
 20
-2.8000267028808565
 30
0.0
 11
59.899984741210915
 21
-1.200026708841321
 31
0.0
  0
LINE
  5
16B
100
AcDbEntity
  8
0
  6
CONTINUOUS
 62
               4
100
AcDbLine
 10
44.099984741210932
 20
-1.2000267028808622
 30
0.0
 11
43.665942985520445
 21
-0.9494325783934272
 31
0.0
  0
LINE
  5
16C
100
AcDbEntity
  8
0
  6
CONTINUOUS
 62
               4
100
AcDbLine
 10
44.099984741210932
 20
-2.8000267028808565
 30
0.0
 11
43.665942985520445
 21
-3.0506208273682915
 31
0.0
  0
LINE
  5
16D
100
AcDbEntity
  8
0
  6
CONTINUOUS
 62
               4
100
AcDbLine
 10
44.099984741210932
 20
-2.8000267028808565
 30
0.0
 11
44.099984741210932
 21
-1.200026708841321
 31
0.0
  0
LINE
  5
16E
100
AcDbEntity
  8
0
  6
CONTINUOUS
 62
               4
100
AcDbLine
 10
44.099984741210932
 20
-21.800026702880857
 30
0.0
 11
43.665942985520445
 21
-22.050620827368292
 31
0.0
  0
LINE
  5
16F
100
AcDbEntity
  8
0
  6
CONTINUOUS
 62
               4
100
AcDbLine
 10
44.099984741210932
 20
-20.200026702880855
 30
0.0
 11
43.665942985520445
 21
-19.949432578393427
 31
0.0
  0
LINE
  5
170
100
AcDbEntity
  8
0
  6
CONTINUOUS
 62
               4
100
AcDbLine
 10
44.099984741210932
 20
-21.800026702880857
 30
0.0
 11
44.099984741210932
 21
-20.200026708841321
 31
0.0
  0
LINE
  5
171
100
AcDbEntity
  8
0
  6
CONTINUOUS
 62
               4
100
AcDbLine
 10
59.899984741210915
 20
-21.800026702880857
 30
0.0
 11
60.334026496901402
 21
-22.050620827368292
 31
0.0
  0
LINE
  5
172
100
AcDbEntity
  8
0
  6
CONTINUOUS
 62
               4
100
AcDbLine
 10
59.899984741210915
 20
-20.200026702880855
 30
0.0
 11
60.334026496901402
 21
-19.949432578393427
 31
0.0
  0
LINE
  5
173
100
AcDbEntity
  8
0
  6
CONTINUOUS
 62
               4
100
AcDbLine
 10
59.899984741210915
 20
-21.800026702880857
 30
0.0
 11
59.899984741210915
 21
-20.200026708841321
 31
0.0
  0
LINE
  5
174
100
AcDbEntity
  8
0
  6
CONTINUOUS
 62
               4
100
AcDbLine
 10
42.999984741210937
 20
6.1397192592747274
 30
0.0
 11
48.278824213691081
 21
6.1397192592747274
 31
0.0
  0
LINE
  5
175
100
AcDbEntity
  8
0
  6
CONTINUOUS
 62
               4
100
AcDbLine
 10
55.721145272254944
 20
-29.139772665036446
 30
0.0
 11
60.999984741210937
 21
-29.139772665036446
 31
0.0
  0
LINE
  5
176
100
AcDbEntity
  8
0
  6
CONTINUOUS
 62
               4
100
AcDbLine
 10
55.721145268730766
 20
6.1397192592747274
 30
0.0
 11
56.648198889680259
 21
6.1397192592747274
 31
0.0
  0
LINE
  5
177
100
AcDbEntity
  8
0
  6
CONTINUOUS
 62
               4
100
AcDbLine
 10
47.351819213571133
 20
-29.139772665036446
 30
0.0
 11
48.278824210166931
 21
-29.139772665036446
 31
0.0
  0
LINE
  5
178
100
AcDbEntity
  8
0
  6
CONTINUOUS
 62
               4
100
AcDbLine
 10
9.3518344723601956
 20
-29.13974596215558
 30
0.0
 11
10.278839468955994
 21
-29.13974596215558
 31
0.0
  0
LINE
  5
179
100
AcDbEntity
  8
0
  6
CONTINUOUS
 62
               4
100
AcDbLine
 10
17.721160527519828
 20
6.139745962155601
 30
0.0
 11
18.648214148469336
 21
6.139745962155601
 31
0.0
  0
LINE
  5
17A
100
AcDbEntity
  8
0
  6
CONTINUOUS
 62
               4
100
AcDbLine
 10
17.721160531043992
 20
-29.13974596215558
 30
0.0
 11
22.999999999999986
 21
-29.13974596215558
 31
0.0
  0
LINE
  5
17B
100
AcDbEntity
  8
0
  6
CONTINUOUS
 62
               4
100
AcDbLine
 10
5.0
 20
6.139745962155601
 30
0.0
 11
10.278839472480144
 21
6.139745962155601
 31
0.0
  0
LINE
  5
17C
100
AcDbEntity
  8
0
  6
CONTINUOUS
 62
               4
100
AcDbLine
 10
21.899999999999991
 20
-21.79999999999999
 30
0.0
 11
21.899999999999991
 21
-20.200000005960447
 31
0.0
  0
LINE
  5
17D
100
AcDbEntity
  8
0
  6
CONTINUOUS
 62
               4
100
AcDbLine
 10
21.899999999999991
 20
-20.199999999999989
 30
0.0
 11
22.334041755690464
 21
-19.949405875512554
 31
0.0
  0
LINE
  5
17E
100
AcDbEntity
  8
0
  6
CONTINUOUS
 62
               4
100
AcDbLine
 10
21.899999999999991
 20
-21.79999999999999
 30
0.0
 11
22.334041755690464
 21
-22.050594124487425
 31
0.0
  0
LINE
  5
17F
100
AcDbEntity
  8
0
  6
CONTINUOUS
 62
               4
100
AcDbLine
 10
6.0999999999999943
 20
-21.79999999999999
 30
0.0
 11
6.0999999999999943
 21
-20.200000005960447
 31
0.0
  0
LINE
  5
180
100
AcDbEntity
  8
0
  6
CONTINUOUS
 62
               4
100
AcDbLine
 10
6.0999999999999943
 20
-20.199999999999989
 30
0.0
 11
5.6659582443095076
 21
-19.949405875512554
 31
0.0
  0
LINE
  5
181
100
AcDbEntity
  8
0
  6
CONTINUOUS
 62
               4
100
AcDbLine
 10
6.0999999999999943
 20
-21.79999999999999
 30
0.0
 11
5.6659582443095076
 21
-22.050594124487425
 31
0.0
  0
LINE
  5
182
100
AcDbEntity
  8
0
  6
CONTINUOUS
 62
               4
100
AcDbLine
 10
6.0999999999999943
 20
-2.7999999999999901
 30
0.0
 11
6.0999999999999943
 21
-1.2000000059604545
 31
0.0
  0
LINE
  5
183
100
AcDbEntity
  8
0
  6
CONTINUOUS
 62
               4
100
AcDbLine
 10
6.0999999999999943
 20
-2.7999999999999972
 30
0.0
 11
5.6659582443095076
 21
-3.0505941244874251
 31
0.0
  0
LINE
  5
184
100
AcDbEntity
  8
0
  6
CONTINUOUS
 62
               4
100
AcDbLine
 10
6.0999999999999943
 20
-1.1999999999999886
 30
0.0
 11
5.6659582443095076
 21
-0.9494058755125607
 31
0.0
  0
LINE
  5
185
100
AcDbEntity
  8
0
  6
CONTINUOUS
 62
               4
100
AcDbLine
 10
21.899999999999991
 20
-2.7999999999999901
 30
0.0
 11
21.899999999999991
 21
-1.2000000059604545
 31
0.0
  0
LINE
  5
186
100
AcDbEntity
  8
0
  6
CONTINUOUS
 62
               4
100
AcDbLine
 10
21.899999999999991
 20
-1.1999999999999886
 30
0.0
 11
22.334041755690464
 21
-0.9494058755125607
 31
0.0
  0
LINE
  5
187
100
AcDbEntity
  8
0
  6
CONTINUOUS
 62
               4
100
AcDbLine
 10
21.899999999999991
 20
-2.7999999999999972
 30
0.0
 11
22.334041755690464
 21
-3.0505941244874251
 31
0.0
  0
ARC
  5
188
100
AcDbEntity
  8
0
  6
CONTINUOUS
 62
               4
100
AcDbCircle
 10
15.049999999999983
 20
-11.80978781528956
 30
0.0
 40
0.3
100
AcDbArc
 50
179.99999999999963
 51
263.48210579102226
  0
ARC
  5
189
100
AcDbEntity
  8
0
  6
CONTINUOUS
 62
               4
100
AcDbCircle
 10
15.049999999999983
 20
-11.190212184710418
 30
0.0
 40
0.3
100
AcDbArc
 50
96.517894208978376
 51
179.99999999999963
  0
ARC
  5
18A
100
AcDbEntity
  8
0
  6
CONTINUOUS
 62
               4
100
AcDbCircle
 10
12.949999999999989
 20
-11.80978781528956
 30
0.0
 40
0.3
100
AcDbArc
 50
276.5178942089774
 51
0.0
  0
ARC
  5
18B
100
AcDbEntity
  8
0
  6
CONTINUOUS
 62
               4
100
AcDbCircle
 10
12.949999999999989
 20
-11.190212184710418
 30
0.0
 40
0.3
100
AcDbArc
 50
0.0
 51
83.482105791022562
  0
LINE
  5
18C
100
AcDbEntity
  8
0
  6
CONTINUOUS
 62
               4
100
AcDbLine
 10
13.249999999999986
 20
-11.80978781528956
 30
0.0
 11
13.249999999999986
 21
-11.190212184710418
 31
0.0
  0
LINE
  5
18D
100
AcDbEntity
  8
0
  6
CONTINUOUS
 62
               4
100
AcDbLine
 10
14.749999999999986
 20
-11.80978781528956
 30
0.0
 11
14.749999999999986
 21
-11.190212184710418
 31
0.0
  0
ARC
  5
18E
100
AcDbEntity
  8
0
  6
CONTINUOUS
 62
               4
100
AcDbCircle
 10
13.999999999999986
 20
-20.999999999999986
 30
0.0
 40
8.4000000000000004
100
AcDbArc
 50
187.18484031495382
 51
352.81515968504499
  0
CIRCLE
  5
18F
100
AcDbEntity
  8
0
  6
CONTINUOUS
 62
               4
100
AcDbCircle
 10
13.999999999999986
 20
-20.999999999999986
 30
0.0
 40
4.0499999999999998
  0
CIRCLE
  5
190
100
AcDbEntity
  8
0
  6
CONTINUOUS
 62
               4
100
AcDbCircle
 10
13.999999999999986
 20
-20.999999999999986
 30
0.0
 40
5.0499999999999998
  0
ARC
  5
191
100
AcDbEntity
  8
0
  6
CONTINUOUS
 62
               4
100
AcDbCircle
 10
13.999999999999986
 20
-20.999999999999986
 30
0.0
 40
8.4000000000000004
100
AcDbArc
 50
7.1848403149542479
 51
172.81515968504539
  0
CIRCLE
  5
192
100
AcDbEntity
  8
0
  6
CONTINUOUS
 62
               4
100
AcDbCircle
 10
13.999999999999986
 20
-20.999999999999986
 30
0.0
 40
8.9499999999999993
  0
CIRCLE
  5
193
100
AcDbEntity
  8
0
  6
CONTINUOUS
 62
               4
100
AcDbCircle
 10
13.999999999999986
 20
-1.9999999999999929
 30
0.0
 40
4.0499999999999998
  0
CIRCLE
  5
194
100
AcDbEntity
  8
0
  6
CONTINUOUS
 62
               4
100
AcDbCircle
 10
13.999999999999986
 20
-1.9999999999999929
 30
0.0
 40
5.0499999999999998
  0
ARC
  5
195
100
AcDbEntity
  8
0
  6
CONTINUOUS
 62
               4
100
AcDbCircle
 10
13.999999999999986
 20
-1.9999999999999929
 30
0.0
 40
8.4000000000000004
100
AcDbArc
 50
187.18484031495382
 51
352.81515968504499
  0
ARC
  5
196
100
AcDbEntity
  8
0
  6
CONTINUOUS
 62
               4
100
AcDbCircle
 10
13.999999999999986
 20
-1.9999999999999929
 30
0.0
 40
8.4000000000000004
100
AcDbArc
 50
7.1848403149542479
 51
172.81515968504539
  0
CIRCLE
  5
197
100
AcDbEntity
  8
0
  6
CONTINUOUS
 62
               4
100
AcDbCircle
 10
13.999999999999986
 20
-1.9999999999999929
 30
0.0
 40
8.9499999999999993
  0
ARC
  5
198
100
AcDbEntity
  8
0
  6
CONTINUOUS
 62
               4
100
AcDbCircle
 10
20.5
 20
8.4999990463256836
 30
0.0
 40
3.0
100
AcDbArc
 50
89.999982013910454
 51
269.99994604173139
  0
ARC
  5
199
100
AcDbEntity
  8
0
  6
CONTINUOUS
 62
               4
100
AcDbCircle
 10
7.499996829088559
 20
-31.499999999999993
 30
0.0
 40
3.0
100
AcDbArc
 50
270.00001798608872
 51
89.999982013910454
  0
CIRCLE
  5
19A
100
AcDbEntity
  8
0
  6
CONTINUOUS
 62
               4
100
AcDbCircle
 10
7.5
 20
10.5
 30
0.0
 40
2.75
  0
CIRCLE
  5
19B
100
AcDbEntity
  8
0
  6
CONTINUOUS
 62
               4
100
AcDbCircle
 10
20.499997138977051
 20
-33.499999999999993
 30
0.0
 40
2.75
  0
ARC
  5
19C
100
AcDbEntity
  8
0
  6
CONTINUOUS
 62
               4
100
AcDbCircle
 10
7.5
 20
10.5
 30
0.0
 40
3.0
100
AcDbArc
 50
270.00001798608872
 51
0.00001366037834
  0
ARC
  5
19D
100
AcDbEntity
  8
0
  6
CONTINUOUS
 62
               4
100
AcDbCircle
 10
20.499997138977051
 20
-33.499999999999993
 30
0.0
 40
3.0
100
AcDbArc
 50
89.999982013910454
 51
179.99996402782091
  0
LINE
  5
19E
100
AcDbEntity
  8
0
  6
CONTINUOUS
 62
               2
100
AcDbLine
 10
4.4999990463256836
 20
-1.9999999999999929
 30
0.0
 11
23.499999046325684
 21
-1.9999999999999929
 31
0.0
  0
LINE
  5
19F
100
AcDbEntity
  8
0
  6
CONTINUOUS
 62
               4
100
AcDbLine
 10
23.0
 20
11.499998807907104
 30
0.0
 11
23.0
 21
14.79999828338623
 31
0.0
  0
LINE
  5
1A0
100
AcDbEntity
  8
0
  6
CONTINUOUS
 62
               4
100
AcDbLine
 10
5.0
 20
-28.499999999999993
 30
0.0
 11
5.0
 21
9.3543567657470703
 31
0.0
  0
LINE
  5
1A1
100
AcDbEntity
  8
0
  6
CONTINUOUS
 62
               4
100
AcDbLine
 10
20.5
 20
11.5
 30
0.0
 11
23.0
 21
11.5
 31
0.0
  0
LINE
  5
1A2
100
AcDbEntity
  8
0
  6
CONTINUOUS
 62
               4
100
AcDbLine
 10
20.5
 20
5.5
 30
0.0
 11
23.0
 21
5.5
 31
0.0
  0
LINE
  5
1A3
100
AcDbEntity
  8
0
  6
CONTINUOUS
 62
               4
100
AcDbLine
 10
4.9999971389770508
 20
-28.499999999999993
 30
0.0
 11
7.4999970555818436
 21
-28.499999999999993
 31
0.0
  0
LINE
  5
1A4
100
AcDbEntity
  8
0
  6
CONTINUOUS
 62
               4
100
AcDbLine
 10
4.9999971389770508
 20
-34.499999999999993
 30
0.0
 11
7.499996602594365
 21
-34.499999999999993
 31
0.0
  0
LINE
  5
1A5
100
AcDbEntity
  8
0
  6
CONTINUOUS
 62
               4
100
AcDbLine
 10
5.0
 20
11.645644187927246
 30
0.0
 11
5.0
 21
14.799999237060547
 31
0.0
  0
LINE
  5
1A6
100
AcDbEntity
  8
0
  6
CONTINUOUS
 62
               4
100
AcDbLine
 10
23.0
 20
-32.35435485839843
 30
0.0
 11
23.0
 21
5.4999990463256836
 31
0.0
  0
LINE
  5
1A7
100
AcDbEntity
  8
0
  6
CONTINUOUS
 62
               4
100
AcDbLine
 10
19.439341461484219
 20
-34.560655317970479
 30
0.0
 11
21.560661947552944
 21
-32.439335010715688
 31
0.0
  0
LINE
  5
1A8
100
AcDbEntity
  8
0
  6
CONTINUOUS
 62
               4
100
AcDbLine
 10
6.4393399581148856
 20
9.4393396452233418
 30
0.0
 11
8.5606604441836112
 21
11.560659952478133
 31
0.0
  0
LINE
  5
1A9
100
AcDbEntity
  8
0
  6
CONTINUOUS
 62
               4
100
AcDbLine
 10
8.5606581767897865
 20
9.4393377801285112
 30
0.0
 11
6.4393380483489295
 21
11.560658445011171
 31
0.0
  0
LINE
  5
1AA
100
AcDbEntity
  8
0
  6
CONTINUOUS
 62
               4
100
AcDbLine
 10
21.560658059816888
 20
-34.560656592602747
 30
0.0
 11
19.439337931376031
 21
-32.439335927720087
 31
0.0
  0
LINE
  5
1AB
100
AcDbEntity
  8
0
  6
CONTINUOUS
 62
               4
100
AcDbLine
 10
5.0
 20
7.5
 30
0.0
 11
7.4999997735063175
 21
7.5
 31
0.0
  0
LINE
  5
1AC
100
AcDbEntity
  8
0
  6
CONTINUOUS
 62
               4
100
AcDbLine
 10
10.5
 20
10.499999773506318
 30
0.0
 11
10.5
 21
14.799999237060547
 31
0.0
  0
LINE
  5
1AD
100
AcDbEntity
  8
0
  6
CONTINUOUS
 62
               4
100
AcDbLine
 10
17.5
 20
-37.799987792968743
 30
0.0
 11
17.5
 21
-33.499999999999993
 31
0.0
  0
LINE
  5
1AE
100
AcDbEntity
  8
0
  6
CONTINUOUS
 62
               4
100
AcDbLine
 10
20.499997138977051
 20
-30.499999999999993
 30
0.0
 11
22.999997138977051
 21
-30.499999999999993
 31
0.0
  0
LINE
  5
1AF
100
AcDbEntity
  8
0
  6
CONTINUOUS
 62
               2
100
AcDbLine
 10
14.0
 20
-39.385559082031243
 30
0.0
 11
14.0
 21
16.42935848236084
 31
0.0
  0
LINE
  5
1B0
100
AcDbEntity
  8
0
  6
CONTINUOUS
 62
               4
100
AcDbLine
 10
4.9999971389770508
 20
-37.799987792968743
 30
0.0
 11
22.999996185302734
 21
-37.799987792968743
 31
0.0
  0
LINE
  5
1B1
100
AcDbEntity
  8
0
  6
CONTINUOUS
 62
               4
100
AcDbLine
 10
5.0000009536743164
 20
14.799999237060547
 30
0.0
 11
23.0
 21
14.799999237060547
 31
0.0
  0
LINE
  5
1B2
100
AcDbEntity
  8
0
  6
CONTINUOUS
 62
               4
100
AcDbLine
 10
5.0
 20
-37.799987792968743
 30
0.0
 11
5.0
 21
-34.499999999999993
 31
0.0
  0
LINE
  5
1B3
100
AcDbEntity
  8
0
  6
CONTINUOUS
 62
               4
100
AcDbLine
 10
23.0
 20
-37.799987792968743
 30
0.0
 11
23.0
 21
-34.645645141601555
 31
0.0
  0
LINE
  5
1B4
100
AcDbEntity
  8
0
  6
CONTINUOUS
 62
             200
100
AcDbLine
 10
9.9999960784962241
 20
86.481740259841899
 30
0.0
 11
14.000004290258403
 21
87.553539238884696
 31
0.0
  0
LINE
  5
1B5
100
AcDbEntity
  8
0
  6
CONTINUOUS
 62
             200
100
AcDbLine
 10
10.00000077167806
 20
85.446465350345534
 30
0.0
 11
13.999994244582012
 21
86.518260380123138
 31
0.0
  0
LINE
  5
1B6
100
AcDbEntity
  8
0
  6
CONTINUOUS
 62
               4
100
AcDbLine
 10
62.0
 20
26.500015258789063
 30
0.0
 11
80.0
 21
26.500015258789063
 31
0.0
  0
CIRCLE
  5
1B7
100
AcDbEntity
  8
0
  6
CONTINUOUS
 62
               4
100
AcDbCircle
 10
20.5
 20
8.5
 30
0.0
 40
2.9499998092651367
  0
CIRCLE
  5
1B8
100
AcDbEntity
  8
0
  6
CONTINUOUS
 62
               4
100
AcDbCircle
 10
7.5000152587890625
 20
-31.499984741210938
 30
0.0
 40
2.9499998092651367
  0
ARC
  5
1B9
100
AcDbEntity
  8
0
  6
CONTINUOUS
 62
               7
100
AcDbCircle
 10
13.899993896484375
 20
35.199996948242187
 30
0.0
 40
3.0
100
AcDbArc
 50
271.91023065164455
 51
0.0
  0
ARC
  5
1BA
100
AcDbEntity
  8
0
  6
CONTINUOUS
 62
               7
100
AcDbCircle
 10
14.0
 20
35.199996948242187
 30
0.0
 40
3.0
100
AcDbArc
 50
266.17746163595609
 51
3.822566595416411
  0
ARC
  5
1BB
100
AcDbEntity
  8
0
  6
CONTINUOUS
 62
               7
100
AcDbCircle
 10
14.099990844726563
 20
35.199996948242187
 30
0.0
 40
3.0
100
AcDbArc
 50
268.089805320533
 51
0.0
  0
CIRCLE
  5
1BC
100
AcDbEntity
  8
0
  6
CONTINUOUS
 62
               7
100
AcDbCircle
 10
85.0
 20
-23.000015258789063
 30
0.0
 40
2.25
  0
CIRCLE
  5
1BD
100
AcDbEntity
  8
0
  6
CONTINUOUS
 62
               7
100
AcDbCircle
 10
85.0
 20
0.0
 30
0.0
 40
2.25
  0
CIRCLE
  5
1BE
100
AcDbEntity
  8
0
  6
CONTINUOUS
 62
               7
100
AcDbCircle
 10
0.0
 20
-23.000015258789063
 30
0.0
 40
2.25
  0
CIRCLE
  5
1BF
100
AcDbEntity
  8
0
  6
CONTINUOUS
 62
               7
100
AcDbCircle
 10
0.0
 20
0.0
 30
0.0
 40
2.25
  0
CIRCLE
  5
1C0
100
AcDbEntity
  8
0
  6
CONTINUOUS
 62
               4
100
AcDbCircle
 10
7.5000152587890625
 20
-31.499984741210938
 30
0.0
 40
2.7999992370605469
  0
CIRCLE
  5
1C1
100
AcDbEntity
  8
0
  6
CONTINUOUS
 62
               7
100
AcDbCircle
 10
20.5
 20
8.5
 30
0.0
 40
2.7999992370605469
  0
CIRCLE
  5
1C2
100
AcDbEntity
  8
0
  6
CONTINUOUS
 62
               4
100
AcDbCircle
 10
77.5
 20
8.5
 30
0.0
 40
2.7999992370605469
  0
CIRCLE
  5
1C3
100
AcDbEntity
  8
0
  6
CONTINUOUS
 62
               4
100
AcDbCircle
 10
64.500015258789063
 20
-31.499984741210938
 30
0.0
 40
2.7999992370605469
  0
ARC
  5
1C4
100
AcDbEntity
  8
0
  6
CONTINUOUS
 62
               4
100
AcDbCircle
 10
9.5500030517578125
 20
71.000015258789063
 30
0.0
 40
0.5
100
AcDbArc
 50
89.999982013910454
 51
179.99996402782091
  0
ARC
  5
1C5
100
AcDbEntity
  8
0
  6
CONTINUOUS
 62
               4
100
AcDbCircle
 10
18.449996948242188
 20
71.000015258789063
 30
0.0
 40
0.5
100
AcDbArc
 50
359.99994535848583
 51
89.999982013910454
  0
CIRCLE
  5
1C6
100
AcDbEntity
  8
0
  6
CONTINUOUS
 62
               7
100
AcDbCircle
 10
14.0
 20
35.199996948242187
 30
0.0
 40
1.9499998092651367
  0
CIRCLE
  5
1C7
100
AcDbEntity
  8
0
  6
CONTINUOUS
 62
               7
100
AcDbCircle
 10
14.0
 20
35.199996948242187
 30
0.0
 40
2.0
  0
ARC
  5
1C8
100
AcDbEntity
  8
0
  6
CONTINUOUS
 62
               7
100
AcDbCircle
 10
20.000045776367188
 20
28.00006103515625
 30
0.0
 40
2.5000734329223633
100
AcDbArc
 50
191.53819257481075
 51
319.45922093609187
  0
ARC
  5
1C9
100
AcDbEntity
  8
0
  6
CONTINUOUS
 62
               7
100
AcDbCircle
 10
5.5
 20
-60.499992370605469
 30
0.0
 40
0.5
100
AcDbArc
 50
180.0000359721783
 51
269.99996334457541
  0
ARC
  5
1CA
100
AcDbEntity
  8
0
  6
CONTINUOUS
 62
               7
100
AcDbCircle
 10
22.5
 20
-60.5
 30
0.0
 40
0.5
100
AcDbArc
 50
270.00001798608872
 51
0.00001366037834
  0
LINE
  5
1CB
100
AcDbEntity
  8
0
  6
CONTINUOUS
 62
               7
100
AcDbLine
 10
22.999994316488582
 20
24.99999543061756
 30
0.0
 11
21.00000234173234
 21
27.499987164215327
 31
0.0
  0
LINE
  5
1CC
100
AcDbEntity
  8
0
  6
CONTINUOUS
 62
               7
100
AcDbLine
 10
4.9999972266014083
 20
24.999999684674549
 30
0.0
 11
6.9999917938221188
 21
27.499992702872987
 31
0.0
  0
LINE
  5
1CD
100
AcDbEntity
  8
0
  6
CONTINUOUS
 62
               7
100
AcDbLine
 10
7.0
 20
27.5
 30
0.0
 11
21.0
 21
27.5
 31
0.0
  0
LINE
  5
1CE
100
AcDbEntity
  8
0
  6
CONTINUOUS
 62
               7
100
AcDbLine
 10
13.999981980663506
 20
32.199987078614868
 30
0.0
 11
14.999984033604051
 21
31.932037395561565
 31
0.0
  0
LINE
  5
1CF
100
AcDbEntity
  8
0
  6
CONTINUOUS
 62
               7
100
AcDbLine
 10
14.0
 20
31.699996948242187
 30
0.0
 11
14.0
 21
32.699996948242188
 31
0.0
  0
LINE
  5
1D0
100
AcDbEntity
  8
0
  6
CONTINUOUS
 62
               7
100
AcDbLine
 10
16.5
 20
35.199996948242187
 30
0.0
 11
17.5
 21
35.199996948242187
 31
0.0
  0
LINE
  5
1D1
100
AcDbEntity
  8
0
  6
CONTINUOUS
 62
               2
100
AcDbLine
 10
81.75
 20
0.0
 30
0.0
 11
88.25
 21
0.0
 31
0.0
  0
LINE
  5
1D2
100
AcDbEntity
  8
0
  6
CONTINUOUS
 62
               2
100
AcDbLine
 10
85.0
 20
-3.25
 30
0.0
 11
85.0
 21
3.25
 31
0.0
  0
LINE
  5
1D3
100
AcDbEntity
  8
0
  6
CONTINUOUS
 62
               2
100
AcDbLine
 10
0.0
 20
-3.25
 30
0.0
 11
0.0
 21
3.25
 31
0.0
  0
LINE
  5
1D4
100
AcDbEntity
  8
0
  6
CONTINUOUS
 62
               2
100
AcDbLine
 10
81.75
 20
-23.000015258789063
 30
0.0
 11
88.25
 21
-23.000015258789063
 31
0.0
  0
LINE
  5
1D5
100
AcDbEntity
  8
0
  6
CONTINUOUS
 62
               2
100
AcDbLine
 10
-3.25
 20
0.0
 30
0.0
 11
3.25
 21
0.0
 31
0.0
  0
LINE
  5
1D6
100
AcDbEntity
  8
0
  6
CONTINUOUS
 62
               2
100
AcDbLine
 10
-3.25
 20
-23.000015258789063
 30
0.0
 11
3.25
 21
-23.000015258789063
 31
0.0
  0
LINE
  5
1D7
100
AcDbEntity
  8
0
  6
CONTINUOUS
 62
               2
100
AcDbLine
 10
85.0
 20
-26.250015258789063
 30
0.0
 11
85.0
 21
-19.750015258789063
 31
0.0
  0
LINE
  5
1D8
100
AcDbEntity
  8
0
  6
CONTINUOUS
 62
               2
100
AcDbLine
 10
0.0
 20
-26.250015258789063
 30
0.0
 11
0.0
 21
-19.750015258789063
 31
0.0
  0
LINE
  5
1D9
100
AcDbEntity
  8
0
  6
CONTINUOUS
 62
               7
100
AcDbLine
 10
61.0
 20
-46.500003814697266
 30
0.0
 11
90.0
 21
-46.500003814697266
 31
0.0
  0
LINE
  5
1DA
100
AcDbEntity
  8
0
  6
CONTINUOUS
 62
               7
100
AcDbLine
 10
42.0
 20
-46.500003814697266
 30
0.0
 11
43.0
 21
-46.500003814697266
 31
0.0
  0
LINE
  5
1DB
100
AcDbEntity
  8
0
  6
CONTINUOUS
 62
               7
100
AcDbLine
 10
23.0
 20
-46.500003814697266
 30
0.0
 11
24.0
 21
-46.500003814697266
 31
0.0
  0
LINE
  5
1DC
100
AcDbEntity
  8
0
  6
CONTINUOUS
 62
               7
100
AcDbLine
 10
80.0
 20
-36.5
 30
0.0
 11
90.0
 21
-36.5
 31
0.0
  0
LINE
  5
1DD
100
AcDbEntity
  8
0
  6
CONTINUOUS
 62
               4
100
AcDbLine
 10
61.0
 20
-36.5
 30
0.0
 11
62.0
 21
-36.5
 31
0.0
  0
LINE
  5
1DE
100
AcDbEntity
  8
0
  6
CONTINUOUS
 62
               7
100
AcDbLine
 10
42.0
 20
-36.5
 30
0.0
 11
43.0
 21
-36.5
 31
0.0
  0
LINE
  5
1DF
100
AcDbEntity
  8
0
  6
CONTINUOUS
 62
               7
100
AcDbLine
 10
23.0
 20
-36.5
 30
0.0
 11
24.0
 21
-36.5
 31
0.0
  0
LINE
  5
1E0
100
AcDbEntity
  8
0
  6
CONTINUOUS
 62
               7
100
AcDbLine
 10
57.0
 20
28.5
 30
0.0
 11
90.0
 21
28.5
 31
0.0
  0
LINE
  5
1E1
100
AcDbEntity
  8
0
  6
CONTINUOUS
 62
               7
100
AcDbLine
 10
38.0
 20
28.5
 30
0.0
 11
47.0
 21
28.5
 31
0.0
  0
LINE
  5
1E2
100
AcDbEntity
  8
0
  6
CONTINUOUS
 62
               7
100
AcDbLine
 10
19.0
 20
28.5
 30
0.0
 11
28.0
 21
28.5
 31
0.0
  0
LINE
  5
1E3
100
AcDbEntity
  8
0
  6
CONTINUOUS
 62
               7
100
AcDbLine
 10
-5.0
 20
-36.5
 30
0.0
 11
5.0
 21
-36.5
 31
0.0
  0
LINE
  5
1E4
100
AcDbEntity
  8
0
  6
CONTINUOUS
 62
               7
100
AcDbLine
 10
-5.0
 20
28.5
 30
0.0
 11
9.0
 21
28.5
 31
0.0
  0
LINE
  5
1E5
100
AcDbEntity
  8
0
  6
CONTINUOUS
 62
               7
100
AcDbLine
 10
-5.0
 20
-46.500003814697266
 30
0.0
 11
5.0
 21
-46.500003814697266
 31
0.0
  0
LINE
  5
1E6
100
AcDbEntity
  8
0
  6
CONTINUOUS
 62
               7
100
AcDbLine
 10
90.0
 20
-46.500003814697266
 30
0.0
 11
90.0
 21
28.5
 31
0.0
  0
LINE
  5
1E7
100
AcDbEntity
  8
0
  6
CONTINUOUS
 62
               7
100
AcDbLine
 10
-5.0
 20
-46.500003814697266
 30
0.0
 11
-5.0
 21
28.5
 31
0.0
  0
LINE
  5
1E8
100
AcDbEntity
  8
0
  6
CONTINUOUS
 62
               4
100
AcDbLine
 10
79.762191772460938
 20
6.850006103515625
 30
0.0
 11
80.0
 21
6.850006103515625
 31
0.0
  0
LINE
  5
1E9
100
AcDbEntity
  8
0
  6
CONTINUOUS
 62
               4
100
AcDbLine
 10
79.762176513671875
 20
10.150009155273437
 30
0.0
 11
80.0
 21
10.150009155273437
 31
0.0
  0
LINE
  5
1EA
100
AcDbEntity
  8
0
  6
CONTINUOUS
 62
               4
100
AcDbLine
 10
62.0
 20
-33.149993896484375
 30
0.0
 11
62.237823486328125
 21
-33.149993896484375
 31
0.0
  0
LINE
  5
1EB
100
AcDbEntity
  8
0
  6
CONTINUOUS
 62
               4
100
AcDbLine
 10
62.0
 20
-29.849990844726563
 30
0.0
 11
62.237823486328125
 21
-29.849990844726563
 31
0.0
  0
LINE
  5
1EC
100
AcDbEntity
  8
0
  6
CONTINUOUS
 62
               4
100
AcDbLine
 10
62.0
 20
-38.499984741210937
 30
0.0
 11
80.0
 21
-38.499984741210937
 31
0.0
  0
LINE
  5
1ED
100
AcDbEntity
  8
0
  6
CONTINUOUS
 62
               7
100
AcDbLine
 10
23.0
 20
14.79998779296875
 30
0.0
 11
23.0
 21
25.0
 31
0.0
  0
LINE
  5
1EE
100
AcDbEntity
  8
0
  6
CONTINUOUS
 62
               7
100
AcDbLine
 10
5.0
 20
-60.5
 30
0.0
 11
5.0
 21
-37.800003051757813
 31
0.0
  0
LINE
  5
1EF
100
AcDbEntity
  8
0
  6
CONTINUOUS
 62
               4
100
AcDbLine
 10
6.4393578829030957
 20
-32.560653113321678
 30
0.0
 11
8.5606783689718213
 21
-30.439332806066886
 31
0.0
  0
LINE
  5
1F0
100
AcDbEntity
  8
0
  6
CONTINUOUS
 62
               4
100
AcDbLine
 10
6.4393579723118819
 20
-30.439289558285964
 30
0.0
 11
8.5606782795666732
 21
-32.560610044354689
 31
0.0
  0
LINE
  5
1F1
100
AcDbEntity
  8
0
  6
CONTINUOUS
 62
               4
100
AcDbLine
 10
19.439384796351078
 20
9.5606785161053267
 30
0.0
 11
21.560705103605869
 21
7.4393580300366011
 31
0.0
  0
LINE
  5
1F2
100
AcDbEntity
  8
0
  6
CONTINUOUS
 62
               4
100
AcDbLine
 10
19.439363127756224
 20
7.4393365402575
 30
0.0
 11
21.560672824231006
 21
9.5606460579192571
 31
0.0
  0
LINE
  5
1F3
100
AcDbEntity
  8
0
  6
CONTINUOUS
 62
               4
100
AcDbLine
 10
80.0
 20
-38.499984741210937
 30
0.0
 11
80.0
 21
6.850006103515625
 31
0.0
  0
LINE
  5
1F4
100
AcDbEntity
  8
0
  6
CONTINUOUS
 62
               7
100
AcDbLine
 10
5.0
 20
14.79998779296875
 30
0.0
 11
5.0
 21
25.0
 31
0.0
  0
LINE
  5
1F5
100
AcDbEntity
  8
0
  6
CONTINUOUS
 62
               4
100
AcDbLine
 10
80.0
 20
10.150009155273437
 30
0.0
 11
80.0
 21
26.500015258789063
 31
0.0
  0
LINE
  5
1F6
100
AcDbEntity
  8
0
  6
CONTINUOUS
 62
               4
100
AcDbLine
 10
62.0
 20
-29.849990844726563
 30
0.0
 11
62.0
 21
26.500015258789063
 31
0.0
  0
LINE
  5
1F7
100
AcDbEntity
  8
0
  6
CONTINUOUS
 62
               4
100
AcDbLine
 10
76.439415340545565
 20
9.5606869033272233
 30
0.0
 11
78.560735647800357
 21
7.4393664172584977
 31
0.0
  0
LINE
  5
1F8
100
AcDbEntity
  8
0
  6
CONTINUOUS
 62
               4
100
AcDbLine
 10
76.43936130316979
 20
7.4393341378872719
 30
0.0
 11
78.560681789238515
 21
9.5606544451420632
 31
0.0
  0
LINE
  5
1F9
100
AcDbEntity
  8
0
  6
CONTINUOUS
 62
               4
100
AcDbLine
 10
63.439388516506369
 20
-30.439281171064067
 30
0.0
 11
65.560708823761161
 21
-32.560601657132793
 31
0.0
  0
LINE
  5
1FA
100
AcDbEntity
  8
0
  6
CONTINUOUS
 62
               4
100
AcDbLine
 10
63.439366847909696
 20
-32.560666305285849
 30
0.0
 11
65.560676544384478
 21
-30.439356787624092
 31
0.0
  0
LINE
  5
1FB
100
AcDbEntity
  8
0
  6
CONTINUOUS
 62
               4
100
AcDbLine
 10
62.0
 20
-38.499984741210937
 30
0.0
 11
62.0
 21
-33.149993896484375
 31
0.0
  0
LINE
  5
1FC
100
AcDbEntity
  8
0
  6
CONTINUOUS
 62
               7
100
AcDbLine
 10
23.0
 20
-60.500007629394531
 30
0.0
 11
23.0
 21
-37.800003051757813
 31
0.0
  0
LINE
  5
1FD
100
AcDbEntity
  8
0
  6
CONTINUOUS
 62
               7
100
AcDbLine
 10
5.0
 20
25.0
 30
0.0
 11
23.0
 21
25.0
 31
0.0
  0
LINE
  5
1FE
100
AcDbEntity
  8
0
  6
CONTINUOUS
 62
               4
100
AcDbLine
 10
18.0
 20
76.0
 30
0.0
 11
18.0
 21
82.5
 31
0.0
  0
LINE
  5
1FF
100
AcDbEntity
  8
0
  6
CONTINUOUS
 62
               4
100
AcDbLine
 10
10.0
 20
76.0
 30
0.0
 11
10.0
 21
82.5
 31
0.0
  0
LINE
  5
200
100
AcDbEntity
  8
0
  6
CONTINUOUS
 62
               4
100
AcDbLine
 10
9.100006103515625
 20
76.0
 30
0.0
 11
9.100006103515625
 21
82.5
 31
0.0
  0
LINE
  5
201
100
AcDbEntity
  8
0
  6
CONTINUOUS
 62
               4
100
AcDbLine
 10
18.900009155273438
 20
76.0
 30
0.0
 11
18.900009155273438
 21
82.5
 31
0.0
  0
LINE
  5
202
100
AcDbEntity
  8
0
  6
CONTINUOUS
 62
               4
100
AcDbLine
 10
9.0
 20
38.5
 30
0.0
 11
9.0
 21
62.5
 31
0.0
  0
LINE
  5
203
100
AcDbEntity
  8
0
  6
CONTINUOUS
 62
               4
100
AcDbLine
 10
19.0
 20
38.5
 30
0.0
 11
19.0
 21
62.5
 31
0.0
  0
LINE
  5
204
100
AcDbEntity
  8
0
  6
CONTINUOUS
 62
               4
100
AcDbLine
 10
11.284988403320313
 20
82.5
 30
0.0
 11
11.284988403320313
 21
85.790786743164063
 31
0.0
  0
LINE
  5
205
100
AcDbEntity
  8
0
  6
CONTINUOUS
 62
               4
100
AcDbLine
 10
12.715011596679687
 20
82.5
 30
0.0
 11
12.715011596679687
 21
86.1739501953125
 31
0.0
  0
LINE
  5
206
100
AcDbEntity
  8
0
  6
CONTINUOUS
 62
               4
100
AcDbLine
 10
11.599990844726563
 20
95.5
 30
0.0
 11
12.399993896484375
 21
95.5
 31
0.0
  0
LINE
  5
207
100
AcDbEntity
  8
0
  6
CONTINUOUS
 62
               4
100
AcDbLine
 10
11.599990844726563
 20
90.5
 30
0.0
 11
11.599990844726563
 21
95.5
 31
0.0
  0
LINE
  5
208
100
AcDbEntity
  8
0
  6
CONTINUOUS
 62
               4
100
AcDbLine
 10
12.400009155273438
 20
90.5
 30
0.0
 11
12.400009155273438
 21
95.5
 31
0.0
  0
LINE
  5
209
100
AcDbEntity
  8
0
  6
CONTINUOUS
 62
               4
100
AcDbLine
 10
11.284988403320313
 20
90.5
 30
0.0
 11
12.714996337890625
 21
90.5
 31
0.0
  0
LINE
  5
20A
100
AcDbEntity
  8
0
  6
CONTINUOUS
 62
               4
100
AcDbLine
 10
11.284988403320313
 20
86.8260498046875
 30
0.0
 11
11.284988403320313
 21
90.5
 31
0.0
  0
LINE
  5
20B
100
AcDbEntity
  8
0
  6
CONTINUOUS
 62
               4
100
AcDbLine
 10
12.715011596679687
 20
87.209228515625
 30
0.0
 11
12.715011596679687
 21
90.5
 31
0.0
  0
LINE
  5
20C
100
AcDbEntity
  8
0
  6
CONTINUOUS
 62
               4
100
AcDbLine
 10
18.050003051757813
 20
75.0
 30
0.0
 11
18.050003051757813
 21
76.0
 31
0.0
  0
LINE
  5
20D
100
AcDbEntity
  8
0
  6
CONTINUOUS
 62
               4
100
AcDbLine
 10
9.9499969482421875
 20
75.0
 30
0.0
 11
9.9499969482421875
 21
76.0
 31
0.0
  0
LINE
  5
20E
100
AcDbEntity
  8
0
  6
CONTINUOUS
 62
               4
100
AcDbLine
 10
9.9499969482421875
 20
74.0
 30
0.0
 11
10.500015258789062
 21
74.0
 31
0.0
  0
LINE
  5
20F
100
AcDbEntity
  8
0
  6
CONTINUOUS
 62
               4
100
AcDbLine
 10
9.9499969482421875
 20
75.0
 30
0.0
 11
10.500015258789062
 21
75.0
 31
0.0
  0
LINE
  5
210
100
AcDbEntity
  8
0
  6
CONTINUOUS
 62
               4
100
AcDbLine
 10
17.500015258789063
 20
74.0
 30
0.0
 11
18.050003051757813
 21
74.0
 31
0.0
  0
LINE
  5
211
100
AcDbEntity
  8
0
  6
CONTINUOUS
 62
               4
100
AcDbLine
 10
17.500015258789063
 20
75.0
 30
0.0
 11
18.050003051757813
 21
75.0
 31
0.0
  0
LINE
  5
212
100
AcDbEntity
  8
0
  6
CONTINUOUS
 62
               4
100
AcDbLine
 10
17.500015258789063
 20
76.0
 30
0.0
 11
18.949996948242188
 21
76.0
 31
0.0
  0
LINE
  5
213
100
AcDbEntity
  8
0
  6
CONTINUOUS
 62
               4
100
AcDbLine
 10
9.100006103515625
 20
82.5
 30
0.0
 11
18.900009155273438
 21
82.5
 31
0.0
  0
LINE
  5
214
100
AcDbEntity
  8
0
  6
CONTINUOUS
 62
               4
100
AcDbLine
 10
10.500015258789062
 20
81.0
 30
0.0
 11
17.500015258789063
 21
81.0
 31
0.0
  0
LINE
  5
215
100
AcDbEntity
  8
0
  6
CONTINUOUS
 62
               4
100
AcDbLine
 10
10.500015258789062
 20
75.55615234375
 30
0.0
 11
17.500015258789063
 21
75.55615234375
 31
0.0
  0
LINE
  5
216
100
AcDbEntity
  8
0
  6
CONTINUOUS
 62
               4
100
AcDbLine
 10
10.500015258789062
 20
71.99847412109375
 30
0.0
 11
17.500015258789063
 21
71.99847412109375
 31
0.0
  0
LINE
  5
217
100
AcDbEntity
  8
0
  6
CONTINUOUS
 62
               4
100
AcDbLine
 10
10.5
 20
71.99847412109375
 30
0.0
 11
10.5
 21
82.5
 31
0.0
  0
LINE
  5
218
100
AcDbEntity
  8
0
  6
CONTINUOUS
 62
               4
100
AcDbLine
 10
17.5
 20
71.99847412109375
 30
0.0
 11
17.5
 21
82.5
 31
0.0
  0
LINE
  5
219
100
AcDbEntity
  8
0
  6
CONTINUOUS
 62
               4
100
AcDbLine
 10
18.050003051757813
 20
71.5
 30
0.0
 11
18.050003051757813
 21
74.0
 31
0.0
  0
LINE
  5
21A
100
AcDbEntity
  8
0
  6
CONTINUOUS
 62
               4
100
AcDbLine
 10
9.9499969482421875
 20
71.5
 30
0.0
 11
9.9499969482421875
 21
74.0
 31
0.0
  0
LINE
  5
21B
100
AcDbEntity
  8
0
  6
CONTINUOUS
 62
               4
100
AcDbLine
 10
9.0500030517578125
 20
76.0
 30
0.0
 11
10.500015258789062
 21
76.0
 31
0.0
  0
LINE
  5
21C
100
AcDbEntity
  8
0
  6
CONTINUOUS
 62
               4
100
AcDbLine
 10
18.949996948242188
 20
62.5
 30
0.0
 11
18.949996948242188
 21
76.0
 31
0.0
  0
LINE
  5
21D
100
AcDbEntity
  8
0
  6
CONTINUOUS
 62
             200
100
AcDbLine
 10
18.949996948242188
 20
67.000015258789062
 30
0.0
 11
9.0500030517578125
 21
67.000015258789062
 31
0.0
  0
LINE
  5
21E
100
AcDbEntity
  8
0
  6
CONTINUOUS
 62
               4
100
AcDbLine
 10
18.500015258789063
 20
71.500015258789063
 30
0.0
 11
9.5000152587890625
 21
71.500015258789063
 31
0.0
  0
LINE
  5
21F
100
AcDbEntity
  8
0
  6
CONTINUOUS
 62
               4
100
AcDbLine
 10
9.0500030517578125
 20
62.5
 30
0.0
 11
9.0500030517578125
 21
76.0
 31
0.0
  0
LINE
  5
220
100
AcDbEntity
  8
0
  6
CONTINUOUS
 62
               7
100
AcDbLine
 10
12.073211669921875
 20
35.5
 30
0.0
 11
15.926788330078125
 21
35.5
 31
0.0
  0
LINE
  5
221
100
AcDbEntity
  8
0
  6
CONTINUOUS
 62
               7
100
AcDbLine
 10
12.073211669921875
 20
34.899993896484375
 30
0.0
 11
15.926788330078125
 21
34.899993896484375
 31
0.0
  0
LINE
  5
222
100
AcDbEntity
  8
0
  6
CONTINUOUS
 62
               4
100
AcDbLine
 10
9.0
 20
38.5
 30
0.0
 11
19.0
 21
38.5
 31
0.0
  0
LINE
  5
223
100
AcDbEntity
  8
0
  6
CONTINUOUS
 62
               4
100
AcDbLine
 10
9.0000152587890625
 20
62.500015258789063
 30
0.0
 11
19.000015258789063
 21
62.500015258789063
 31
0.0
  0
LINE
  5
224
100
AcDbEntity
  8
0
  6
CONTINUOUS
 62
               2
100
AcDbLine
 10
11.5
 20
35.199996948242187
 30
0.0
 11
16.5
 21
35.199996948242187
 31
0.0
  0
LINE
  5
225
100
AcDbEntity
  8
0
  6
CONTINUOUS
 62
               7
100
AcDbLine
 10
9.0
 20
29.0
 30
0.0
 11
19.0
 21
29.0
 31
0.0
  0
LINE
  5
226
100
AcDbEntity
  8
0
  6
CONTINUOUS
 62
               7
100
AcDbLine
 10
5.5
 20
-61.0
 30
0.0
 11
22.5
 21
-61.0
 31
0.0
  0
LINE
  5
227
100
AcDbEntity
  8
0
  6
CONTINUOUS
 62
               7
100
AcDbLine
 10
21.5
 20
-47.0
 30
0.0
 11
23.0
 21
-47.0
 31
0.0
  0
LINE
  5
228
100
AcDbEntity
  8
0
  6
CONTINUOUS
 62
               7
100
AcDbLine
 10
20.5
 20
-50.000015258789062
 30
0.0
 11
20.5
 21
-49.000007629394531
 31
0.0
  0
LINE
  5
229
100
AcDbEntity
  8
0
  6
CONTINUOUS
 62
               7
100
AcDbLine
 10
21.5
 20
-41.000015258789063
 30
0.0
 11
23.0
 21
-41.000015258789063
 31
0.0
  0
LINE
  5
22A
100
AcDbEntity
  8
0
  6
CONTINUOUS
 62
               7
100
AcDbLine
 10
20.5
 20
-39.0
 30
0.0
 11
20.5
 21
-38.000015258789062
 31
0.0
  0
LINE
  5
22B
100
AcDbEntity
  8
0
  6
CONTINUOUS
 62
               7
100
AcDbLine
 10
5.0
 20
-41.000015258789063
 30
0.0
 11
6.5
 21
-41.000015258789063
 31
0.0
  0
LINE
  5
22C
100
AcDbEntity
  8
0
  6
CONTINUOUS
 62
               7
100
AcDbLine
 10
7.5
 20
-39.0
 30
0.0
 11
7.5
 21
-38.000015258789062
 31
0.0
  0
LINE
  5
22D
100
AcDbEntity
  8
0
  6
CONTINUOUS
 62
               7
100
AcDbLine
 10
5.0
 20
-47.0
 30
0.0
 11
6.5
 21
-47.0
 31
0.0
  0
LINE
  5
22E
100
AcDbEntity
  8
0
  6
CONTINUOUS
 62
               7
100
AcDbLine
 10
7.5
 20
-50.000007629394531
 30
0.0
 11
7.5
 21
-49.0
 31
0.0
  0
LINE
  5
22F
100
AcDbEntity
  8
0
  6
CONTINUOUS
 62
               7
100
AcDbLine
 10
7.4999795648063809
 20
-47.999971868882312
 30
0.0
 11
6.4999835608941794
 21
-48.999956408963044
 31
0.0
  0
LINE
  5
230
100
AcDbEntity
  8
0
  6
CONTINUOUS
 62
               7
100
AcDbLine
 10
6.5000005853107723
 20
-38.999983346304361
 30
0.0
 11
7.4999997081431502
 21
-39.999986346650985
 31
0.0
  0
LINE
  5
231
100
AcDbEntity
  8
0
  6
CONTINUOUS
 62
               7
100
AcDbLine
 10
20.499872421867622
 20
-39.999907721875388
 30
0.0
 11
21.499872471931667
 21
-38.99990573305422
 31
0.0
  0
LINE
  5
232
100
AcDbEntity
  8
0
  6
CONTINUOUS
 62
               7
100
AcDbLine
 10
21.499984645754921
 20
-49.000019629705093
 30
0.0
 11
20.49998358416542
 21
-48.000018568115593
 31
0.0
  0
LINE
  5
233
100
AcDbEntity
  8
0
  6
CONTINUOUS
 62
               7
100
AcDbLine
 10
7.5
 20
-48.0
 30
0.0
 11
7.5
 21
-40.0
 31
0.0
  0
LINE
  5
234
100
AcDbEntity
  8
0
  6
CONTINUOUS
 62
               7
100
AcDbLine
 10
20.5
 20
-48.000007629394531
 30
0.0
 11
20.5
 21
-40.0
 31
0.0
  0
LINE
  5
235
100
AcDbEntity
  8
0
  6
CONTINUOUS
 62
               7
100
AcDbLine
 10
7.5
 20
-40.000015258789063
 30
0.0
 11
20.5
 21
-40.000015258789063
 31
0.0
  0
LINE
  5
236
100
AcDbEntity
  8
0
  6
CONTINUOUS
 62
               7
100
AcDbLine
 10
20.5
 20
-48.0
 30
0.0
 11
7.5
 21
-48.0
 31
0.0
  0
LINE
  5
237
100
AcDbEntity
  8
0
  6
CONTINUOUS
 62
               7
100
AcDbLine
 10
6.5
 20
-39.000015258789063
 30
0.0
 11
21.5
 21
-39.000015258789063
 31
0.0
  0
LINE
  5
238
100
AcDbEntity
  8
0
  6
CONTINUOUS
 62
               7
100
AcDbLine
 10
6.5
 20
-49.0
 30
0.0
 11
6.5
 21
-39.0
 31
0.0
  0
LINE
  5
239
100
AcDbEntity
  8
0
  6
CONTINUOUS
 62
               7
100
AcDbLine
 10
21.5
 20
-49.000007629394531
 30
0.0
 11
21.5
 21
-39.0
 31
0.0
  0
LINE
  5
23A
100
AcDbEntity
  8
0
  6
CONTINUOUS
 62
               7
100
AcDbLine
 10
21.5
 20
-49.0
 30
0.0
 11
6.5
 21
-49.0
 31
0.0
  0
LINE
  5
23B
100
AcDbEntity
  8
0
  6
CONTINUOUS
 62
               7
100
AcDbLine
 10
5.0
 20
-50.0
 30
0.0
 11
23.0
 21
-50.0
 31
0.0
  0
LINE
  5
23C
100
AcDbEntity
  8
0
  6
CONTINUOUS
 62
               7
100
AcDbLine
 10
5.0
 20
-38.000015258789062
 30
0.0
 11
23.0
 21
-38.000015258789062
 31
0.0
  0
LINE
  5
23D
100
AcDbEntity
  8
0
  6
CONTINUOUS
 62
               7
100
AcDbLine
 10
5.0
 20
15.0
 30
0.0
 11
23.0
 21
15.0
 31
0.0
  0
LINE
  5
23E
100
AcDbEntity
  8
0
  6
CONTINUOUS
 62
               2
100
AcDbLine
 10
71.0
 20
-42.172622680664063
 30
0.0
 11
71.0
 21
32.160720825195312
 31
0.0
  0
LINE
  5
23F
100
AcDbEntity
  8
0
  6
CONTINUOUS
 62
               4
100
AcDbLine
 10
60.999984741210937
 20
-37.800014495849609
 30
0.0
 11
60.999984741210937
 21
-34.645671844482422
 31
0.0
  0
ENDBLK
  5
240
100
AcDbEntity
  8
0
100
AcDbBlockEnd
  0
BLOCK
  5
241
100
AcDbEntity
  8
0
100
AcDbBlockBegin
  2
F18MF-2
 70
               0
 10
0.0
 20
0.0
 30
0.0
  3
F18MF-2
  1

  0
LINE
  5
242
100
AcDbEntity
  8
0
  6
CONTINUOUS
 62
             200
100
AcDbLine
 10
74.499999629394537
 20
-20.999992370605476
 30
0.0
 11
100.72406544923301
 21
-20.999992370605476
 31
0.0
  0
LINE
  5
243
100
AcDbEntity
  8
0
  6
CONTINUOUS
 62
             200
100
AcDbLine
 10
74.499999629394523
 20
-1.9999923706054687
 30
0.0
 11
100.72406544923301
 21
-1.9999923706054687
 31
0.0
  0
LINE
  5
244
100
AcDbEntity
  8
0
  6
CONTINUOUS
 62
               7
100
AcDbLine
 10
34.000002000694195
 20
-38.000015296537931
 30
0.0
 11
34.0
 21
28.5
 31
0.0
  0
LINE
  5
245
100
AcDbEntity
  8
0
  6
CONTINUOUS
 62
               2
100
AcDbLine
 10
12.999975317181594
 20
-23.000015258789063
 30
0.0
 11
-6.0317615623189482
 21
-23.000015258789063
 31
0.0
  0
LINE
  5
246
100
AcDbEntity
  8
0
  6
CONTINUOUS
 62
               2
100
AcDbLine
 10
13.0
 20
0.0
 30
0.0
 11
-6.0317615623189482
 21
0.0
 31
0.0
  0
LINE
  5
247
100
AcDbEntity
  8
0
  6
CONTINUOUS
 62
               7
100
AcDbLine
 10
34.499997999305805
 20
14.999984741210852
 30
0.0
 11
33.999997999305805
 21
14.999984703461905
 31
0.0
  0
LINE
  5
248
100
AcDbEntity
  8
0
  6
CONTINUOUS
 62
               7
100
AcDbLine
 10
34.500002000694195
 20
-38.000015258788984
 30
0.0
 11
34.000002000694195
 21
-38.000015296537931
 31
0.0
  0
ARC
  5
249
100
AcDbEntity
  8
0
  6
CONTINUOUS
 62
               4
100
AcDbCircle
 10
67.699973689453117
 20
-30.25
 30
0.0
 40
1.5
100
AcDbArc
 50
0.0000179860890374
 51
89.999982013910454
  0
ARC
  5
24A
100
AcDbEntity
  8
0
  6
CONTINUOUS
 62
               4
100
AcDbCircle
 10
67.699973689453117
 20
-32.749984741210938
 30
0.0
 40
1.5
100
AcDbArc
 50
269.99990870306209
 51
359.99994604173207
  0
LINE
  5
24B
100
AcDbEntity
  8
0
  6
CONTINUOUS
 62
               4
100
AcDbLine
 10
85.199999429394524
 20
-11.999992370605476
 30
0.0
 11
74.499999629394523
 21
-11.999992370605476
 31
0.0
  0
LINE
  5
24C
100
AcDbEntity
  8
0
  6
CONTINUOUS
 62
               4
100
AcDbLine
 10
85.199999429394524
 20
-10.999992370605476
 30
0.0
 11
74.499999629394523
 21
-10.999992370605476
 31
0.0
  0
LINE
  5
24D
100
AcDbEntity
  8
0
  6
CONTINUOUS
 62
               4
100
AcDbLine
 10
69.999991999999992
 20
13.25
 30
0.0
 11
69.499991999999992
 21
13.25
 31
0.0
  0
LINE
  5
24E
100
AcDbEntity
  8
0
  6
CONTINUOUS
 62
               4
100
AcDbLine
 10
69.999991999999992
 20
7.75
 30
0.0
 11
69.499991999999992
 21
7.75
 31
0.0
  0
ARC
  5
24F
100
AcDbEntity
  8
0
  6
CONTINUOUS
 62
               4
100
AcDbCircle
 10
69.999991999999992
 20
11.75
 30
0.0
 40
1.5
100
AcDbArc
 50
359.99998633962088
 51
89.999927372397096
  0
ARC
  5
250
100
AcDbEntity
  8
0
  6
CONTINUOUS
 62
               4
100
AcDbCircle
 10
69.999991999999992
 20
9.25
 30
0.0
 40
1.5
100
AcDbArc
 50
270.00001798608872
 51
359.99998633962088
  0
LINE
  5
251
100
AcDbEntity
  8
0
  6
CONTINUOUS
 62
               4
100
AcDbLine
 10
69.199973689453117
 20
-30.249984741210952
 30
0.0
 11
69.199973689453117
 21
-32.749984741210952
 31
0.0
  0
LINE
  5
252
100
AcDbEntity
  8
0
  6
CONTINUOUS
 62
               4
100
AcDbLine
 10
71.499991999999963
 20
11.749999642372131
 30
0.0
 11
71.499991999999963
 21
9.2499996423721313
 31
0.0
  0
LINE
  5
253
100
AcDbEntity
  8
0
  6
CONTINUOUS
 62
               4
100
AcDbLine
 10
69.499999629394523
 20
14.800007629394528
 30
0.0
 11
70.431505709076319
 21
13.186591771826357
 31
0.0
  0
LINE
  5
254
100
AcDbEntity
  8
0
  6
CONTINUOUS
 62
               4
100
AcDbLine
 10
90.299999629394534
 20
-10.999992370605476
 30
0.0
 11
90.299999629394534
 21
7.000007629394517
 31
0.0
  0
LINE
  5
255
100
AcDbEntity
  8
0
  6
CONTINUOUS
 62
               4
100
AcDbLine
 10
91.499999629394523
 20
-10.999992370605476
 30
0.0
 11
91.499999629394523
 21
7.000007629394517
 31
0.0
  0
LINE
  5
256
100
AcDbEntity
  8
0
  6
CONTINUOUS
 62
               4
100
AcDbLine
 10
93.864912629394524
 20
-10.999992370605476
 30
0.0
 11
93.864912629394524
 21
7.000007629394517
 31
0.0
  0
LINE
  5
257
100
AcDbEntity
  8
0
  6
CONTINUOUS
 62
               4
100
AcDbLine
 10
94.299998629394537
 20
-10.246401970605483
 30
0.0
 11
94.299998629394537
 21
6.2464172293945239
 31
0.0
  0
LINE
  5
258
100
AcDbEntity
  8
0
  6
CONTINUOUS
 62
               4
100
AcDbLine
 10
95.899999629394529
 20
-9.0999923706054631
 30
0.0
 11
95.899999629394529
 21
5.1000076293945256
 31
0.0
  0
LINE
  5
259
100
AcDbEntity
  8
0
  6
CONTINUOUS
 62
               4
100
AcDbLine
 10
96.399999629394529
 20
4.000007629394517
 30
0.0
 11
95.999999629394523
 21
4.000007629394517
 31
0.0
  0
LINE
  5
25A
100
AcDbEntity
  8
0
  6
CONTINUOUS
 62
               4
100
AcDbLine
 10
85.599999229394513
 20
-10.999992370605476
 30
0.0
 11
85.599999229394513
 21
7.0000076293945313
 31
0.0
  0
LINE
  5
25B
100
AcDbEntity
  8
0
  6
CONTINUOUS
 62
               4
100
AcDbLine
 10
85.399999629394529
 20
6.8000076293945142
 30
0.0
 11
85.199999429394524
 21
7.0000076293945313
 31
0.0
  0
LINE
  5
25C
100
AcDbEntity
  8
0
  6
CONTINUOUS
 62
               4
100
AcDbLine
 10
85.199999429394524
 20
7.0000076293945313
 30
0.0
 11
85.199999429394524
 21
-11.499992370605476
 31
0.0
  0
LINE
  5
25D
100
AcDbEntity
  8
0
  6
CONTINUOUS
 62
               4
100
AcDbLine
 10
91.299999629394534
 20
-10.299992370605473
 30
0.0
 11
90.399999629394529
 21
-10.299992370605473
 31
0.0
  0
LINE
  5
25E
100
AcDbEntity
  8
0
  6
CONTINUOUS
 62
               4
100
AcDbLine
 10
91.299999629394534
 20
6.3000076293945142
 30
0.0
 11
90.399999629394529
 21
6.3000076293945142
 31
0.0
  0
LINE
  5
25F
100
AcDbEntity
  8
0
  6
CONTINUOUS
 62
               4
100
AcDbLine
 10
85.199999629394512
 20
7.0000076293945313
 30
0.0
 11
74.00329402939451
 21
7.0000076293945313
 31
0.0
  0
LINE
  5
260
100
AcDbEntity
  8
0
  6
CONTINUOUS
 62
               4
100
AcDbLine
 10
85.399999629394529
 20
-10.799992370605473
 30
0.0
 11
85.199999429394524
 21
-10.999992370605476
 31
0.0
  0
LINE
  5
261
100
AcDbEntity
  8
0
  6
CONTINUOUS
 62
               4
100
AcDbLine
 10
90.299999629394534
 20
-10.999992370605476
 30
0.0
 11
90.399999629394529
 21
-10.899992370605482
 31
0.0
  0
LINE
  5
262
100
AcDbEntity
  8
0
  6
CONTINUOUS
 62
               4
100
AcDbLine
 10
90.299999629394534
 20
7.000007629394517
 30
0.0
 11
90.399999629394529
 21
6.9000076293945227
 31
0.0
  0
LINE
  5
263
100
AcDbEntity
  8
0
  6
CONTINUOUS
 62
               4
100
AcDbLine
 10
85.399999029394536
 20
-10.799992370605473
 30
0.0
 11
85.599999229394513
 21
-10.999992370605476
 31
0.0
  0
LINE
  5
264
100
AcDbEntity
  8
0
  6
CONTINUOUS
 62
               4
100
AcDbLine
 10
90.299999629394534
 20
-10.999992370605476
 30
0.0
 11
85.599999229394513
 21
-10.999992370605476
 31
0.0
  0
LINE
  5
265
100
AcDbEntity
  8
0
  6
CONTINUOUS
 62
               4
100
AcDbLine
 10
90.299999629394534
 20
7.000007629394517
 30
0.0
 11
85.599999229394513
 21
7.0000076293945313
 31
0.0
  0
LINE
  5
266
100
AcDbEntity
  8
0
  6
CONTINUOUS
 62
               4
100
AcDbLine
 10
85.399999229394524
 20
-10.799992370605473
 30
0.0
 11
85.399999229394524
 21
6.8000076293945142
 31
0.0
  0
LINE
  5
267
100
AcDbEntity
  8
0
  6
CONTINUOUS
 62
               4
100
AcDbLine
 10
85.399999029394536
 20
6.8000076293945142
 30
0.0
 11
85.599999229394513
 21
7.0000076293945313
 31
0.0
  0
LINE
  5
268
100
AcDbEntity
  8
0
  6
CONTINUOUS
 62
               4
100
AcDbLine
 10
93.864913629394522
 20
-10.999992370605476
 30
0.0
 11
91.499999629394523
 21
-10.999992370605476
 31
0.0
  0
LINE
  5
269
100
AcDbEntity
  8
0
  6
CONTINUOUS
 62
               4
100
AcDbLine
 10
91.299999629394534
 20
6.8000076293945142
 30
0.0
 11
91.499999629394523
 21
7.000007629394517
 31
0.0
  0
LINE
  5
26A
100
AcDbEntity
  8
0
  6
CONTINUOUS
 62
               4
100
AcDbLine
 10
93.864913629394522
 20
7.000007629394517
 30
0.0
 11
91.499999629394523
 21
7.000007629394517
 31
0.0
  0
LINE
  5
26B
100
AcDbEntity
  8
0
  6
CONTINUOUS
 62
               4
100
AcDbLine
 10
91.299999629394534
 20
6.8000076293945142
 30
0.0
 11
91.299999629394534
 21
-10.799992370605473
 31
0.0
  0
LINE
  5
26C
100
AcDbEntity
  8
0
  6
CONTINUOUS
 62
               4
100
AcDbLine
 10
94.299998629394537
 20
-10.246401970605483
 30
0.0
 11
94.899998629394531
 21
-9.8999915706054722
 31
0.0
  0
LINE
  5
26D
100
AcDbEntity
  8
0
  6
CONTINUOUS
 62
               4
100
AcDbLine
 10
94.299998629394537
 20
6.2464172293945239
 30
0.0
 11
94.899998629394531
 21
5.9000068293945276
 31
0.0
  0
LINE
  5
26E
100
AcDbEntity
  8
0
  6
CONTINUOUS
 62
               4
100
AcDbLine
 10
93.864912629394524
 20
7.000007629394517
 30
0.0
 11
94.299998629394537
 21
6.2464172293945239
 31
0.0
  0
LINE
  5
26F
100
AcDbEntity
  8
0
  6
CONTINUOUS
 62
               4
100
AcDbLine
 10
93.864912629394524
 20
-10.999992370605476
 30
0.0
 11
94.299998629394537
 21
-10.246401970605483
 31
0.0
  0
LINE
  5
270
100
AcDbEntity
  8
0
  6
CONTINUOUS
 62
               4
100
AcDbLine
 10
91.299999629394534
 20
-10.799992370605473
 30
0.0
 11
91.499999629394523
 21
-10.999992370605476
 31
0.0
  0
LINE
  5
271
100
AcDbEntity
  8
0
  6
CONTINUOUS
 62
               4
100
AcDbLine
 10
94.899998629394531
 20
-9.8999923706054815
 30
0.0
 11
94.899998629394531
 21
5.9000068293945276
 31
0.0
  0
LINE
  5
272
100
AcDbEntity
  8
0
  6
CONTINUOUS
 62
               4
100
AcDbLine
 10
90.399999629394529
 20
6.9000076293945227
 30
0.0
 11
90.399999629394529
 21
-10.899992370605482
 31
0.0
  0
LINE
  5
273
100
AcDbEntity
  8
0
  6
CONTINUOUS
 62
               4
100
AcDbLine
 10
95.899999629394529
 20
-9.0999923706054631
 30
0.0
 11
94.899998629394531
 21
-9.0999923706054702
 31
0.0
  0
LINE
  5
274
100
AcDbEntity
  8
0
  6
CONTINUOUS
 62
               4
100
AcDbLine
 10
95.999999629394523
 20
-8.9999923706054687
 30
0.0
 11
95.999999629394523
 21
5.000007629394517
 31
0.0
  0
LINE
  5
275
100
AcDbEntity
  8
0
  6
CONTINUOUS
 62
               4
100
AcDbLine
 10
95.999999629394523
 20
-8.9999923706054687
 30
0.0
 11
95.899999629394529
 21
-9.0999923706054631
 31
0.0
  0
LINE
  5
276
100
AcDbEntity
  8
0
  6
CONTINUOUS
 62
               4
100
AcDbLine
 10
95.999999629394523
 20
5.000007629394517
 30
0.0
 11
95.899999629394529
 21
5.1000076293945256
 31
0.0
  0
LINE
  5
277
100
AcDbEntity
  8
0
  6
CONTINUOUS
 62
               4
100
AcDbLine
 10
95.899999629394529
 20
5.1000076293945256
 30
0.0
 11
94.899998629394531
 21
5.1000076293945256
 31
0.0
  0
LINE
  5
278
100
AcDbEntity
  8
0
  6
CONTINUOUS
 62
               4
100
AcDbLine
 10
96.399999629394529
 20
-7.9999923706054687
 30
0.0
 11
95.999999629394523
 21
-7.9999923706054687
 31
0.0
  0
LINE
  5
279
100
AcDbEntity
  8
0
  6
CONTINUOUS
 62
               4
100
AcDbLine
 10
97.80068062939452
 20
-10.399992370605474
 30
0.0
 11
96.899999629394529
 21
-10.399992370605474
 31
0.0
  0
LINE
  5
27A
100
AcDbEntity
  8
0
  6
CONTINUOUS
 62
               4
100
AcDbLine
 10
96.899999629394529
 20
6.4000076293945227
 30
0.0
 11
96.899999629394529
 21
-10.399992370605474
 31
0.0
  0
LINE
  5
27B
100
AcDbEntity
  8
0
  6
CONTINUOUS
 62
               4
100
AcDbLine
 10
98.099999629394517
 20
-10.099992370605463
 30
0.0
 11
98.099999629394517
 21
6.1000076293945256
 31
0.0
  0
LINE
  5
27C
100
AcDbEntity
  8
0
  6
CONTINUOUS
 62
               4
100
AcDbLine
 10
97.80068062939452
 20
6.4000076293945227
 30
0.0
 11
96.899999629394529
 21
6.4000076293945227
 31
0.0
  0
ARC
  5
27D
100
AcDbEntity
  8
0
  6
CONTINUOUS
 62
               4
100
AcDbCircle
 10
96.399999629394529
 20
4.500007629394517
 30
0.0
 40
0.5
100
AcDbArc
 50
269.9999999999992
 51
0.0
  0
ARC
  5
27E
100
AcDbEntity
  8
0
  6
CONTINUOUS
 62
               4
100
AcDbCircle
 10
97.799999629394534
 20
-10.099992370605463
 30
0.0
 40
0.3
100
AcDbArc
 50
269.9999999999992
 51
0.0
  0
ARC
  5
27F
100
AcDbEntity
  8
0
  6
CONTINUOUS
 62
               4
100
AcDbCircle
 10
96.399999629394529
 20
-8.4999923706054687
 30
0.0
 40
0.5
100
AcDbArc
 50
359.9999999999992
 51
89.99999999999919
  0
ARC
  5
280
100
AcDbEntity
  8
0
  6
CONTINUOUS
 62
               4
100
AcDbCircle
 10
97.799999629394534
 20
6.1000076293945256
 30
0.0
 40
0.3
100
AcDbArc
 50
359.9999999999992
 51
89.99999999999919
  0
LINE
  5
281
100
AcDbEntity
  8
0
  6
CONTINUOUS
 62
               4
100
AcDbLine
 10
73.714656594478782
 20
7.5000076293945313
 30
0.0
 11
69.499999629394523
 21
7.5000076293945313
 31
0.0
  0
LINE
  5
282
100
AcDbEntity
  8
0
  6
CONTINUOUS
 62
               4
100
AcDbLine
 10
69.499999629394523
 20
14.800007629394528
 30
0.0
 11
69.499999629394523
 21
7.5000076174735995
 31
0.0
  0
LINE
  5
283
100
AcDbEntity
  8
0
  6
CONTINUOUS
 62
               4
100
AcDbLine
 10
74.499999629394523
 20
6.139753591550118
 30
0.0
 11
74.499999629394523
 21
-11.499992370605476
 31
0.0
  0
LINE
  5
284
100
AcDbEntity
  8
0
  6
CONTINUOUS
 62
               4
100
AcDbLine
 10
85.199999429394524
 20
-29.999992370605469
 30
0.0
 11
85.199999429394524
 21
-11.499992370605476
 31
0.0
  0
LINE
  5
285
100
AcDbEntity
  8
0
  6
CONTINUOUS
 62
               4
100
AcDbLine
 10
74.499999629394537
 20
-29.13973833276107
 30
0.0
 11
74.499999629394523
 21
-11.499992370605476
 31
0.0
  0
ARC
  5
286
100
AcDbEntity
  8
0
  6
CONTINUOUS
 62
               4
100
AcDbCircle
 10
97.799999629394549
 20
-29.099992370605477
 30
0.0
 40
0.3
100
AcDbArc
 50
270.0
 51
0.0000000000008142
  0
ARC
  5
287
100
AcDbEntity
  8
0
  6
CONTINUOUS
 62
               4
100
AcDbCircle
 10
96.399999629394529
 20
-14.499992370605469
 30
0.0
 40
0.5
100
AcDbArc
 50
270.0
 51
0.0000000000008142
  0
ARC
  5
288
100
AcDbEntity
  8
0
  6
CONTINUOUS
 62
               4
100
AcDbCircle
 10
97.799999629394534
 20
-12.899992370605474
 30
0.0
 40
0.3
100
AcDbArc
 50
0.0
 51
90.0
  0
ARC
  5
289
100
AcDbEntity
  8
0
  6
CONTINUOUS
 62
               4
100
AcDbCircle
 10
96.399999629394529
 20
-27.499992370605469
 30
0.0
 40
0.5
100
AcDbArc
 50
0.0
 51
90.0
  0
LINE
  5
28A
100
AcDbEntity
  8
0
  6
CONTINUOUS
 62
               4
100
AcDbLine
 10
97.800680629394535
 20
-29.399992370605474
 30
0.0
 11
96.899999629394529
 21
-29.399992370605474
 31
0.0
  0
LINE
  5
28B
100
AcDbEntity
  8
0
  6
CONTINUOUS
 62
               4
100
AcDbLine
 10
98.099999629394517
 20
-12.899992370605474
 30
0.0
 11
98.099999629394532
 21
-29.099992370605477
 31
0.0
  0
LINE
  5
28C
100
AcDbEntity
  8
0
  6
CONTINUOUS
 62
               4
100
AcDbLine
 10
96.899999629394529
 20
-29.399992370605474
 30
0.0
 11
96.899999629394529
 21
-12.599992370605463
 31
0.0
  0
LINE
  5
28D
100
AcDbEntity
  8
0
  6
CONTINUOUS
 62
               4
100
AcDbLine
 10
97.80068062939452
 20
-12.599992370605463
 30
0.0
 11
96.899999629394529
 21
-12.599992370605463
 31
0.0
  0
LINE
  5
28E
100
AcDbEntity
  8
0
  6
CONTINUOUS
 62
               4
100
AcDbLine
 10
96.399999629394529
 20
-14.999992370605469
 30
0.0
 11
95.999999629394523
 21
-14.999992370605469
 31
0.0
  0
LINE
  5
28F
100
AcDbEntity
  8
0
  6
CONTINUOUS
 62
               4
100
AcDbLine
 10
95.899999629394529
 20
-28.099992370605477
 30
0.0
 11
94.899998629394531
 21
-28.099992370605477
 31
0.0
  0
LINE
  5
290
100
AcDbEntity
  8
0
  6
CONTINUOUS
 62
               4
100
AcDbLine
 10
95.999999629394523
 20
-27.999992370605469
 30
0.0
 11
95.899999629394529
 21
-28.099992370605477
 31
0.0
  0
LINE
  5
291
100
AcDbEntity
  8
0
  6
CONTINUOUS
 62
               4
100
AcDbLine
 10
95.999999629394523
 20
-13.999992370605469
 30
0.0
 11
95.899999629394529
 21
-13.899992370605474
 31
0.0
  0
LINE
  5
292
100
AcDbEntity
  8
0
  6
CONTINUOUS
 62
               4
100
AcDbLine
 10
95.999999629394523
 20
-13.999992370605469
 30
0.0
 11
95.999999629394523
 21
-27.999992370605469
 31
0.0
  0
LINE
  5
293
100
AcDbEntity
  8
0
  6
CONTINUOUS
 62
               4
100
AcDbLine
 10
95.899999629394529
 20
-13.899992370605474
 30
0.0
 11
94.899998629394531
 21
-13.899992370605474
 31
0.0
  0
LINE
  5
294
100
AcDbEntity
  8
0
  6
CONTINUOUS
 62
               4
100
AcDbLine
 10
90.399999629394529
 20
-29.899992370605474
 30
0.0
 11
90.399999629394529
 21
-12.09999237060547
 31
0.0
  0
LINE
  5
295
100
AcDbEntity
  8
0
  6
CONTINUOUS
 62
               4
100
AcDbLine
 10
94.899998629394531
 20
-13.099992370605463
 30
0.0
 11
94.899998629394531
 21
-28.899991570605479
 31
0.0
  0
LINE
  5
296
100
AcDbEntity
  8
0
  6
CONTINUOUS
 62
               4
100
AcDbLine
 10
91.299999629394534
 20
-12.199992370605479
 30
0.0
 11
91.499999629394523
 21
-11.999992370605476
 31
0.0
  0
LINE
  5
297
100
AcDbEntity
  8
0
  6
CONTINUOUS
 62
               4
100
AcDbLine
 10
93.864912629394524
 20
-11.999992370605476
 30
0.0
 11
94.299998629394537
 21
-12.753582770605476
 31
0.0
  0
LINE
  5
298
100
AcDbEntity
  8
0
  6
CONTINUOUS
 62
               4
100
AcDbLine
 10
93.864912629394524
 20
-29.999992370605469
 30
0.0
 11
94.299998629394537
 21
-29.246401970605476
 31
0.0
  0
LINE
  5
299
100
AcDbEntity
  8
0
  6
CONTINUOUS
 62
               4
100
AcDbLine
 10
94.299998629394537
 20
-29.246401970605476
 30
0.0
 11
94.899998629394531
 21
-28.899991570605479
 31
0.0
  0
LINE
  5
29A
100
AcDbEntity
  8
0
  6
CONTINUOUS
 62
               4
100
AcDbLine
 10
94.299998629394537
 20
-12.753582770605476
 30
0.0
 11
94.899998629394531
 21
-13.099993170605472
 31
0.0
  0
LINE
  5
29B
100
AcDbEntity
  8
0
  6
CONTINUOUS
 62
               4
100
AcDbLine
 10
91.299999629394534
 20
-29.79999237060548
 30
0.0
 11
91.299999629394534
 21
-12.199992370605479
 31
0.0
  0
LINE
  5
29C
100
AcDbEntity
  8
0
  6
CONTINUOUS
 62
               4
100
AcDbLine
 10
93.864913629394522
 20
-29.999992370605469
 30
0.0
 11
91.499999629394523
 21
-29.999992370605469
 31
0.0
  0
LINE
  5
29D
100
AcDbEntity
  8
0
  6
CONTINUOUS
 62
               4
100
AcDbLine
 10
91.299999629394534
 20
-29.79999237060548
 30
0.0
 11
91.499999629394523
 21
-29.999992370605469
 31
0.0
  0
LINE
  5
29E
100
AcDbEntity
  8
0
  6
CONTINUOUS
 62
               4
100
AcDbLine
 10
93.864913629394522
 20
-11.999992370605476
 30
0.0
 11
91.499999629394523
 21
-11.999992370605476
 31
0.0
  0
LINE
  5
29F
100
AcDbEntity
  8
0
  6
CONTINUOUS
 62
               4
100
AcDbLine
 10
85.399999029394536
 20
-29.79999237060548
 30
0.0
 11
85.599999229394513
 21
-29.999992370605469
 31
0.0
  0
LINE
  5
2A0
100
AcDbEntity
  8
0
  6
CONTINUOUS
 62
               4
100
AcDbLine
 10
85.399999229394524
 20
-12.199992370605479
 30
0.0
 11
85.399999229394524
 21
-29.79999237060548
 31
0.0
  0
LINE
  5
2A1
100
AcDbEntity
  8
0
  6
CONTINUOUS
 62
               4
100
AcDbLine
 10
90.299999629394534
 20
-29.999992370605469
 30
0.0
 11
85.599999229394513
 21
-29.999992370605469
 31
0.0
  0
LINE
  5
2A2
100
AcDbEntity
  8
0
  6
CONTINUOUS
 62
               4
100
AcDbLine
 10
90.299999629394534
 20
-11.999992370605476
 30
0.0
 11
85.599999229394513
 21
-11.999992370605476
 31
0.0
  0
LINE
  5
2A3
100
AcDbEntity
  8
0
  6
CONTINUOUS
 62
               4
100
AcDbLine
 10
85.399999029394536
 20
-12.199992370605479
 30
0.0
 11
85.599999229394513
 21
-11.999992370605476
 31
0.0
  0
LINE
  5
2A4
100
AcDbEntity
  8
0
  6
CONTINUOUS
 62
               4
100
AcDbLine
 10
90.299999629394534
 20
-29.999992370605469
 30
0.0
 11
90.399999629394529
 21
-29.899992370605474
 31
0.0
  0
LINE
  5
2A5
100
AcDbEntity
  8
0
  6
CONTINUOUS
 62
               4
100
AcDbLine
 10
90.299999629394534
 20
-11.999992370605476
 30
0.0
 11
90.399999629394529
 21
-12.09999237060547
 31
0.0
  0
LINE
  5
2A6
100
AcDbEntity
  8
0
  6
CONTINUOUS
 62
               4
100
AcDbLine
 10
85.399999629394529
 20
-12.199992370605479
 30
0.0
 11
85.199999429394524
 21
-11.999992370605476
 31
0.0
  0
LINE
  5
2A7
100
AcDbEntity
  8
0
  6
CONTINUOUS
 62
               4
100
AcDbLine
 10
85.199999629394512
 20
-29.999992370605469
 30
0.0
 11
74.003294029394525
 21
-29.999992370605469
 31
0.0
  0
LINE
  5
2A8
100
AcDbEntity
  8
0
  6
CONTINUOUS
 62
               4
100
AcDbLine
 10
91.299999629394534
 20
-29.29999237060548
 30
0.0
 11
90.399999629394529
 21
-29.29999237060548
 31
0.0
  0
LINE
  5
2A9
100
AcDbEntity
  8
0
  6
CONTINUOUS
 62
               4
100
AcDbLine
 10
91.299999629394534
 20
-12.699992370605486
 30
0.0
 11
90.399999629394529
 21
-12.699992370605486
 31
0.0
  0
LINE
  5
2AA
100
AcDbEntity
  8
0
  6
CONTINUOUS
 62
               4
100
AcDbLine
 10
85.399999629394529
 20
-29.79999237060548
 30
0.0
 11
85.199999429394524
 21
-29.999992370605469
 31
0.0
  0
LINE
  5
2AB
100
AcDbEntity
  8
0
  6
CONTINUOUS
 62
               4
100
AcDbLine
 10
85.599999229394513
 20
-11.999992370605476
 30
0.0
 11
85.599999229394513
 21
-29.999992370605469
 31
0.0
  0
LINE
  5
2AC
100
AcDbEntity
  8
0
  6
CONTINUOUS
 62
               4
100
AcDbLine
 10
96.399999629394529
 20
-26.999992370605469
 30
0.0
 11
95.999999629394523
 21
-26.999992370605469
 31
0.0
  0
LINE
  5
2AD
100
AcDbEntity
  8
0
  6
CONTINUOUS
 62
               4
100
AcDbLine
 10
95.899999629394529
 20
-13.899992370605474
 30
0.0
 11
95.899999629394529
 21
-28.099992370605477
 31
0.0
  0
LINE
  5
2AE
100
AcDbEntity
  8
0
  6
CONTINUOUS
 62
               4
100
AcDbLine
 10
94.299998629394537
 20
-12.753582770605476
 30
0.0
 11
94.299998629394537
 21
-29.246401970605476
 31
0.0
  0
LINE
  5
2AF
100
AcDbEntity
  8
0
  6
CONTINUOUS
 62
               4
100
AcDbLine
 10
93.864912629394524
 20
-11.999992370605476
 30
0.0
 11
93.864912629394524
 21
-29.999992370605469
 31
0.0
  0
LINE
  5
2B0
100
AcDbEntity
  8
0
  6
CONTINUOUS
 62
               4
100
AcDbLine
 10
91.499999629394523
 20
-11.999992370605476
 30
0.0
 11
91.499999629394523
 21
-29.999992370605469
 31
0.0
  0
LINE
  5
2B1
100
AcDbEntity
  8
0
  6
CONTINUOUS
 62
               4
100
AcDbLine
 10
90.299999629394534
 20
-11.999992370605476
 30
0.0
 11
90.299999629394534
 21
-29.999992370605469
 31
0.0
  0
LINE
  5
2B2
100
AcDbEntity
  8
0
  6
CONTINUOUS
 62
               4
100
AcDbLine
 10
69.499999629394523
 20
-37.79999237060548
 30
0.0
 11
74.499999629394537
 21
-29.139738332761056
 31
0.0
  0
LINE
  5
2B3
100
AcDbEntity
  8
0
  6
CONTINUOUS
 62
               4
100
AcDbLine
 10
71.499991999999963
 20
11.335919228755799
 30
0.0
 11
74.499999629394523
 21
6.139753591550118
 31
0.0
  0
LINE
  5
2B4
100
AcDbEntity
  8
0
  6
CONTINUOUS
 62
               4
100
AcDbLine
 10
67.199988948242179
 20
-34.449981689453139
 30
0.0
 11
67.199988948242179
 21
-28.549987792968764
 31
0.0
  0
LINE
  5
2B5
100
AcDbEntity
  8
0
  6
CONTINUOUS
 62
               4
100
AcDbLine
 10
67.699988948242179
 20
-34.249969482421889
 30
0.0
 11
67.199988948242179
 21
-34.249969482421889
 31
0.0
  0
LINE
  5
2B6
100
AcDbEntity
  8
0
  6
CONTINUOUS
 62
               4
100
AcDbLine
 10
67.699988948242179
 20
-28.749984741210952
 30
0.0
 11
67.199988948242179
 21
-28.749984741210952
 31
0.0
  0
LINE
  5
2B7
100
AcDbEntity
  8
0
  6
CONTINUOUS
 62
               4
100
AcDbLine
 10
66.500019125927764
 20
-31.149984392398437
 30
0.0
 11
67.200026458529436
 21
-30.962417991359871
 31
0.0
  0
LINE
  5
2B8
100
AcDbEntity
  8
0
  6
CONTINUOUS
 62
               4
100
AcDbLine
 10
67.200007965828235
 20
-31.849985741162527
 30
0.0
 11
66.500015328890157
 21
-32.037548149741269
 31
0.0
  0
LINE
  5
2B9
100
AcDbEntity
  8
0
  6
CONTINUOUS
 62
               4
100
AcDbLine
 10
67.199988948242179
 20
-34.449981689453139
 30
0.0
 11
66.5
 21
-34.449981689453139
 31
0.0
  0
LINE
  5
2BA
100
AcDbEntity
  8
0
  6
CONTINUOUS
 62
               4
100
AcDbLine
 10
67.199988948242179
 20
-28.549987792968764
 30
0.0
 11
66.5
 21
-28.549987792968764
 31
0.0
  0
LINE
  5
2BB
100
AcDbEntity
  8
0
  6
CONTINUOUS
 62
               7
100
AcDbLine
 10
69.499999629394523
 20
-37.79999237060548
 30
0.0
 11
66.5
 21
-37.79999237060548
 31
0.0
  0
LINE
  5
2BC
100
AcDbEntity
  8
0
  6
CONTINUOUS
 62
               4
100
AcDbLine
 10
69.499999629394523
 20
14.800007629394528
 30
0.0
 11
66.5
 21
14.800007629394528
 31
0.0
  0
LINE
  5
2BD
100
AcDbEntity
  8
0
  6
CONTINUOUS
 62
               4
100
AcDbLine
 10
71.405259922553284
 20
-34.499984741210937
 30
0.0
 11
66.5
 21
-34.499984741210937
 31
0.0
  0
LINE
  5
2BE
100
AcDbEntity
  8
0
  6
CONTINUOUS
 62
               4
100
AcDbLine
 10
74.499999629394523
 20
-28.499984741210938
 30
0.0
 11
66.5
 21
-28.499984741210938
 31
0.0
  0
LINE
  5
2BF
100
AcDbEntity
  8
0
  6
CONTINUOUS
 62
               4
100
AcDbLine
 10
37.0
 20
55.5
 30
0.0
 11
38.600000000000001
 21
55.5
 31
0.0
  0
LINE
  5
2C0
100
AcDbEntity
  8
0
  6
CONTINUOUS
 62
               4
100
AcDbLine
 10
37.700000000000003
 20
55.5
 30
0.0
 11
37.700000000000003
 21
62.5
 31
0.0
  0
LINE
  5
2C1
100
AcDbEntity
  8
0
  6
CONTINUOUS
 62
               4
100
AcDbLine
 10
38.600000000000001
 20
55.5
 30
0.0
 11
38.600000000000001
 21
62.5
 31
0.0
  0
LINE
  5
2C2
100
AcDbEntity
  8
0
  6
CONTINUOUS
 62
               4
100
AcDbLine
 10
37.0
 20
62.5
 30
0.0
 11
63.999992370605469
 21
62.5
 31
0.0
  0
LINE
  5
2C3
100
AcDbEntity
  8
0
  6
CONTINUOUS
 62
               4
100
AcDbLine
 10
48.099999999999994
 20
76.0
 30
0.0
 11
48.099999999999994
 21
71.5
 31
0.0
  0
LINE
  5
2C4
100
AcDbEntity
  8
0
  6
CONTINUOUS
 62
               4
100
AcDbLine
 10
39.149987792968744
 20
82.5
 30
0.0
 11
48.149987792968744
 21
82.5
 31
0.0
  0
LINE
  5
2C5
100
AcDbEntity
  8
0
  6
CONTINUOUS
 62
               4
100
AcDbLine
 10
39.5
 20
76.0
 30
0.0
 11
48.150003051757807
 21
76.0
 31
0.0
  0
LINE
  5
2C6
100
AcDbEntity
  8
0
  6
CONTINUOUS
 62
               4
100
AcDbLine
 10
48.727349853515619
 20
82.5
 30
0.0
 11
50.149995422363276
 21
82.5
 31
0.0
  0
LINE
  5
2C7
100
AcDbEntity
  8
0
  6
CONTINUOUS
 62
               4
100
AcDbLine
 10
48.099999999999994
 20
73.498458862304688
 30
0.0
 11
48.150003051757807
 21
73.498458862304688
 31
0.0
  0
LINE
  5
2C8
100
AcDbEntity
  8
0
  6
CONTINUOUS
 62
               4
100
AcDbLine
 10
48.150003051757807
 20
71.998458862304688
 30
0.0
 11
49.149995422363276
 21
71.998458862304688
 31
0.0
  0
LINE
  5
2C9
100
AcDbEntity
  8
0
  6
CONTINUOUS
 62
               4
100
AcDbLine
 10
48.150003051757807
 20
73.498458862304688
 30
0.0
 11
48.150003051757807
 21
76.0
 31
0.0
  0
LINE
  5
2CA
100
AcDbEntity
  8
0
  6
CONTINUOUS
 62
               4
100
AcDbLine
 10
49.649995422363276
 20
81.0
 30
0.0
 11
50.149995422363276
 21
81.0
 31
0.0
  0
LINE
  5
2CB
100
AcDbEntity
  8
0
  6
CONTINUOUS
 62
               4
100
AcDbLine
 10
48.150000209407693
 20
71.998474151870141
 30
0.0
 11
48.099979656101453
 21
72.048494705176381
 31
0.0
  0
LINE
  5
2CC
100
AcDbEntity
  8
0
  6
CONTINUOUS
 62
               4
100
AcDbLine
 10
39.650003051757807
 20
76.0
 30
0.0
 11
39.650003051757807
 21
81.5
 31
0.0
  0
LINE
  5
2CD
100
AcDbEntity
  8
0
  6
CONTINUOUS
 62
               4
100
AcDbLine
 10
39.150003051757807
 20
81.5
 30
0.0
 11
39.150003051757807
 21
82.5
 31
0.0
  0
LINE
  5
2CE
100
AcDbEntity
  8
0
  6
CONTINUOUS
 62
               4
100
AcDbLine
 10
39.149987792968744
 20
81.5
 30
0.0
 11
39.649987792968744
 21
81.5
 31
0.0
  0
LINE
  5
2CF
100
AcDbEntity
  8
0
  6
CONTINUOUS
 62
               4
100
AcDbLine
 10
49.650003051757807
 20
75.55615234375
 30
0.0
 11
49.650003051757807
 21
81.0
 31
0.0
  0
LINE
  5
2D0
100
AcDbEntity
  8
0
  6
CONTINUOUS
 62
               4
100
AcDbLine
 10
49.150001302236518
 20
71.99845074175937
 30
0.0
 11
49.650000411113609
 21
75.556138825448215
 31
0.0
  0
LINE
  5
2D1
100
AcDbEntity
  8
0
  6
CONTINUOUS
 62
               4
100
AcDbLine
 10
48.150003051757807
 20
76.0
 30
0.0
 11
48.150003051757807
 21
82.5
 31
0.0
  0
LINE
  5
2D2
100
AcDbEntity
  8
0
  6
CONTINUOUS
 62
               4
100
AcDbLine
 10
48.150044511604023
 20
81.499958942901685
 30
0.0
 11
48.727396327367927
 21
82.499967647856465
 31
0.0
  0
LINE
  5
2D3
100
AcDbEntity
  8
0
  6
CONTINUOUS
 62
               4
100
AcDbLine
 10
50.150003051757807
 20
81.0
 30
0.0
 11
50.150003051757807
 21
82.5
 31
0.0
  0
LINE
  5
2D4
100
AcDbEntity
  8
0
  6
CONTINUOUS
 62
               4
100
AcDbLine
 10
45.000009155273432
 20
95.5
 30
0.0
 11
44.200006103515619
 21
95.5
 31
0.0
  0
LINE
  5
2D5
100
AcDbEntity
  8
0
  6
CONTINUOUS
 62
               4
100
AcDbLine
 10
44.200006103515619
 20
90.5
 30
0.0
 11
44.200006103515619
 21
95.5
 31
0.0
  0
LINE
  5
2D6
100
AcDbEntity
  8
0
  6
CONTINUOUS
 62
               4
100
AcDbLine
 10
45.000009155273432
 20
90.5
 30
0.0
 11
45.000009155273432
 21
95.5
 31
0.0
  0
LINE
  5
2D7
100
AcDbEntity
  8
0
  6
CONTINUOUS
 62
               4
100
AcDbLine
 10
45.315011596679682
 20
82.5
 30
0.0
 11
45.315011596679682
 21
87.098403930664063
 31
0.0
  0
LINE
  5
2D8
100
AcDbEntity
  8
0
  6
CONTINUOUS
 62
               4
100
AcDbLine
 10
43.885003662109369
 20
82.5
 30
0.0
 11
43.885003662109369
 21
86.272796630859375
 31
0.0
  0
LINE
  5
2D9
100
AcDbEntity
  8
0
  6
CONTINUOUS
 62
               4
100
AcDbLine
 10
45.315011596679682
 20
90.5
 30
0.0
 11
43.885003662109369
 21
90.5
 31
0.0
  0
LINE
  5
2DA
100
AcDbEntity
  8
0
  6
CONTINUOUS
 62
               4
100
AcDbLine
 10
43.885003662109369
 20
87.427490234375
 30
0.0
 11
43.885003662109369
 21
90.5
 31
0.0
  0
LINE
  5
2DB
100
AcDbEntity
  8
0
  6
CONTINUOUS
 62
               4
100
AcDbLine
 10
45.315011596679682
 20
88.25311279296875
 30
0.0
 11
45.315011596679682
 21
90.5
 31
0.0
  0
LINE
  5
2DC
100
AcDbEntity
  8
0
  6
CONTINUOUS
 62
               7
100
AcDbLine
 10
37.0
 20
38.5
 30
0.0
 11
64.0
 21
38.5
 31
0.0
  0
LINE
  5
2DD
100
AcDbEntity
  8
0
  6
CONTINUOUS
 62
               4
100
AcDbLine
 10
42.815011596679682
 20
86.809738159179687
 30
0.0
 11
42.815011596679682
 21
90.5
 31
0.0
  0
LINE
  5
2DE
100
AcDbEntity
  8
0
  6
CONTINUOUS
 62
               4
100
AcDbLine
 10
41.385003662109369
 20
85.984115600585938
 30
0.0
 11
41.385003662109369
 21
90.5
 31
0.0
  0
LINE
  5
2DF
100
AcDbEntity
  8
0
  6
CONTINUOUS
 62
               4
100
AcDbLine
 10
41.385003662109369
 20
90.5
 30
0.0
 11
42.815011596679682
 21
90.5
 31
0.0
  0
LINE
  5
2E0
100
AcDbEntity
  8
0
  6
CONTINUOUS
 62
               4
100
AcDbLine
 10
42.500009155273432
 20
90.5
 30
0.0
 11
42.500009155273432
 21
95.5
 31
0.0
  0
LINE
  5
2E1
100
AcDbEntity
  8
0
  6
CONTINUOUS
 62
               4
100
AcDbLine
 10
41.700006103515619
 20
90.5
 30
0.0
 11
41.700006103515619
 21
95.499984741210938
 31
0.0
  0
LINE
  5
2E2
100
AcDbEntity
  8
0
  6
CONTINUOUS
 62
               4
100
AcDbLine
 10
41.700006103515619
 20
95.5
 30
0.0
 11
42.500009155273432
 21
95.5
 31
0.0
  0
LINE
  5
2E3
100
AcDbEntity
  8
0
  6
CONTINUOUS
 62
               4
100
AcDbLine
 10
42.815011596679682
 20
82.5
 30
0.0
 11
42.815011596679682
 21
85.655029296875
 31
0.0
  0
LINE
  5
2E4
100
AcDbEntity
  8
0
  6
CONTINUOUS
 62
               4
100
AcDbLine
 10
41.385003662109369
 20
82.5
 30
0.0
 11
41.385003662109369
 21
84.829421997070313
 31
0.0
  0
LINE
  5
2E5
100
AcDbEntity
  8
0
  6
CONTINUOUS
 62
             200
100
AcDbLine
 10
46.815018891472022
 20
89.119105809934808
 30
0.0
 11
39.884989799908539
 21
85.118057246153512
 31
0.0
  0
LINE
  5
2E6
100
AcDbEntity
  8
0
  6
CONTINUOUS
 62
             200
100
AcDbLine
 10
46.814994343097709
 20
87.964464815078827
 30
0.0
 11
39.884984189578603
 21
83.96341291056342
 31
0.0
  0
LINE
  5
2E7
100
AcDbEntity
  8
0
  6
CONTINUOUS
 62
               4
100
AcDbLine
 10
49.25
 20
63.0
 30
0.0
 11
51.75
 21
63.0
 31
0.0
  0
LINE
  5
2E8
100
AcDbEntity
  8
0
  6
CONTINUOUS
 62
               4
100
AcDbLine
 10
49.25
 20
63.0
 30
0.0
 11
49.25
 21
62.5
 31
0.0
  0
LINE
  5
2E9
100
AcDbEntity
  8
0
  6
CONTINUOUS
 62
               4
100
AcDbLine
 10
51.75
 20
63.0
 30
0.0
 11
51.75
 21
62.5
 31
0.0
  0
ARC
  5
2EA
100
AcDbEntity
  8
0
  6
CONTINUOUS
 62
               4
100
AcDbCircle
 10
37.5
 20
71.0
 30
0.0
 40
0.5
100
AcDbArc
 50
89.999999999999815
 51
179.99999999999963
  0
LINE
  5
2EB
100
AcDbEntity
  8
0
  6
CONTINUOUS
 62
               4
100
AcDbLine
 10
39.5
 20
71.5
 30
0.0
 11
37.5
 21
71.5
 31
0.0
  0
LINE
  5
2EC
100
AcDbEntity
  8
0
  6
CONTINUOUS
 62
               4
100
AcDbLine
 10
39.5
 20
76.0
 30
0.0
 11
39.5
 21
71.5
 31
0.0
  0
LINE
  5
2ED
100
AcDbEntity
  8
0
  6
CONTINUOUS
 62
               4
100
AcDbLine
 10
59.099999999999994
 20
63.950000000000017
 30
0.0
 11
57.0
 21
63.950000000000017
 31
0.0
  0
LINE
  5
2EE
100
AcDbEntity
  8
0
  6
CONTINUOUS
 62
               4
100
AcDbLine
 10
44.099999999999994
 20
63.950000000000017
 30
0.0
 11
42.0
 21
63.950000000000017
 31
0.0
  0
LINE
  5
2EF
100
AcDbEntity
  8
0
  6
CONTINUOUS
 62
               4
100
AcDbLine
 10
42.0
 20
64.900000000000006
 30
0.0
 11
42.0
 21
63.950000000000017
 31
0.0
  0
LINE
  5
2F0
100
AcDbEntity
  8
0
  6
CONTINUOUS
 62
               4
100
AcDbLine
 10
59.099999999999994
 20
64.900000000000006
 30
0.0
 11
59.099999999999994
 21
63.950000000000017
 31
0.0
  0
ARC
  5
2F1
100
AcDbEntity
  8
0
  6
CONTINUOUS
 62
               4
100
AcDbCircle
 10
62.502020395360574
 20
66.679610903929301
 30
0.0
 40
1.4979796551727449
100
AcDbArc
 50
0.0148824203654679
 51
24.046309772710686
  0
ARC
  5
2F2
100
AcDbEntity
  8
0
  6
CONTINUOUS
 62
               4
100
AcDbCircle
 10
61.674020838564047
 20
71.000099937446265
 30
0.0
 40
0.4999010215015999
100
AcDbArc
 50
24.197376208904771
 51
89.887774076864815
  0
LINE
  5
2F3
100
AcDbEntity
  8
0
  6
CONTINUOUS
 62
               4
100
AcDbLine
 10
62.129999999999995
 20
71.205000000000013
 30
0.0
 11
63.870000000000005
 21
67.289999999999992
 31
0.0
  0
LINE
  5
2F4
100
AcDbEntity
  8
0
  6
CONTINUOUS
 62
               4
100
AcDbLine
 10
64.0
 20
66.680000000000007
 30
0.0
 11
64.0
 21
62.5
 31
0.0
  0
LINE
  5
2F5
100
AcDbEntity
  8
0
  6
CONTINUOUS
 62
               4
100
AcDbLine
 10
44.099999999999994
 20
64.900000000000006
 30
0.0
 11
42.0
 21
64.900000000000006
 31
0.0
  0
LINE
  5
2F6
100
AcDbEntity
  8
0
  6
CONTINUOUS
 62
               4
100
AcDbLine
 10
59.099999999999994
 20
64.900000000000006
 30
0.0
 11
57.0
 21
64.900000000000006
 31
0.0
  0
LINE
  5
2F7
100
AcDbEntity
  8
0
  6
CONTINUOUS
 62
               4
100
AcDbLine
 10
44.099999999999994
 20
64.900000000000006
 30
0.0
 11
44.099999999999994
 21
63.950000000000017
 31
0.0
  0
LINE
  5
2F8
100
AcDbEntity
  8
0
  6
CONTINUOUS
 62
               4
100
AcDbLine
 10
57.0
 20
64.900000000000006
 30
0.0
 11
57.0
 21
63.950000000000017
 31
0.0
  0
LINE
  5
2F9
100
AcDbEntity
  8
0
  6
CONTINUOUS
 62
               4
100
AcDbLine
 10
37.0
 20
71.0
 30
0.0
 11
37.0
 21
62.5
 31
0.0
  0
LINE
  5
2FA
100
AcDbEntity
  8
0
  6
CONTINUOUS
 62
               4
100
AcDbLine
 10
37.0
 20
38.5
 30
0.0
 11
37.0
 21
62.5
 31
0.0
  0
LINE
  5
2FB
100
AcDbEntity
  8
0
  6
CONTINUOUS
 62
               4
100
AcDbLine
 10
64.0
 20
38.5
 30
0.0
 11
64.0
 21
62.5
 31
0.0
  0
LINE
  5
2FC
100
AcDbEntity
  8
0
  6
CONTINUOUS
 62
               4
100
AcDbLine
 10
48.099999999999994
 20
71.5
 30
0.0
 11
61.674999999999983
 21
71.5
 31
0.0
  0
LINE
  5
2FD
100
AcDbEntity
  8
0
  6
CONTINUOUS
 62
               7
100
AcDbLine
 10
66.499999518274308
 20
25.000004692745279
 30
0.0
 11
64.499995418963408
 21
27.500009816883903
 31
0.0
  0
LINE
  5
2FE
100
AcDbEntity
  8
0
  6
CONTINUOUS
 62
               7
100
AcDbLine
 10
34.499991121841049
 20
25.00001184181292
 30
0.0
 11
36.499995221151948
 21
27.500016965951545
 31
0.0
  0
LINE
  5
2FF
100
AcDbEntity
  8
0
  6
CONTINUOUS
 62
               7
100
AcDbLine
 10
64.5
 20
27.5
 30
0.0
 11
36.5
 21
27.5
 31
0.0
  0
ARC
  5
300
100
AcDbEntity
  8
0
  6
CONTINUOUS
 62
               7
100
AcDbCircle
 10
37.499969482421875
 20
28.00006103515625
 30
0.0
 40
2.5000734329223633
100
AcDbArc
 50
220.54021397943868
 51
348.46195609548801
  0
CIRCLE
  5
301
100
AcDbEntity
  8
0
  6
CONTINUOUS
 62
               7
100
AcDbCircle
 10
13.0
 20
-34.500015258789063
 30
0.0
 40
7.4749994277954102
  0
CIRCLE
  5
302
100
AcDbEntity
  8
0
  6
CONTINUOUS
 62
               7
100
AcDbCircle
 10
22.0
 20
-11.500015258789063
 30
0.0
 40
7.4749994277954102
  0
CIRCLE
  5
303
100
AcDbEntity
  8
0
  6
CONTINUOUS
 62
               7
100
AcDbCircle
 10
13.0
 20
11.5
 30
0.0
 40
7.4749994277954102
  0
CIRCLE
  5
304
100
AcDbEntity
  8
0
  6
CONTINUOUS
 62
               7
100
AcDbCircle
 10
28.0
 20
22.5
 30
0.0
 40
2.0
  0
CIRCLE
  5
305
100
AcDbEntity
  8
0
  6
CONTINUOUS
 62
               2
100
AcDbCircle
 10
13.0
 20
-34.500015258789063
 30
0.0
 40
8.3310003280639648
  0
CIRCLE
  5
306
100
AcDbEntity
  8
0
  6
CONTINUOUS
 62
               2
100
AcDbCircle
 10
22.0
 20
-11.500015258789063
 30
0.0
 40
8.3310003280639648
  0
CIRCLE
  5
307
100
AcDbEntity
  8
0
  6
CONTINUOUS
 62
               2
100
AcDbCircle
 10
13.0
 20
11.5
 30
0.0
 40
8.3310003280639648
  0
CIRCLE
  5
308
100
AcDbEntity
  8
0
  6
CONTINUOUS
 62
               2
100
AcDbCircle
 10
28.0
 20
22.5
 30
0.0
 40
2.5
  0
ARC
  5
309
100
AcDbEntity
  8
0
  6
CONTINUOUS
 62
               7
100
AcDbCircle
 10
64.75
 20
-58.999996185302734
 30
0.0
 40
1.5
100
AcDbArc
 50
270.00001798608872
 51
0.0
  0
ARC
  5
30A
100
AcDbEntity
  8
0
  6
CONTINUOUS
 62
               7
100
AcDbCircle
 10
62.25
 20
-58.999996185302734
 30
0.0
 40
1.5
100
AcDbArc
 50
179.99998133066492
 51
270.00001798608872
  0
ARC
  5
30B
100
AcDbEntity
  8
0
  6
CONTINUOUS
 62
               7
100
AcDbCircle
 10
68.0
 20
-60.499996185302734
 30
0.0
 40
0.5
100
AcDbArc
 50
270.00007262760209
 51
0.0000409811350201
  0
ARC
  5
30C
100
AcDbEntity
  8
0
  6
CONTINUOUS
 62
               7
100
AcDbCircle
 10
35.0
 20
-60.499996185302734
 30
0.0
 40
0.5
100
AcDbArc
 50
180.0000359721783
 51
270.00007262760209
  0
LINE
  5
30D
100
AcDbEntity
  8
0
  6
CONTINUOUS
 62
               7
100
AcDbLine
 10
0.0
 20
7.5
 30
0.0
 11
0.0
 21
28.5
 31
0.0
  0
LINE
  5
30E
100
AcDbEntity
  8
0
  6
CONTINUOUS
 62
               7
100
AcDbLine
 10
0.0000046044959277
 20
7.4999965173799978
 30
0.0
 11
10.000004430797901
 21
-2.5000033089219755
 31
0.0
  0
LINE
  5
30F
100
AcDbEntity
  8
0
  6
CONTINUOUS
 62
               7
100
AcDbLine
 10
-0.0000135186537591
 20
-30.500002055491677
 30
0.0
 11
9.9999888364591243
 21
-20.500003915063644
 31
0.0
  0
LINE
  5
310
100
AcDbEntity
  8
0
  6
CONTINUOUS
 62
               7
100
AcDbLine
 10
10.0
 20
-20.500015258789063
 30
0.0
 11
10.0
 21
-2.5
 31
0.0
  0
LINE
  5
311
100
AcDbEntity
  8
0
  6
CONTINUOUS
 62
               2
100
AcDbLine
 10
13.0
 20
2.1689910888671875
 30
0.0
 11
13.0
 21
20.83099365234375
 31
0.0
  0
LINE
  5
312
100
AcDbEntity
  8
0
  6
CONTINUOUS
 62
               2
100
AcDbLine
 10
13.0
 20
-43.831008911132813
 30
0.0
 11
13.0
 21
-25.16900634765625
 31
0.0
  0
LINE
  5
313
100
AcDbEntity
  8
0
  6
CONTINUOUS
 62
               2
100
AcDbLine
 10
22.0
 20
-20.831008911132813
 30
0.0
 11
22.0
 21
-2.16900634765625
 31
0.0
  0
LINE
  5
314
100
AcDbEntity
  8
0
  6
CONTINUOUS
 62
               2
100
AcDbLine
 10
28.0
 20
19.0
 30
0.0
 11
28.0
 21
26.0
 31
0.0
  0
LINE
  5
315
100
AcDbEntity
  8
0
  6
CONTINUOUS
 62
               2
100
AcDbLine
 10
24.5
 20
22.5
 30
0.0
 11
31.5
 21
22.5
 31
0.0
  0
LINE
  5
316
100
AcDbEntity
  8
0
  6
CONTINUOUS
 62
               2
100
AcDbLine
 10
3.66900634765625
 20
11.5
 30
0.0
 11
22.331008911132812
 21
11.5
 31
0.0
  0
LINE
  5
317
100
AcDbEntity
  8
0
  6
CONTINUOUS
 62
               2
100
AcDbLine
 10
3.66900634765625
 20
-34.500015258789063
 30
0.0
 11
22.331008911132812
 21
-34.500015258789063
 31
0.0
  0
LINE
  5
318
100
AcDbEntity
  8
0
  6
CONTINUOUS
 62
               2
100
AcDbLine
 10
12.66900634765625
 20
-11.500015258789063
 30
0.0
 11
31.331008911132813
 21
-11.500015258789063
 31
0.0
  0
LINE
  5
319
100
AcDbEntity
  8
0
  6
CONTINUOUS
 62
               7
100
AcDbLine
 10
34.000052878957831
 20
-36.500030636433621
 30
0.0
 11
24.000038891311306
 21
-46.500037037639231
 31
0.0
  0
LINE
  5
31A
100
AcDbEntity
  8
0
  6
CONTINUOUS
 62
               7
100
AcDbLine
 10
0.0
 20
-46.500003814697266
 30
0.0
 11
0.0
 21
-30.500015258789063
 31
0.0
  0
LINE
  5
31B
100
AcDbEntity
  8
0
  6
CONTINUOUS
 62
               7
100
AcDbLine
 10
0.0
 20
-46.500003814697266
 30
0.0
 11
24.0
 21
-46.500003814697266
 31
0.0
  0
LINE
  5
31C
100
AcDbEntity
  8
0
  6
CONTINUOUS
 62
               7
100
AcDbLine
 10
0.0
 20
28.5
 30
0.0
 11
34.0
 21
28.5
 31
0.0
  0
LINE
  5
31D
100
AcDbEntity
  8
0
  6
CONTINUOUS
 62
               7
100
AcDbLine
 10
64.0
 20
29.0
 30
0.0
 11
62.699996948242187
 21
29.0
 31
0.0
  0
LINE
  5
31E
100
AcDbEntity
  8
0
  6
CONTINUOUS
 62
               7
100
AcDbLine
 10
62.699996948242187
 20
27.5
 30
0.0
 11
62.699996948242187
 21
29.0
 31
0.0
  0
LINE
  5
31F
100
AcDbEntity
  8
0
  6
CONTINUOUS
 62
               7
100
AcDbLine
 10
59.699996948242188
 20
27.5
 30
0.0
 11
59.699996948242188
 21
29.0
 31
0.0
  0
LINE
  5
320
100
AcDbEntity
  8
0
  6
CONTINUOUS
 62
               7
100
AcDbLine
 10
40.5
 20
27.5
 30
0.0
 11
40.5
 21
29.0
 31
0.0
  0
LINE
  5
321
100
AcDbEntity
  8
0
  6
CONTINUOUS
 62
               7
100
AcDbLine
 10
59.699996948242188
 20
29.0
 30
0.0
 11
40.5
 21
29.0
 31
0.0
  0
LINE
  5
322
100
AcDbEntity
  8
0
  6
CONTINUOUS
 62
               7
100
AcDbLine
 10
38.0
 20
27.5
 30
0.0
 11
38.0
 21
29.0
 31
0.0
  0
LINE
  5
323
100
AcDbEntity
  8
0
  6
CONTINUOUS
 62
               7
100
AcDbLine
 10
38.0
 20
29.0
 30
0.0
 11
37.0
 21
29.0
 31
0.0
  0
LINE
  5
324
100
AcDbEntity
  8
0
  6
CONTINUOUS
 62
               7
100
AcDbLine
 10
60.75
 20
-58.999996185302734
 30
0.0
 11
60.75
 21
-58.499996185302734
 31
0.0
  0
LINE
  5
325
100
AcDbEntity
  8
0
  6
CONTINUOUS
 62
               7
100
AcDbLine
 10
66.25
 20
-58.999996185302734
 30
0.0
 11
66.25
 21
-58.499996185302734
 31
0.0
  0
LINE
  5
326
100
AcDbEntity
  8
0
  6
CONTINUOUS
 62
               7
100
AcDbLine
 10
64.75
 20
-60.499996185302734
 30
0.0
 11
62.25
 21
-60.499996185302734
 31
0.0
  0
LINE
  5
327
100
AcDbEntity
  8
0
  6
CONTINUOUS
 62
               7
100
AcDbLine
 10
66.699996948242187
 20
-58.499996185302734
 30
0.0
 11
60.300003051757813
 21
-58.499996185302734
 31
0.0
  0
LINE
  5
328
100
AcDbEntity
  8
0
  6
CONTINUOUS
 62
               7
100
AcDbLine
 10
60.300003051757813
 20
-60.999996185302734
 30
0.0
 11
60.300003051757813
 21
-58.499996185302734
 31
0.0
  0
LINE
  5
329
100
AcDbEntity
  8
0
  6
CONTINUOUS
 62
               7
100
AcDbLine
 10
66.699996948242187
 20
-60.999996185302734
 30
0.0
 11
66.699996948242187
 21
-58.499996185302734
 31
0.0
  0
LINE
  5
32A
100
AcDbEntity
  8
0
  6
CONTINUOUS
 62
               7
100
AcDbLine
 10
66.5
 20
25.0
 30
0.0
 11
34.5
 21
25.0
 31
0.0
  0
LINE
  5
32B
100
AcDbEntity
  8
0
  6
CONTINUOUS
 62
               7
100
AcDbLine
 10
67.5
 20
-39.0
 30
0.0
 11
67.5
 21
-38.0
 31
0.0
  0
LINE
  5
32C
100
AcDbEntity
  8
0
  6
CONTINUOUS
 62
               7
100
AcDbLine
 10
67.5
 20
-47.099994659423828
 30
0.0
 11
67.5
 21
-46.999996185302734
 31
0.0
  0
LINE
  5
32D
100
AcDbEntity
  8
0
  6
CONTINUOUS
 62
               7
100
AcDbLine
 10
68.5
 20
-39.0
 30
0.0
 11
68.5
 21
-38.0
 31
0.0
  0
LINE
  5
32E
100
AcDbEntity
  8
0
  6
CONTINUOUS
 62
               7
100
AcDbLine
 10
69.5
 20
-39.0
 30
0.0
 11
66.600006103515625
 21
-39.0
 31
0.0
  0
LINE
  5
32F
100
AcDbEntity
  8
0
  6
CONTINUOUS
 62
               7
100
AcDbLine
 10
69.5
 20
-48.999996185302734
 30
0.0
 11
66.600006103515625
 21
-48.999996185302734
 31
0.0
  0
LINE
  5
330
100
AcDbEntity
  8
0
  6
CONTINUOUS
 62
               7
100
AcDbLine
 10
66.600006103515625
 20
-40.900009155273438
 30
0.0
 11
66.600006103515625
 21
-39.0
 31
0.0
  0
LINE
  5
331
100
AcDbEntity
  8
0
  6
CONTINUOUS
 62
               7
100
AcDbLine
 10
69.300003051757812
 20
-47.099994659423828
 30
0.0
 11
66.600006103515625
 21
-47.099994659423828
 31
0.0
  0
LINE
  5
332
100
AcDbEntity
  8
0
  6
CONTINUOUS
 62
               7
100
AcDbLine
 10
69.300003051757812
 20
-40.900009155273438
 30
0.0
 11
66.600006103515625
 21
-40.900009155273438
 31
0.0
  0
LINE
  5
333
100
AcDbEntity
  8
0
  6
CONTINUOUS
 62
               7
100
AcDbLine
 10
66.600006103515625
 20
-48.999996185302734
 30
0.0
 11
66.600006103515625
 21
-47.099994659423828
 31
0.0
  0
LINE
  5
334
100
AcDbEntity
  8
0
  6
CONTINUOUS
 62
               7
100
AcDbLine
 10
67.5
 20
-41.0
 30
0.0
 11
67.5
 21
-40.900009155273438
 31
0.0
  0
LINE
  5
335
100
AcDbEntity
  8
0
  6
CONTINUOUS
 62
               7
100
AcDbLine
 10
66.5
 20
-49.999996185302734
 30
0.0
 11
66.5
 21
-46.999996185302734
 31
0.0
  0
LINE
  5
336
100
AcDbEntity
  8
0
  6
CONTINUOUS
 62
               7
100
AcDbLine
 10
67.5
 20
-49.999996185302734
 30
0.0
 11
67.5
 21
-48.999996185302734
 31
0.0
  0
LINE
  5
337
100
AcDbEntity
  8
0
  6
CONTINUOUS
 62
               7
100
AcDbLine
 10
68.5
 20
-41.0
 30
0.0
 11
66.5
 21
-41.0
 31
0.0
  0
LINE
  5
338
100
AcDbEntity
  8
0
  6
CONTINUOUS
 62
               7
100
AcDbLine
 10
68.5
 20
-46.999996185302734
 30
0.0
 11
66.5
 21
-46.999996185302734
 31
0.0
  0
LINE
  5
339
100
AcDbEntity
  8
0
  6
CONTINUOUS
 62
               7
100
AcDbLine
 10
69.5
 20
-48.999996185302734
 30
0.0
 11
69.5
 21
-39.0
 31
0.0
  0
LINE
  5
33A
100
AcDbEntity
  8
0
  6
CONTINUOUS
 62
               7
100
AcDbLine
 10
69.300003051757812
 20
-47.099994659423828
 30
0.0
 11
69.300003051757812
 21
-40.900009155273438
 31
0.0
  0
LINE
  5
33B
100
AcDbEntity
  8
0
  6
CONTINUOUS
 62
               7
100
AcDbLine
 10
69.500004416279808
 20
-49.000004161095148
 30
0.0
 11
70.499987017624335
 21
-48.000006302739621
 31
0.0
  0
LINE
  5
33C
100
AcDbEntity
  8
0
  6
CONTINUOUS
 62
               7
100
AcDbLine
 10
69.499994807740791
 20
-39.000017400962633
 30
0.0
 11
70.499997808087414
 21
-40.000016608088799
 31
0.0
  0
LINE
  5
33D
100
AcDbEntity
  8
0
  6
CONTINUOUS
 62
               7
100
AcDbLine
 10
70.5
 20
-47.999996185302734
 30
0.0
 11
70.5
 21
-40.0
 31
0.0
  0
LINE
  5
33E
100
AcDbEntity
  8
0
  6
CONTINUOUS
 62
               7
100
AcDbLine
 10
68.5
 20
-47.099994659423828
 30
0.0
 11
68.5
 21
-40.900009155273438
 31
0.0
  0
LINE
  5
33F
100
AcDbEntity
  8
0
  6
CONTINUOUS
 62
               7
100
AcDbLine
 10
37.0
 20
27.5
 30
0.0
 11
37.0
 21
38.5
 31
0.0
  0
LINE
  5
340
100
AcDbEntity
  8
0
  6
CONTINUOUS
 62
               7
100
AcDbLine
 10
64.0
 20
27.5
 30
0.0
 11
64.0
 21
38.5
 31
0.0
  0
LINE
  5
341
100
AcDbEntity
  8
0
  6
CONTINUOUS
 62
               7
100
AcDbLine
 10
65.0
 20
35.5
 30
0.0
 11
65.0
 21
37.150009155273437
 31
0.0
  0
LINE
  5
342
100
AcDbEntity
  8
0
  6
CONTINUOUS
 62
               7
100
AcDbLine
 10
65.0
 20
35.5
 30
0.0
 11
64.399993896484375
 21
35.5
 31
0.0
  0
LINE
  5
343
100
AcDbEntity
  8
0
  6
CONTINUOUS
 62
               7
100
AcDbLine
 10
65.0
 20
34.900009155273437
 30
0.0
 11
64.399993896484375
 21
34.900009155273437
 31
0.0
  0
LINE
  5
344
100
AcDbEntity
  8
0
  6
CONTINUOUS
 62
               7
100
AcDbLine
 10
64.399993896484375
 20
34.900009155273437
 30
0.0
 11
64.399993896484375
 21
35.5
 31
0.0
  0
LINE
  5
345
100
AcDbEntity
  8
0
  6
CONTINUOUS
 62
               7
100
AcDbLine
 10
65.0
 20
37.150009155273437
 30
0.0
 11
64.0
 21
37.150009155273437
 31
0.0
  0
LINE
  5
346
100
AcDbEntity
  8
0
  6
CONTINUOUS
 62
               7
100
AcDbLine
 10
65.0
 20
33.25
 30
0.0
 11
64.0
 21
33.25
 31
0.0
  0
LINE
  5
347
100
AcDbEntity
  8
0
  6
CONTINUOUS
 62
               7
100
AcDbLine
 10
65.0
 20
33.25
 30
0.0
 11
65.0
 21
34.899993896484375
 31
0.0
  0
LINE
  5
348
100
AcDbEntity
  8
0
  6
CONTINUOUS
 62
               2
100
AcDbLine
 10
66.0
 20
35.199996948242187
 30
0.0
 11
63.300003051757813
 21
35.199996948242187
 31
0.0
  0
LINE
  5
349
100
AcDbEntity
  8
0
  6
CONTINUOUS
 62
               7
100
AcDbLine
 10
68.0
 20
-60.999996185302734
 30
0.0
 11
35.0
 21
-60.999996185302734
 31
0.0
  0
LINE
  5
34A
100
AcDbEntity
  8
0
  6
CONTINUOUS
 62
               7
100
AcDbLine
 10
68.5
 20
-60.500003814697266
 30
0.0
 11
68.5
 21
-48.999996185302734
 31
0.0
  0
LINE
  5
34B
100
AcDbEntity
  8
0
  6
CONTINUOUS
 62
               7
100
AcDbLine
 10
68.5
 20
-49.999996185302734
 30
0.0
 11
34.5
 21
-49.999996185302734
 31
0.0
  0
LINE
  5
34C
100
AcDbEntity
  8
0
  6
CONTINUOUS
 62
               7
100
AcDbLine
 10
66.5
 20
-41.0
 30
0.0
 11
66.5
 21
25.0
 31
0.0
  0
LINE
  5
34D
100
AcDbEntity
  8
0
  6
CONTINUOUS
 62
               7
100
AcDbLine
 10
34.5
 20
-60.500003814697266
 30
0.0
 11
34.5
 21
25.0
 31
0.0
  0
LINE
  5
34E
100
AcDbEntity
  8
0
  6
CONTINUOUS
 62
               7
100
AcDbLine
 10
68.500015258789063
 20
-38.000015258789062
 30
0.0
 11
34.5
 21
-38.000015258789062
 31
0.0
  0
LINE
  5
34F
100
AcDbEntity
  8
0
  6
CONTINUOUS
 62
               7
100
AcDbLine
 10
66.5
 20
15.0
 30
0.0
 11
34.5
 21
15.0
 31
0.0
  0
ENDBLK
  5
350
100
AcDbEntity
  8
0
100
AcDbBlockEnd
  0
BLOCK
  5
351
100
AcDbEntity
  8
0
100
AcDbBlockBegin
  2
F18MF-3
 70
               0
 10
0.0
 20
0.0
 30
0.0
  3
F18MF-3
  1

  0
LINE
  5
352
100
AcDbEntity
  8
0
  6
CONTINUOUS
 62
               2
100
AcDbLine
 10
85.0
 20
-2.9682425127830641
 30
0.0
 11
85.0
 21
3.1386617969320696
 31
0.0
  0
LINE
  5
353
100
AcDbEntity
  8
0
  6
CONTINUOUS
 62
               2
100
AcDbLine
 10
0.0
 20
-2.9682425127830641
 30
0.0
 11
0.0
 21
3.1386617969320696
 31
0.0
  0
LINE
  5
354
100
AcDbEntity
  8
0
  6
CONTINUOUS
 62
               2
100
AcDbLine
 10
14.0
 20
69.5
 30
0.0
 11
14.0
 21
28.999984741210938
 31
0.0
  0
LINE
  5
355
100
AcDbEntity
  8
0
  6
CONTINUOUS
 62
               2
100
AcDbLine
 10
33.0
 20
69.5
 30
0.0
 11
33.0
 21
28.999992370605469
 31
0.0
  0
LINE
  5
356
100
AcDbEntity
  8
0
  6
CONTINUOUS
 62
               2
100
AcDbLine
 10
52.0
 20
69.5
 30
0.0
 11
52.0
 21
28.999992370605469
 31
0.0
  0
LINE
  5
357
100
AcDbEntity
  8
0
  6
CONTINUOUS
 62
               7
100
AcDbLine
 10
61.000030555354812
 20
34.499999320019086
 30
0.0
 11
43.000030555354869
 21
34.500000679980914
 31
0.0
  0
LINE
  5
358
100
AcDbEntity
  8
0
  6
CONTINUOUS
 62
               7
100
AcDbLine
 10
42.000030555354812
 20
34.499999320019086
 30
0.0
 11
24.000030555354869
 21
34.500000679980914
 31
0.0
  0
LINE
  5
359
100
AcDbEntity
  8
0
  6
CONTINUOUS
 62
               7
100
AcDbLine
 10
23.000030555354812
 20
34.499999320019086
 30
0.0
 11
5.0000305553548685
 21
34.500000679980914
 31
0.0
  0
LINE
  5
35A
100
AcDbEntity
  8
0
  6
CONTINUOUS
 62
               7
100
AcDbLine
 10
27.000030517578125
 20
60.500015258789063
 30
0.0
 11
24.000030517578125
 21
60.500015258789063
 31
0.0
  0
LINE
  5
35B
100
AcDbEntity
  8
0
  6
CONTINUOUS
 62
             200
100
AcDbLine
 10
33.0
 20
99.56109619140625
 30
0.0
 11
33.0
 21
69.5
 31
0.0
  0
LINE
  5
35C
100
AcDbEntity
  8
0
  6
CONTINUOUS
 62
               7
100
AcDbLine
 10
42.000015258789063
 20
69.5
 30
0.0
 11
42.000015258789063
 21
34.0
 31
0.0
  0
LINE
  5
35D
100
AcDbEntity
  8
0
  6
CONTINUOUS
 62
               7
100
AcDbLine
 10
24.000015258789063
 20
71.000015258789063
 30
0.0
 11
24.000015258789063
 21
34.0
 31
0.0
  0
LINE
  5
35E
100
AcDbEntity
  8
0
  6
CONTINUOUS
 62
               7
100
AcDbLine
 10
41.500030517578125
 20
68.5
 30
0.0
 11
24.500030517578125
 21
68.5
 31
0.0
  0
LINE
  5
35F
100
AcDbEntity
  8
0
  6
CONTINUOUS
 62
               7
100
AcDbLine
 10
28.060697278414409
 20
62.439363862255959
 30
0.0
 11
25.939377865229289
 21
64.560685242394356
 31
0.0
  0
LINE
  5
360
100
AcDbEntity
  8
0
  6
CONTINUOUS
 62
               7
100
AcDbLine
 10
25.939463198450539
 20
62.439256949757691
 30
0.0
 11
28.060784578588937
 21
64.560576362942811
 31
0.0
  0
LINE
  5
361
100
AcDbEntity
  8
0
  6
CONTINUOUS
 62
               7
100
AcDbLine
 10
39.000045776367188
 20
40.5
 30
0.0
 11
42.000045776367188
 21
40.5
 31
0.0
  0
LINE
  5
362
100
AcDbEntity
  8
0
  6
CONTINUOUS
 62
               7
100
AcDbLine
 10
36.000030517578125
 20
37.5
 30
0.0
 11
36.000030517578125
 21
34.5
 31
0.0
  0
LINE
  5
363
100
AcDbEntity
  8
0
  6
CONTINUOUS
 62
               7
100
AcDbLine
 10
40.060805905391589
 20
38.560511598323444
 30
0.0
 11
37.939479488082725
 21
36.439186432715303
 31
0.0
  0
LINE
  5
364
100
AcDbEntity
  8
0
  6
CONTINUOUS
 62
               7
100
AcDbLine
 10
37.939358056691958
 20
38.560631584087787
 30
0.0
 11
40.060677827504946
 21
36.439310561577258
 31
0.0
  0
LINE
  5
365
100
AcDbEntity
  8
0
  6
CONTINUOUS
 62
               7
100
AcDbLine
 10
27.000045776367188
 20
66.5
 30
0.0
 11
24.000045776367188
 21
66.5
 31
0.0
  0
LINE
  5
366
100
AcDbEntity
  8
0
  6
CONTINUOUS
 62
               7
100
AcDbLine
 10
24.000015258789063
 20
69.5
 30
0.0
 11
42.250030517578125
 21
69.5
 31
0.0
  0
LINE
  5
367
100
AcDbEntity
  8
0
  6
CONTINUOUS
 62
               7
100
AcDbLine
 10
31.050048828125
 20
69.5
 30
0.0
 11
31.050048828125
 21
68.5
 31
0.0
  0
LINE
  5
368
100
AcDbEntity
  8
0
  6
CONTINUOUS
 62
               7
100
AcDbLine
 10
34.950042724609375
 20
69.5
 30
0.0
 11
34.950042724609375
 21
68.5
 31
0.0
  0
ARC
  5
369
100
AcDbEntity
  8
0
  6
CONTINUOUS
 62
               7
100
AcDbCircle
 10
27.000030517578125
 20
63.500015258789063
 30
0.0
 40
3.0
100
AcDbArc
 50
270.00001798608872
 51
90.00014593845053
  0
ARC
  5
36A
100
AcDbEntity
  8
0
  6
CONTINUOUS
 62
               7
100
AcDbCircle
 10
41.500030517578125
 20
68.000015258789063
 30
0.0
 40
0.5
100
AcDbArc
 50
0.00001366037834
 51
89.999982013910454
  0
ARC
  5
36B
100
AcDbEntity
  8
0
  6
CONTINUOUS
 62
               7
100
AcDbCircle
 10
24.500030517578125
 20
68.000015258789063
 30
0.0
 40
0.5
100
AcDbArc
 50
89.999982013910454
 51
180.00001866933428
  0
CIRCLE
  5
36C
100
AcDbEntity
  8
0
  6
CONTINUOUS
 62
               7
100
AcDbCircle
 10
27.000030517578125
 20
63.500015258789063
 30
0.0
 40
2.7999992370605469
  0
ARC
  5
36D
100
AcDbEntity
  8
0
  6
CONTINUOUS
 62
               7
100
AcDbCircle
 10
39.000030517578125
 20
37.5
 30
0.0
 40
3.0
100
AcDbArc
 50
89.999982013910454
 51
179.99996402782091
  0
CIRCLE
  5
36E
100
AcDbEntity
  8
0
  6
CONTINUOUS
 62
               7
100
AcDbCircle
 10
39.000030517578125
 20
37.5
 30
0.0
 40
2.7999992370605469
  0
LINE
  5
36F
100
AcDbEntity
  8
0
  6
CONTINUOUS
 62
               7
100
AcDbLine
 10
40.500020392432816
 20
69.499984057169968
 30
0.0
 11
39.500019499430891
 21
70.499985287347045
 31
0.0
  0
LINE
  5
370
100
AcDbEntity
  8
0
  6
CONTINUOUS
 62
               7
100
AcDbLine
 10
26.499970632549775
 20
70.500037465079913
 30
0.0
 11
25.499970245310578
 21
69.500035729140109
 31
0.0
  0
LINE
  5
371
100
AcDbEntity
  8
0
  6
CONTINUOUS
 62
               7
100
AcDbLine
 10
42.300000011920929
 20
70.0
 30
0.0
 11
42.300000011920929
 21
69.5
 31
0.0
  0
LINE
  5
372
100
AcDbEntity
  8
0
  6
CONTINUOUS
 62
               4
100
AcDbLine
 10
24.000000000000014
 20
85.200007429394532
 30
0.0
 11
24.000015258789063
 21
71.000015258789063
 31
0.0
  0
LINE
  5
373
100
AcDbEntity
  8
0
  6
CONTINUOUS
 62
               4
100
AcDbLine
 10
42.0
 20
73.71462662939453
 30
0.0
 11
39.5
 21
73.71462662939453
 31
0.0
  0
LINE
  5
374
100
AcDbEntity
  8
0
  6
CONTINUOUS
 62
               4
100
AcDbLine
 10
36.5
 20
71.71462662939453
 30
0.0
 11
36.5
 21
70.5
 31
0.0
  0
LINE
  5
375
100
AcDbEntity
  8
0
  6
CONTINUOUS
 62
               4
100
AcDbLine
 10
24.0
 20
71.40526762939453
 30
0.0
 11
26.5
 21
71.40526762939453
 31
0.0
  0
LINE
  5
376
100
AcDbEntity
  8
0
  6
CONTINUOUS
 62
               4
100
AcDbLine
 10
42.0
 20
74.003302029394519
 30
0.0
 11
42.0
 21
70.900000015894562
 31
0.0
  0
LINE
  5
377
100
AcDbEntity
  8
0
  6
CONTINUOUS
 62
               4
100
AcDbLine
 10
42.0
 20
74.500007629394531
 30
0.0
 11
36.721160500000011
 21
74.500007629394531
 31
0.0
  0
ARC
  5
378
100
AcDbEntity
  8
0
  6
CONTINUOUS
 62
               4
100
AcDbCircle
 10
33.0
 20
88.190530761898515
 30
0.0
 40
14.187228732503996
100
AcDbArc
 50
254.79404619011382
 51
285.2059538098851
  0
LINE
  5
379
100
AcDbEntity
  8
0
  6
CONTINUOUS
 62
               4
100
AcDbLine
 10
38.300000369548798
 20
71.499999999999957
 30
0.0
 11
40.800000369548798
 21
71.499999999999957
 31
0.0
  0
ARC
  5
37A
100
AcDbEntity
  8
0
  6
CONTINUOUS
 62
               4
100
AcDbCircle
 10
40.800000011920929
 20
70.0
 30
0.0
 40
1.5
100
AcDbArc
 50
0.0000179860893428
 51
89.999986339621458
  0
ARC
  5
37B
100
AcDbEntity
  8
0
  6
CONTINUOUS
 62
               4
100
AcDbCircle
 10
38.300000011920929
 20
70.0
 30
0.0
 40
1.5
100
AcDbArc
 50
89.999986339621458
 51
160.52877936550897
  0
LINE
  5
37C
100
AcDbEntity
  8
0
  6
CONTINUOUS
 62
               4
100
AcDbLine
 10
29.278839500000004
 20
74.500007629394531
 30
0.0
 11
24.0
 21
74.500007629394531
 31
0.0
  0
LINE
  5
37D
100
AcDbEntity
  8
0
  6
CONTINUOUS
 62
               4
100
AcDbLine
 10
42.0
 20
85.200007429394532
 30
0.0
 11
24.0
 21
85.200007429394532
 31
0.0
  0
LINE
  5
37E
100
AcDbEntity
  8
0
  6
CONTINUOUS
 62
               4
100
AcDbLine
 10
24.000000000000014
 20
90.300007629394543
 30
0.0
 11
42.0
 21
90.300007629394543
 31
0.0
  0
LINE
  5
37F
100
AcDbEntity
  8
0
  6
CONTINUOUS
 62
               4
100
AcDbLine
 10
24.000000000000014
 20
91.500007629394531
 30
0.0
 11
42.0
 21
91.500007629394531
 31
0.0
  0
LINE
  5
380
100
AcDbEntity
  8
0
  6
CONTINUOUS
 62
               4
100
AcDbLine
 10
24.000000000000014
 20
93.864920629394533
 30
0.0
 11
42.0
 21
93.864920629394533
 31
0.0
  0
LINE
  5
381
100
AcDbEntity
  8
0
  6
CONTINUOUS
 62
               4
100
AcDbLine
 10
24.753590400000007
 20
94.300006629394545
 30
0.0
 11
41.246409600000007
 21
94.300006629394545
 31
0.0
  0
LINE
  5
382
100
AcDbEntity
  8
0
  6
CONTINUOUS
 62
               4
100
AcDbLine
 10
25.90000000000002
 20
95.900007629394537
 30
0.0
 11
40.100000000000009
 21
95.900007629394537
 31
0.0
  0
LINE
  5
383
100
AcDbEntity
  8
0
  6
CONTINUOUS
 62
               4
100
AcDbLine
 10
39.0
 20
96.400007629394537
 30
0.0
 11
39.0
 21
96.000007629394531
 31
0.0
  0
LINE
  5
384
100
AcDbEntity
  8
0
  6
CONTINUOUS
 62
               4
100
AcDbLine
 10
24.000000000000014
 20
85.600007229394521
 30
0.0
 11
42.0
 21
85.600007229394521
 31
0.0
  0
LINE
  5
385
100
AcDbEntity
  8
0
  6
CONTINUOUS
 62
               4
100
AcDbLine
 10
41.800000000000011
 20
85.400007629394537
 30
0.0
 11
42.0
 21
85.200007429394532
 31
0.0
  0
LINE
  5
386
100
AcDbEntity
  8
0
  6
CONTINUOUS
 62
               4
100
AcDbLine
 10
24.700000000000017
 20
91.300007629394543
 30
0.0
 11
24.700000000000017
 21
90.400007629394537
 31
0.0
  0
LINE
  5
387
100
AcDbEntity
  8
0
  6
CONTINUOUS
 62
               4
100
AcDbLine
 10
41.300000000000011
 20
91.300007629394543
 30
0.0
 11
41.300000000000011
 21
90.400007629394537
 31
0.0
  0
LINE
  5
388
100
AcDbEntity
  8
0
  6
CONTINUOUS
 62
               4
100
AcDbLine
 10
24.200000000000017
 20
85.400007629394537
 30
0.0
 11
24.000000000000014
 21
85.200007429394532
 31
0.0
  0
LINE
  5
389
100
AcDbEntity
  8
0
  6
CONTINUOUS
 62
               4
100
AcDbLine
 10
24.000000000000014
 20
90.300007629394543
 30
0.0
 11
24.100000000000009
 21
90.400007629394537
 31
0.0
  0
LINE
  5
38A
100
AcDbEntity
  8
0
  6
CONTINUOUS
 62
               4
100
AcDbLine
 10
42.0
 20
90.300007629394543
 30
0.0
 11
41.900000000000006
 21
90.400007629394537
 31
0.0
  0
LINE
  5
38B
100
AcDbEntity
  8
0
  6
CONTINUOUS
 62
               4
100
AcDbLine
 10
24.200000000000017
 20
85.400007029394544
 30
0.0
 11
24.000000000000014
 21
85.600007229394521
 31
0.0
  0
LINE
  5
38C
100
AcDbEntity
  8
0
  6
CONTINUOUS
 62
               4
100
AcDbLine
 10
24.000000000000014
 20
90.300007629394543
 30
0.0
 11
24.000000000000014
 21
85.600007229394521
 31
0.0
  0
LINE
  5
38D
100
AcDbEntity
  8
0
  6
CONTINUOUS
 62
               4
100
AcDbLine
 10
42.0
 20
90.300007629394543
 30
0.0
 11
42.0
 21
85.600007229394521
 31
0.0
  0
LINE
  5
38E
100
AcDbEntity
  8
0
  6
CONTINUOUS
 62
               4
100
AcDbLine
 10
24.200000000000017
 20
85.400007229394532
 30
0.0
 11
41.800000000000011
 21
85.400007229394532
 31
0.0
  0
LINE
  5
38F
100
AcDbEntity
  8
0
  6
CONTINUOUS
 62
               4
100
AcDbLine
 10
41.800000000000011
 20
85.400007029394544
 30
0.0
 11
42.0
 21
85.600007229394521
 31
0.0
  0
LINE
  5
390
100
AcDbEntity
  8
0
  6
CONTINUOUS
 62
               4
100
AcDbLine
 10
24.000000000000014
 20
93.86492162939453
 30
0.0
 11
24.000000000000014
 21
91.500007629394531
 31
0.0
  0
LINE
  5
391
100
AcDbEntity
  8
0
  6
CONTINUOUS
 62
               4
100
AcDbLine
 10
41.800000000000011
 20
91.300007629394543
 30
0.0
 11
42.0
 21
91.500007629394531
 31
0.0
  0
LINE
  5
392
100
AcDbEntity
  8
0
  6
CONTINUOUS
 62
               4
100
AcDbLine
 10
42.0
 20
93.86492162939453
 30
0.0
 11
42.0
 21
91.500007629394531
 31
0.0
  0
LINE
  5
393
100
AcDbEntity
  8
0
  6
CONTINUOUS
 62
               4
100
AcDbLine
 10
41.800000000000011
 20
91.300007629394543
 30
0.0
 11
24.200000000000017
 21
91.300007629394543
 31
0.0
  0
LINE
  5
394
100
AcDbEntity
  8
0
  6
CONTINUOUS
 62
               4
100
AcDbLine
 10
24.753590400000007
 20
94.300006629394545
 30
0.0
 11
25.100000800000018
 21
94.900006629394539
 31
0.0
  0
LINE
  5
395
100
AcDbEntity
  8
0
  6
CONTINUOUS
 62
               4
100
AcDbLine
 10
41.246409600000007
 20
94.300006629394545
 30
0.0
 11
40.899999200000011
 21
94.900006629394539
 31
0.0
  0
LINE
  5
396
100
AcDbEntity
  8
0
  6
CONTINUOUS
 62
               4
100
AcDbLine
 10
42.0
 20
93.864920629394533
 30
0.0
 11
41.246409600000007
 21
94.300006629394545
 31
0.0
  0
LINE
  5
397
100
AcDbEntity
  8
0
  6
CONTINUOUS
 62
               4
100
AcDbLine
 10
24.000000000000014
 20
93.864920629394533
 30
0.0
 11
24.753590400000007
 21
94.300006629394545
 31
0.0
  0
LINE
  5
398
100
AcDbEntity
  8
0
  6
CONTINUOUS
 62
               4
100
AcDbLine
 10
24.200000000000017
 20
91.300007629394543
 30
0.0
 11
24.000000000000014
 21
91.500007629394531
 31
0.0
  0
LINE
  5
399
100
AcDbEntity
  8
0
  6
CONTINUOUS
 62
               4
100
AcDbLine
 10
25.100000000000009
 20
94.900006629394539
 30
0.0
 11
40.899999200000011
 21
94.900006629394539
 31
0.0
  0
LINE
  5
39A
100
AcDbEntity
  8
0
  6
CONTINUOUS
 62
               4
100
AcDbLine
 10
41.900000000000006
 20
90.400007629394537
 30
0.0
 11
24.100000000000009
 21
90.400007629394537
 31
0.0
  0
LINE
  5
39B
100
AcDbEntity
  8
0
  6
CONTINUOUS
 62
               4
100
AcDbLine
 10
25.90000000000002
 20
95.900007629394537
 30
0.0
 11
25.90000000000002
 21
94.900006629394539
 31
0.0
  0
LINE
  5
39C
100
AcDbEntity
  8
0
  6
CONTINUOUS
 62
               4
100
AcDbLine
 10
26.000000000000014
 20
96.000007629394531
 30
0.0
 11
40.0
 21
96.000007629394531
 31
0.0
  0
LINE
  5
39D
100
AcDbEntity
  8
0
  6
CONTINUOUS
 62
               4
100
AcDbLine
 10
26.000000000000014
 20
96.000007629394531
 30
0.0
 11
25.90000000000002
 21
95.900007629394537
 31
0.0
  0
LINE
  5
39E
100
AcDbEntity
  8
0
  6
CONTINUOUS
 62
               4
100
AcDbLine
 10
40.0
 20
96.000007629394531
 30
0.0
 11
40.100000000000009
 21
95.900007629394537
 31
0.0
  0
LINE
  5
39F
100
AcDbEntity
  8
0
  6
CONTINUOUS
 62
               4
100
AcDbLine
 10
40.100000000000009
 20
95.900007629394537
 30
0.0
 11
40.100000000000009
 21
94.900006629394539
 31
0.0
  0
LINE
  5
3A0
100
AcDbEntity
  8
0
  6
CONTINUOUS
 62
               4
100
AcDbLine
 10
27.000000000000014
 20
96.400007629394537
 30
0.0
 11
27.000000000000014
 21
96.000007629394531
 31
0.0
  0
LINE
  5
3A1
100
AcDbEntity
  8
0
  6
CONTINUOUS
 62
               4
100
AcDbLine
 10
24.600000000000009
 20
97.800688629394529
 30
0.0
 11
24.600000000000009
 21
96.900007629394537
 31
0.0
  0
LINE
  5
3A2
100
AcDbEntity
  8
0
  6
CONTINUOUS
 62
               4
100
AcDbLine
 10
41.400000000000006
 20
96.900007629394537
 30
0.0
 11
24.600000000000009
 21
96.900007629394537
 31
0.0
  0
LINE
  5
3A3
100
AcDbEntity
  8
0
  6
CONTINUOUS
 62
               4
100
AcDbLine
 10
24.90000000000002
 20
98.100007629394526
 30
0.0
 11
41.100000000000009
 21
98.100007629394526
 31
0.0
  0
LINE
  5
3A4
100
AcDbEntity
  8
0
  6
CONTINUOUS
 62
               4
100
AcDbLine
 10
41.400000000000006
 20
97.800688629394529
 30
0.0
 11
41.400000000000006
 21
96.900007629394537
 31
0.0
  0
ARC
  5
3A5
100
AcDbEntity
  8
0
  6
CONTINUOUS
 62
               4
100
AcDbCircle
 10
39.5
 20
96.400007629394537
 30
0.0
 40
0.5
100
AcDbArc
 50
89.999999999999815
 51
179.9999999999998
  0
ARC
  5
3A6
100
AcDbEntity
  8
0
  6
CONTINUOUS
 62
               4
100
AcDbCircle
 10
24.90000000000002
 20
97.800007629394543
 30
0.0
 40
0.3
100
AcDbArc
 50
89.999999999999815
 51
179.9999999999998
  0
ARC
  5
3A7
100
AcDbEntity
  8
0
  6
CONTINUOUS
 62
               4
100
AcDbCircle
 10
26.500000000000014
 20
96.400007629394537
 30
0.0
 40
0.5
100
AcDbArc
 50
0.0000000000006107
 51
90.000000000000611
  0
ARC
  5
3A8
100
AcDbEntity
  8
0
  6
CONTINUOUS
 62
               4
100
AcDbCircle
 10
41.100000000000009
 20
97.800007629394543
 30
0.0
 40
0.3
100
AcDbArc
 50
0.0000000000006107
 51
90.000000000000611
  0
LINE
  5
3A9
100
AcDbEntity
  8
0
  6
CONTINUOUS
 62
               4
100
AcDbLine
 10
42.0
 20
85.20000762939452
 30
0.0
 11
42.0
 21
74.003302029394519
 31
0.0
  0
LINE
  5
3AA
100
AcDbEntity
  8
0
  6
CONTINUOUS
 62
               7
100
AcDbLine
 10
39.5
 20
70.5
 30
0.0
 11
26.5
 21
70.5
 31
0.0
  0
SPLINE
  5
3AB
100
AcDbEntity
  8
0
  6
CONTINUOUS
 62
               4
100
AcDbSpline
210
0.0
220
0.0
230
1.0
 70
               0
 71
               3
 72
               0
 73
               0
 74
              37
 44
0.000001
 12
-0.9881349170157097
 22
-0.1535883647102106
 32
0.0
 13
-0.2801395722747447
 23
-0.9599592804102282
 33
0.0
 11
39.5
 21
73.71462662939453
 31
0.0
 11
39.369760142265577
 21
73.692759216333911
 31
0.0
 11
39.240082644176219
 21
73.667726502853412
 31
0.0
 11
39.111034833977463
 21
73.639529218499533
 31
0.0
 11
38.982722194767405
 21
73.608173659765356
 31
0.0
 11
38.886058953979592
 21
73.582322691904722
 31
0.0
 11
38.789893133329031
 21
73.55468227518449
 31
0.0
 11
38.694256703981097
 21
73.525275805438298
 31
0.0
 11
38.599172740678412
 21
73.494124922515809
 31
0.0
 11
38.48194663633452
 21
73.4530446091713
 31
0.0
 11
38.365702179106918
 21
73.409260688520007
 31
0.0
 11
38.2505265651494
 21
73.362721804272482
 31
0.0
 11
38.136523498592027
 21
73.313383084794182
 31
0.0
 11
38.037375479225176
 21
73.267663818538082
 31
0.0
 11
37.93930439367179
 21
73.219679206239874
 31
0.0
 11
37.842417690698404
 21
73.169369741598132
 31
0.0
 11
37.746811155673896
 21
73.11667005875988
 31
0.0
 11
37.668031225222535
 21
73.070781663696778
 31
0.0
 11
37.590305428380795
 21
73.023131771027934
 31
0.0
 11
37.513715778570628
 21
72.973665252866198
 31
0.0
 11
37.438359581132403
 21
72.922337435301245
 31
0.0
 11
37.359103750835509
 21
72.865219661572979
 31
0.0
 11
37.281537864217078
 21
72.805826679772991
 31
0.0
 11
37.205838052225715
 21
72.744081829627262
 31
0.0
 11
37.132184474727097
 21
72.679911666519047
 31
0.0
 11
37.066554216792689
 21
72.618830847045771
 31
0.0
 11
37.002973285578626
 21
72.555620846833406
 31
0.0
 11
36.941604549913592
 21
72.490248645561849
 31
0.0
 11
36.882632023039477
 21
72.422705429799962
 31
0.0
 11
36.827138510750096
 21
72.354101637331553
 31
0.0
 11
36.774449305831077
 21
72.283322338031994
 31
0.0
 11
36.724880760153461
 21
72.210318333681585
 31
0.0
 11
36.678773718291609
 21
72.135082471721844
 31
0.0
 11
36.624547946433253
 21
72.034236401071738
 31
0.0
 11
36.57669410329764
 21
71.930180608493941
 31
0.0
 11
36.535194410724962
 21
71.823501857951527
 31
0.0
 11
36.5
 21
71.71462662939453
 31
0.0
  0
SPLINE
  5
3AC
100
AcDbEntity
  8
0
  6
CONTINUOUS
 62
               4
100
AcDbSpline
210
0.0
220
0.0
230
1.0
 70
               0
 71
               3
 72
               0
 73
               0
 74
              41
 44
0.000001
 12
0.9936236052884185
 22
0.1127480865187747
 32
0.0
 13
-0.7599872673059157
 23
0.6499379612954506
 33
0.0
 11
26.5
 21
71.40526762939453
 31
0.0
 11
26.68359500881736
 21
71.428123267609038
 31
0.0
 11
26.866668680642459
 21
71.454895417704648
 31
0.0
 11
27.049191063325729
 21
71.485479364499056
 31
0.0
 11
27.231056823554695
 21
71.519758535907869
 31
0.0
 11
27.44066262405866
 21
71.563998981520683
 31
0.0
 11
27.649106878944103
 21
71.613419088463488
 31
0.0
 11
27.856159491056058
 21
71.668387978702725
 31
0.0
 11
28.061558013091371
 21
71.729258291194185
 31
0.0
 11
28.235305950001962
 21
71.786247707026774
 31
0.0
 11
28.407178526193572
 21
71.84863853665253
 31
0.0
 11
28.576671749678827
 21
71.91725865265731
 31
0.0
 11
28.743179248018592
 21
71.992864094229418
 31
0.0
 11
28.884658523879075
 21
72.064946759022433
 31
0.0
 11
29.022020079175451
 21
72.144584341831774
 31
0.0
 11
29.153970854407365
 21
72.233524835959656
 31
0.0
 11
29.278340260704439
 21
72.332708612755752
 31
0.0
 11
29.346874292388282
 21
72.396283105988161
 31
0.0
 11
29.410546072132185
 21
72.464736937210759
 31
0.0
 11
29.46713695114574
 21
72.538176049514817
 31
0.0
 11
29.514997869451605
 21
72.617446722203397
 31
0.0
 11
29.549917829455914
 21
72.69621329976836
 31
0.0
 11
29.575515680144669
 21
72.778576844818303
 31
0.0
 11
29.592198313296183
 21
72.86367179086082
 31
0.0
 11
29.599999999999994
 21
72.950007629394534
 31
0.0
 11
29.595632982791635
 21
73.081507194509101
 31
0.0
 11
29.573915035926632
 21
73.211467265502876
 31
0.0
 11
29.53720470804193
 21
73.338585978299761
 31
0.0
 11
29.488003382173801
 21
73.461377612864524
 31
0.0
 11
29.430152813385153
 21
73.576387486672587
 31
0.0
 11
29.363653525925152
 21
73.686600311040536
 31
0.0
 11
29.289686462386666
 21
73.791457674966665
 31
0.0
 11
29.209031295337283
 21
73.891269025366682
 31
0.0
 11
29.124525609864229
 21
73.98413771519688
 31
0.0
 11
29.035290438314245
 21
74.072473197356217
 31
0.0
 11
28.941983987427164
 21
74.156622427803697
 31
0.0
 11
28.845326158437246
 21
74.236876554540828
 31
0.0
 11
28.761267477922068
 21
74.302453965734117
 31
0.0
 11
28.676484225995058
 21
74.367124702194545
 31
0.0
 11
28.592317019093077
 21
74.432433145658194
 31
0.0
 11
28.510000000000005
 21
74.500007629394531
 31
0.0
  0
LINE
  5
3AD
100
AcDbEntity
  8
0
  6
CONTINUOUS
 62
               7
100
AcDbLine
 10
46.000030517578125
 20
60.500015258789063
 30
0.0
 11
43.000030517578125
 21
60.500015258789063
 31
0.0
  0
LINE
  5
3AE
100
AcDbEntity
  8
0
  6
CONTINUOUS
 62
             200
100
AcDbLine
 10
52.0
 20
99.56109619140625
 30
0.0
 11
52.0
 21
69.5
 31
0.0
  0
LINE
  5
3AF
100
AcDbEntity
  8
0
  6
CONTINUOUS
 62
               7
100
AcDbLine
 10
61.000015258789063
 20
69.5
 30
0.0
 11
61.000015258789063
 21
34.0
 31
0.0
  0
LINE
  5
3B0
100
AcDbEntity
  8
0
  6
CONTINUOUS
 62
               7
100
AcDbLine
 10
43.000015258789063
 20
71.000015258789063
 30
0.0
 11
43.000015258789063
 21
34.0
 31
0.0
  0
LINE
  5
3B1
100
AcDbEntity
  8
0
  6
CONTINUOUS
 62
               7
100
AcDbLine
 10
60.500030517578125
 20
68.5
 30
0.0
 11
43.500030517578125
 21
68.5
 31
0.0
  0
LINE
  5
3B2
100
AcDbEntity
  8
0
  6
CONTINUOUS
 62
               7
100
AcDbLine
 10
47.060697278414409
 20
62.439363862255959
 30
0.0
 11
44.939377865229289
 21
64.560685242394356
 31
0.0
  0
LINE
  5
3B3
100
AcDbEntity
  8
0
  6
CONTINUOUS
 62
               7
100
AcDbLine
 10
44.939463198450539
 20
62.439256949757691
 30
0.0
 11
47.060784578588937
 21
64.560576362942811
 31
0.0
  0
LINE
  5
3B4
100
AcDbEntity
  8
0
  6
CONTINUOUS
 62
               7
100
AcDbLine
 10
58.000045776367188
 20
40.5
 30
0.0
 11
61.000045776367188
 21
40.5
 31
0.0
  0
LINE
  5
3B5
100
AcDbEntity
  8
0
  6
CONTINUOUS
 62
               7
100
AcDbLine
 10
55.000030517578125
 20
37.5
 30
0.0
 11
55.000030517578125
 21
34.5
 31
0.0
  0
LINE
  5
3B6
100
AcDbEntity
  8
0
  6
CONTINUOUS
 62
               7
100
AcDbLine
 10
59.060805905391589
 20
38.560511598323444
 30
0.0
 11
56.939479488082725
 21
36.439186432715303
 31
0.0
  0
LINE
  5
3B7
100
AcDbEntity
  8
0
  6
CONTINUOUS
 62
               7
100
AcDbLine
 10
56.939358056691958
 20
38.560631584087787
 30
0.0
 11
59.060677827504946
 21
36.439310561577258
 31
0.0
  0
LINE
  5
3B8
100
AcDbEntity
  8
0
  6
CONTINUOUS
 62
               7
100
AcDbLine
 10
46.000045776367188
 20
66.5
 30
0.0
 11
43.000045776367188
 21
66.5
 31
0.0
  0
LINE
  5
3B9
100
AcDbEntity
  8
0
  6
CONTINUOUS
 62
               7
100
AcDbLine
 10
43.000015258789063
 20
69.5
 30
0.0
 11
61.250030517578125
 21
69.5
 31
0.0
  0
LINE
  5
3BA
100
AcDbEntity
  8
0
  6
CONTINUOUS
 62
               7
100
AcDbLine
 10
50.050048828125
 20
69.5
 30
0.0
 11
50.050048828125
 21
68.5
 31
0.0
  0
LINE
  5
3BB
100
AcDbEntity
  8
0
  6
CONTINUOUS
 62
               7
100
AcDbLine
 10
53.950042724609375
 20
69.5
 30
0.0
 11
53.950042724609375
 21
68.5
 31
0.0
  0
ARC
  5
3BC
100
AcDbEntity
  8
0
  6
CONTINUOUS
 62
               7
100
AcDbCircle
 10
46.000030517578125
 20
63.500015258789063
 30
0.0
 40
3.0
100
AcDbArc
 50
270.00001798608872
 51
90.00014593845053
  0
ARC
  5
3BD
100
AcDbEntity
  8
0
  6
CONTINUOUS
 62
               7
100
AcDbCircle
 10
60.500030517578125
 20
68.000015258789063
 30
0.0
 40
0.5
100
AcDbArc
 50
0.00001366037834
 51
89.999982013910454
  0
ARC
  5
3BE
100
AcDbEntity
  8
0
  6
CONTINUOUS
 62
               7
100
AcDbCircle
 10
43.500030517578125
 20
68.000015258789063
 30
0.0
 40
0.5
100
AcDbArc
 50
89.999982013910454
 51
180.00001866933428
  0
CIRCLE
  5
3BF
100
AcDbEntity
  8
0
  6
CONTINUOUS
 62
               7
100
AcDbCircle
 10
46.000030517578125
 20
63.500015258789063
 30
0.0
 40
2.7999992370605469
  0
ARC
  5
3C0
100
AcDbEntity
  8
0
  6
CONTINUOUS
 62
               7
100
AcDbCircle
 10
58.000030517578125
 20
37.5
 30
0.0
 40
3.0
100
AcDbArc
 50
89.999982013910454
 51
179.99996402782091
  0
CIRCLE
  5
3C1
100
AcDbEntity
  8
0
  6
CONTINUOUS
 62
               7
100
AcDbCircle
 10
58.000030517578125
 20
37.5
 30
0.0
 40
2.7999992370605469
  0
LINE
  5
3C2
100
AcDbEntity
  8
0
  6
CONTINUOUS
 62
               7
100
AcDbLine
 10
59.500020392432816
 20
69.499984057169968
 30
0.0
 11
58.500019499430891
 21
70.499985287347045
 31
0.0
  0
LINE
  5
3C3
100
AcDbEntity
  8
0
  6
CONTINUOUS
 62
               7
100
AcDbLine
 10
45.499970632549775
 20
70.500037465079913
 30
0.0
 11
44.499970245310578
 21
69.500035729140109
 31
0.0
  0
LINE
  5
3C4
100
AcDbEntity
  8
0
  6
CONTINUOUS
 62
               7
100
AcDbLine
 10
61.300000011920929
 20
70.0
 30
0.0
 11
61.300000011920929
 21
69.5
 31
0.0
  0
LINE
  5
3C5
100
AcDbEntity
  8
0
  6
CONTINUOUS
 62
               4
100
AcDbLine
 10
43.0
 20
85.200007429394532
 30
0.0
 11
43.000015258789063
 21
71.000015258789063
 31
0.0
  0
LINE
  5
3C6
100
AcDbEntity
  8
0
  6
CONTINUOUS
 62
               4
100
AcDbLine
 10
61.0
 20
73.71462662939453
 30
0.0
 11
58.5
 21
73.71462662939453
 31
0.0
  0
LINE
  5
3C7
100
AcDbEntity
  8
0
  6
CONTINUOUS
 62
               4
100
AcDbLine
 10
55.5
 20
71.71462662939453
 30
0.0
 11
55.5
 21
70.5
 31
0.0
  0
LINE
  5
3C8
100
AcDbEntity
  8
0
  6
CONTINUOUS
 62
               4
100
AcDbLine
 10
43.0
 20
71.40526762939453
 30
0.0
 11
45.5
 21
71.40526762939453
 31
0.0
  0
LINE
  5
3C9
100
AcDbEntity
  8
0
  6
CONTINUOUS
 62
               4
100
AcDbLine
 10
61.0
 20
74.003302029394519
 30
0.0
 11
61.0
 21
70.900000015894562
 31
0.0
  0
LINE
  5
3CA
100
AcDbEntity
  8
0
  6
CONTINUOUS
 62
               4
100
AcDbLine
 10
61.0
 20
74.500007629394531
 30
0.0
 11
55.721160499999996
 21
74.500007629394531
 31
0.0
  0
ARC
  5
3CB
100
AcDbEntity
  8
0
  6
CONTINUOUS
 62
               4
100
AcDbCircle
 10
52.0
 20
88.190530761898515
 30
0.0
 40
14.187228732503996
100
AcDbArc
 50
254.79404619011382
 51
285.2059538098851
  0
LINE
  5
3CC
100
AcDbEntity
  8
0
  6
CONTINUOUS
 62
               4
100
AcDbLine
 10
57.300000369548798
 20
71.499999999999957
 30
0.0
 11
59.800000369548798
 21
71.499999999999957
 31
0.0
  0
ARC
  5
3CD
100
AcDbEntity
  8
0
  6
CONTINUOUS
 62
               4
100
AcDbCircle
 10
59.800000011920929
 20
70.0
 30
0.0
 40
1.5
100
AcDbArc
 50
0.0000179860893428
 51
89.999986339621458
  0
ARC
  5
3CE
100
AcDbEntity
  8
0
  6
CONTINUOUS
 62
               4
100
AcDbCircle
 10
57.300000011920929
 20
70.0
 30
0.0
 40
1.5
100
AcDbArc
 50
89.999986339621458
 51
160.52877936550897
  0
LINE
  5
3CF
100
AcDbEntity
  8
0
  6
CONTINUOUS
 62
               4
100
AcDbLine
 10
48.278839500000004
 20
74.500007629394531
 30
0.0
 11
43.0
 21
74.500007629394531
 31
0.0
  0
LINE
  5
3D0
100
AcDbEntity
  8
0
  6
CONTINUOUS
 62
               4
100
AcDbLine
 10
61.0
 20
85.200007429394532
 30
0.0
 11
43.0
 21
85.200007429394532
 31
0.0
  0
LINE
  5
3D1
100
AcDbEntity
  8
0
  6
CONTINUOUS
 62
               4
100
AcDbLine
 10
43.0
 20
90.300007629394543
 30
0.0
 11
61.0
 21
90.300007629394543
 31
0.0
  0
LINE
  5
3D2
100
AcDbEntity
  8
0
  6
CONTINUOUS
 62
               4
100
AcDbLine
 10
43.0
 20
91.500007629394531
 30
0.0
 11
61.0
 21
91.500007629394531
 31
0.0
  0
LINE
  5
3D3
100
AcDbEntity
  8
0
  6
CONTINUOUS
 62
               4
100
AcDbLine
 10
43.0
 20
93.864920629394533
 30
0.0
 11
61.0
 21
93.864920629394533
 31
0.0
  0
LINE
  5
3D4
100
AcDbEntity
  8
0
  6
CONTINUOUS
 62
               4
100
AcDbLine
 10
43.753590400000007
 20
94.300006629394545
 30
0.0
 11
60.246409599999993
 21
94.300006629394545
 31
0.0
  0
LINE
  5
3D5
100
AcDbEntity
  8
0
  6
CONTINUOUS
 62
               4
100
AcDbLine
 10
44.900000000000034
 20
95.900007629394537
 30
0.0
 11
59.100000000000023
 21
95.900007629394537
 31
0.0
  0
LINE
  5
3D6
100
AcDbEntity
  8
0
  6
CONTINUOUS
 62
               4
100
AcDbLine
 10
58.0
 20
96.400007629394537
 30
0.0
 11
58.0
 21
96.000007629394531
 31
0.0
  0
LINE
  5
3D7
100
AcDbEntity
  8
0
  6
CONTINUOUS
 62
               4
100
AcDbLine
 10
43.0
 20
85.600007229394521
 30
0.0
 11
61.0
 21
85.600007229394521
 31
0.0
  0
LINE
  5
3D8
100
AcDbEntity
  8
0
  6
CONTINUOUS
 62
               4
100
AcDbLine
 10
60.800000000000011
 20
85.400007629394537
 30
0.0
 11
61.0
 21
85.200007429394532
 31
0.0
  0
LINE
  5
3D9
100
AcDbEntity
  8
0
  6
CONTINUOUS
 62
               4
100
AcDbLine
 10
43.700000000000017
 20
91.300007629394543
 30
0.0
 11
43.700000000000017
 21
90.400007629394537
 31
0.0
  0
LINE
  5
3DA
100
AcDbEntity
  8
0
  6
CONTINUOUS
 62
               4
100
AcDbLine
 10
60.300000000000011
 20
91.300007629394543
 30
0.0
 11
60.300000000000011
 21
90.400007629394537
 31
0.0
  0
LINE
  5
3DB
100
AcDbEntity
  8
0
  6
CONTINUOUS
 62
               4
100
AcDbLine
 10
43.200000000000017
 20
85.400007629394537
 30
0.0
 11
43.0
 21
85.200007429394532
 31
0.0
  0
LINE
  5
3DC
100
AcDbEntity
  8
0
  6
CONTINUOUS
 62
               4
100
AcDbLine
 10
43.0
 20
90.300007629394543
 30
0.0
 11
43.100000000000023
 21
90.400007629394537
 31
0.0
  0
LINE
  5
3DD
100
AcDbEntity
  8
0
  6
CONTINUOUS
 62
               4
100
AcDbLine
 10
61.0
 20
90.300007629394543
 30
0.0
 11
60.900000000000006
 21
90.400007629394537
 31
0.0
  0
LINE
  5
3DE
100
AcDbEntity
  8
0
  6
CONTINUOUS
 62
               4
100
AcDbLine
 10
43.200000000000017
 20
85.400007029394544
 30
0.0
 11
43.0
 21
85.600007229394521
 31
0.0
  0
LINE
  5
3DF
100
AcDbEntity
  8
0
  6
CONTINUOUS
 62
               4
100
AcDbLine
 10
43.0
 20
90.300007629394543
 30
0.0
 11
43.0
 21
85.600007229394521
 31
0.0
  0
LINE
  5
3E0
100
AcDbEntity
  8
0
  6
CONTINUOUS
 62
               4
100
AcDbLine
 10
61.0
 20
90.300007629394543
 30
0.0
 11
61.0
 21
85.600007229394521
 31
0.0
  0
LINE
  5
3E1
100
AcDbEntity
  8
0
  6
CONTINUOUS
 62
               4
100
AcDbLine
 10
43.200000000000017
 20
85.400007229394532
 30
0.0
 11
60.800000000000011
 21
85.400007229394532
 31
0.0
  0
LINE
  5
3E2
100
AcDbEntity
  8
0
  6
CONTINUOUS
 62
               4
100
AcDbLine
 10
60.800000000000011
 20
85.400007029394544
 30
0.0
 11
61.0
 21
85.600007229394521
 31
0.0
  0
LINE
  5
3E3
100
AcDbEntity
  8
0
  6
CONTINUOUS
 62
               4
100
AcDbLine
 10
43.0
 20
93.86492162939453
 30
0.0
 11
43.0
 21
91.500007629394531
 31
0.0
  0
LINE
  5
3E4
100
AcDbEntity
  8
0
  6
CONTINUOUS
 62
               4
100
AcDbLine
 10
60.800000000000011
 20
91.300007629394543
 30
0.0
 11
61.0
 21
91.500007629394531
 31
0.0
  0
LINE
  5
3E5
100
AcDbEntity
  8
0
  6
CONTINUOUS
 62
               4
100
AcDbLine
 10
61.0
 20
93.86492162939453
 30
0.0
 11
61.0
 21
91.500007629394531
 31
0.0
  0
LINE
  5
3E6
100
AcDbEntity
  8
0
  6
CONTINUOUS
 62
               4
100
AcDbLine
 10
60.800000000000011
 20
91.300007629394543
 30
0.0
 11
43.200000000000017
 21
91.300007629394543
 31
0.0
  0
LINE
  5
3E7
100
AcDbEntity
  8
0
  6
CONTINUOUS
 62
               4
100
AcDbLine
 10
43.753590400000007
 20
94.300006629394545
 30
0.0
 11
44.100000800000032
 21
94.900006629394539
 31
0.0
  0
LINE
  5
3E8
100
AcDbEntity
  8
0
  6
CONTINUOUS
 62
               4
100
AcDbLine
 10
60.246409599999993
 20
94.300006629394545
 30
0.0
 11
59.899999200000025
 21
94.900006629394539
 31
0.0
  0
LINE
  5
3E9
100
AcDbEntity
  8
0
  6
CONTINUOUS
 62
               4
100
AcDbLine
 10
61.0
 20
93.864920629394533
 30
0.0
 11
60.246409599999993
 21
94.300006629394545
 31
0.0
  0
LINE
  5
3EA
100
AcDbEntity
  8
0
  6
CONTINUOUS
 62
               4
100
AcDbLine
 10
43.0
 20
93.864920629394533
 30
0.0
 11
43.753590400000007
 21
94.300006629394545
 31
0.0
  0
LINE
  5
3EB
100
AcDbEntity
  8
0
  6
CONTINUOUS
 62
               4
100
AcDbLine
 10
43.200000000000017
 20
91.300007629394543
 30
0.0
 11
43.0
 21
91.500007629394531
 31
0.0
  0
LINE
  5
3EC
100
AcDbEntity
  8
0
  6
CONTINUOUS
 62
               4
100
AcDbLine
 10
44.100000000000023
 20
94.900006629394539
 30
0.0
 11
59.899999200000025
 21
94.900006629394539
 31
0.0
  0
LINE
  5
3ED
100
AcDbEntity
  8
0
  6
CONTINUOUS
 62
               4
100
AcDbLine
 10
60.900000000000006
 20
90.400007629394537
 30
0.0
 11
43.100000000000023
 21
90.400007629394537
 31
0.0
  0
LINE
  5
3EE
100
AcDbEntity
  8
0
  6
CONTINUOUS
 62
               4
100
AcDbLine
 10
44.900000000000034
 20
95.900007629394537
 30
0.0
 11
44.900000000000034
 21
94.900006629394539
 31
0.0
  0
LINE
  5
3EF
100
AcDbEntity
  8
0
  6
CONTINUOUS
 62
               4
100
AcDbLine
 10
45.0
 20
96.000007629394531
 30
0.0
 11
59.0
 21
96.000007629394531
 31
0.0
  0
LINE
  5
3F0
100
AcDbEntity
  8
0
  6
CONTINUOUS
 62
               4
100
AcDbLine
 10
45.0
 20
96.000007629394531
 30
0.0
 11
44.900000000000034
 21
95.900007629394537
 31
0.0
  0
LINE
  5
3F1
100
AcDbEntity
  8
0
  6
CONTINUOUS
 62
               4
100
AcDbLine
 10
59.0
 20
96.000007629394531
 30
0.0
 11
59.100000000000023
 21
95.900007629394537
 31
0.0
  0
LINE
  5
3F2
100
AcDbEntity
  8
0
  6
CONTINUOUS
 62
               4
100
AcDbLine
 10
59.100000000000023
 20
95.900007629394537
 30
0.0
 11
59.100000000000023
 21
94.900006629394539
 31
0.0
  0
LINE
  5
3F3
100
AcDbEntity
  8
0
  6
CONTINUOUS
 62
               4
100
AcDbLine
 10
46.0
 20
96.400007629394537
 30
0.0
 11
46.0
 21
96.000007629394531
 31
0.0
  0
LINE
  5
3F4
100
AcDbEntity
  8
0
  6
CONTINUOUS
 62
               4
100
AcDbLine
 10
43.600000000000023
 20
97.800688629394529
 30
0.0
 11
43.600000000000023
 21
96.900007629394537
 31
0.0
  0
LINE
  5
3F5
100
AcDbEntity
  8
0
  6
CONTINUOUS
 62
               4
100
AcDbLine
 10
60.400000000000006
 20
96.900007629394537
 30
0.0
 11
43.600000000000023
 21
96.900007629394537
 31
0.0
  0
LINE
  5
3F6
100
AcDbEntity
  8
0
  6
CONTINUOUS
 62
               4
100
AcDbLine
 10
43.900000000000034
 20
98.100007629394526
 30
0.0
 11
60.100000000000023
 21
98.100007629394526
 31
0.0
  0
LINE
  5
3F7
100
AcDbEntity
  8
0
  6
CONTINUOUS
 62
               4
100
AcDbLine
 10
60.400000000000006
 20
97.800688629394529
 30
0.0
 11
60.400000000000006
 21
96.900007629394537
 31
0.0
  0
ARC
  5
3F8
100
AcDbEntity
  8
0
  6
CONTINUOUS
 62
               4
100
AcDbCircle
 10
58.5
 20
96.400007629394537
 30
0.0
 40
0.5
100
AcDbArc
 50
89.999999999999815
 51
179.9999999999998
  0
ARC
  5
3F9
100
AcDbEntity
  8
0
  6
CONTINUOUS
 62
               4
100
AcDbCircle
 10
43.900000000000034
 20
97.800007629394543
 30
0.0
 40
0.3
100
AcDbArc
 50
89.999999999999815
 51
179.9999999999998
  0
ARC
  5
3FA
100
AcDbEntity
  8
0
  6
CONTINUOUS
 62
               4
100
AcDbCircle
 10
45.5
 20
96.400007629394537
 30
0.0
 40
0.5
100
AcDbArc
 50
0.0000000000006107
 51
90.000000000000611
  0
ARC
  5
3FB
100
AcDbEntity
  8
0
  6
CONTINUOUS
 62
               4
100
AcDbCircle
 10
60.100000000000023
 20
97.800007629394543
 30
0.0
 40
0.3
100
AcDbArc
 50
0.0000000000006107
 51
90.000000000000611
  0
LINE
  5
3FC
100
AcDbEntity
  8
0
  6
CONTINUOUS
 62
               4
100
AcDbLine
 10
61.0
 20
85.20000762939452
 30
0.0
 11
61.0
 21
74.003302029394519
 31
0.0
  0
LINE
  5
3FD
100
AcDbEntity
  8
0
  6
CONTINUOUS
 62
               7
100
AcDbLine
 10
58.5
 20
70.5
 30
0.0
 11
45.5
 21
70.5
 31
0.0
  0
SPLINE
  5
3FE
100
AcDbEntity
  8
0
  6
CONTINUOUS
 62
               4
100
AcDbSpline
210
0.0
220
0.0
230
1.0
 70
               0
 71
               3
 72
               0
 73
               0
 74
              37
 44
0.000001
 12
-0.9881349170157097
 22
-0.1535883647102106
 32
0.0
 13
-0.280139572274745
 23
-0.9599592804102282
 33
0.0
 11
58.5
 21
73.71462662939453
 31
0.0
 11
58.369760142265577
 21
73.692759216333911
 31
0.0
 11
58.240082644176219
 21
73.667726502853412
 31
0.0
 11
58.111034833977463
 21
73.639529218499533
 31
0.0
 11
57.982722194767405
 21
73.608173659765356
 31
0.0
 11
57.886058953979592
 21
73.582322691904722
 31
0.0
 11
57.789893133329024
 21
73.55468227518449
 31
0.0
 11
57.69425670398109
 21
73.525275805438298
 31
0.0
 11
57.599172740678398
 21
73.494124922515809
 31
0.0
 11
57.481946636334513
 21
73.4530446091713
 31
0.0
 11
57.365702179106911
 21
73.409260688520007
 31
0.0
 11
57.250526565149393
 21
73.362721804272482
 31
0.0
 11
57.136523498592027
 21
73.313383084794182
 31
0.0
 11
57.037375479225176
 21
73.267663818538082
 31
0.0
 11
56.93930439367179
 21
73.219679206239874
 31
0.0
 11
56.842417690698404
 21
73.169369741598132
 31
0.0
 11
56.746811155673896
 21
73.11667005875988
 31
0.0
 11
56.668031225222535
 21
73.070781663696778
 31
0.0
 11
56.590305428380795
 21
73.023131771027934
 31
0.0
 11
56.513715778570628
 21
72.973665252866198
 31
0.0
 11
56.438359581132403
 21
72.922337435301245
 31
0.0
 11
56.359103750835509
 21
72.865219661572979
 31
0.0
 11
56.281537864217078
 21
72.805826679772991
 31
0.0
 11
56.205838052225715
 21
72.744081829627262
 31
0.0
 11
56.132184474727097
 21
72.679911666519047
 31
0.0
 11
56.066554216792689
 21
72.618830847045771
 31
0.0
 11
56.002973285578634
 21
72.555620846833406
 31
0.0
 11
55.941604549913606
 21
72.490248645561849
 31
0.0
 11
55.882632023039491
 21
72.422705429799962
 31
0.0
 11
55.82713851075011
 21
72.354101637331553
 31
0.0
 11
55.774449305831084
 21
72.283322338031994
 31
0.0
 11
55.724880760153461
 21
72.210318333681585
 31
0.0
 11
55.678773718291609
 21
72.135082471721844
 31
0.0
 11
55.624547946433253
 21
72.034236401071738
 31
0.0
 11
55.57669410329764
 21
71.930180608493941
 31
0.0
 11
55.535194410724962
 21
71.823501857951527
 31
0.0
 11
55.5
 21
71.71462662939453
 31
0.0
  0
SPLINE
  5
3FF
100
AcDbEntity
  8
0
  6
CONTINUOUS
 62
               4
100
AcDbSpline
210
0.0
220
0.0
230
1.0
 70
               0
 71
               3
 72
               0
 73
               0
 74
              41
 44
0.000001
 12
0.9936236052884185
 22
0.1127480865187747
 32
0.0
 13
-0.7599872673059152
 23
0.6499379612954512
 33
0.0
 11
45.5
 21
71.40526762939453
 31
0.0
 11
45.683595008817363
 21
71.428123267609038
 31
0.0
 11
45.866668680642462
 21
71.454895417704648
 31
0.0
 11
46.049191063325729
 21
71.485479364499056
 31
0.0
 11
46.231056823554695
 21
71.519758535907869
 31
0.0
 11
46.44066262405866
 21
71.563998981520683
 31
0.0
 11
46.649106878944103
 21
71.613419088463488
 31
0.0
 11
46.856159491056054
 21
71.668387978702725
 31
0.0
 11
47.061558013091371
 21
71.729258291194185
 31
0.0
 11
47.235305950001958
 21
71.786247707026774
 31
0.0
 11
47.407178526193562
 21
71.84863853665253
 31
0.0
 11
47.576671749678816
 21
71.91725865265731
 31
0.0
 11
47.743179248018578
 21
71.992864094229418
 31
0.0
 11
47.884658523879068
 21
72.064946759022433
 31
0.0
 11
48.022020079175455
 21
72.144584341831774
 31
0.0
 11
48.153970854407376
 21
72.233524835959642
 31
0.0
 11
48.278340260704454
 21
72.332708612755752
 31
0.0
 11
48.346874292388293
 21
72.396283105988161
 31
0.0
 11
48.410546072132192
 21
72.464736937210759
 31
0.0
 11
48.467136951145747
 21
72.538176049514817
 31
0.0
 11
48.514997869451605
 21
72.617446722203397
 31
0.0
 11
48.549917829455914
 21
72.69621329976836
 31
0.0
 11
48.575515680144669
 21
72.778576844818303
 31
0.0
 11
48.59219831329618
 21
72.86367179086082
 31
0.0
 11
48.599999999999994
 21
72.950007629394534
 31
0.0
 11
48.595632982791635
 21
73.081507194509101
 31
0.0
 11
48.573915035926639
 21
73.211467265502876
 31
0.0
 11
48.537204708041941
 21
73.338585978299761
 31
0.0
 11
48.488003382173815
 21
73.461377612864524
 31
0.0
 11
48.43015281338517
 21
73.576387486672587
 31
0.0
 11
48.363653525925166
 21
73.686600311040536
 31
0.0
 11
48.289686462386676
 21
73.791457674966665
 31
0.0
 11
48.209031295337297
 21
73.891269025366682
 31
0.0
 11
48.124525609864236
 21
73.98413771519688
 31
0.0
 11
48.035290438314249
 21
74.072473197356217
 31
0.0
 11
47.941983987427164
 21
74.156622427803697
 31
0.0
 11
47.845326158437246
 21
74.236876554540828
 31
0.0
 11
47.761267477922068
 21
74.302453965734117
 31
0.0
 11
47.676484225995054
 21
74.367124702194545
 31
0.0
 11
47.592317019093066
 21
74.432433145658194
 31
0.0
 11
47.509999999999991
 21
74.500007629394531
 31
0.0
  0
LINE
  5
400
100
AcDbEntity
  8
0
  6
CONTINUOUS
 62
               4
100
AcDbLine
 10
80.000030555327044
 20
34.499999320518953
 30
0.0
 11
62.000030555327101
 21
34.500000679481047
 31
0.0
  0
LINE
  5
401
100
AcDbEntity
  8
0
  6
CONTINUOUS
 62
               7
100
AcDbLine
 10
62.000030555327101
 20
34.500000679481047
 30
0.0
 11
62.000030517578153
 21
34.000000679481047
 31
0.0
  0
LINE
  5
402
100
AcDbEntity
  8
0
  6
CONTINUOUS
 62
               7
100
AcDbLine
 10
80.000030555327044
 20
34.499999320518953
 30
0.0
 11
80.000030517578097
 21
33.999999320518953
 31
0.0
  0
LINE
  5
403
100
AcDbEntity
  8
0
  6
CONTINUOUS
 62
               4
100
AcDbLine
 10
23.0
 20
73.71462662939453
 30
0.0
 11
20.5
 21
73.71462662939453
 31
0.0
  0
SPLINE
  5
404
100
AcDbEntity
  8
0
  6
CONTINUOUS
 62
               4
100
AcDbSpline
210
0.0
220
0.0
230
1.0
 70
               0
 71
               3
 72
               0
 73
               0
 74
              37
 44
0.000001
 12
-0.9881349170157097
 22
-0.1535883647102106
 32
0.0
 13
-0.280139572274745
 23
-0.9599592804102282
 33
0.0
 11
20.5
 21
73.71462662939453
 31
0.0
 11
20.369760142265577
 21
73.692759216333911
 31
0.0
 11
20.240082644176223
 21
73.667726502853412
 31
0.0
 11
20.111034833977463
 21
73.639529218499533
 31
0.0
 11
19.982722194767405
 21
73.608173659765356
 31
0.0
 11
19.886058953979592
 21
73.582322691904722
 31
0.0
 11
19.789893133329031
 21
73.55468227518449
 31
0.0
 11
19.6942567039811
 21
73.525275805438298
 31
0.0
 11
19.599172740678412
 21
73.494124922515809
 31
0.0
 11
19.48194663633452
 21
73.4530446091713
 31
0.0
 11
19.365702179106915
 21
73.409260688520007
 31
0.0
 11
19.250526565149396
 21
73.362721804272482
 31
0.0
 11
19.136523498592027
 21
73.313383084794182
 31
0.0
 11
19.037375479225172
 21
73.267663818538082
 31
0.0
 11
18.93930439367179
 21
73.219679206239874
 31
0.0
 11
18.842417690698401
 21
73.169369741598132
 31
0.0
 11
18.746811155673896
 21
73.11667005875988
 31
0.0
 11
18.668031225222538
 21
73.070781663696778
 31
0.0
 11
18.590305428380795
 21
73.023131771027934
 31
0.0
 11
18.513715778570624
 21
72.973665252866198
 31
0.0
 11
18.438359581132403
 21
72.922337435301245
 31
0.0
 11
18.359103750835509
 21
72.865219661572979
 31
0.0
 11
18.281537864217075
 21
72.805826679772991
 31
0.0
 11
18.205838052225712
 21
72.744081829627262
 31
0.0
 11
18.132184474727097
 21
72.679911666519047
 31
0.0
 11
18.066554216792689
 21
72.618830847045771
 31
0.0
 11
18.002973285578626
 21
72.555620846833406
 31
0.0
 11
17.941604549913595
 21
72.490248645561849
 31
0.0
 11
17.882632023039477
 21
72.422705429799962
 31
0.0
 11
17.827138510750093
 21
72.354101637331553
 31
0.0
 11
17.774449305831073
 21
72.283322338031994
 31
0.0
 11
17.724880760153457
 21
72.210318333681585
 31
0.0
 11
17.678773718291609
 21
72.135082471721844
 31
0.0
 11
17.62454794643325
 21
72.034236401071738
 31
0.0
 11
17.57669410329764
 21
71.930180608493941
 31
0.0
 11
17.535194410724966
 21
71.823501857951527
 31
0.0
 11
17.5
 21
71.71462662939453
 31
0.0
  0
LINE
  5
405
100
AcDbEntity
  8
0
  6
CONTINUOUS
 62
               4
100
AcDbLine
 10
17.5
 20
71.71462662939453
 30
0.0
 11
17.5
 21
70.5
 31
0.0
  0
SPLINE
  5
406
100
AcDbEntity
  8
0
  6
CONTINUOUS
 62
               4
100
AcDbSpline
210
0.0
220
0.0
230
1.0
 70
               0
 71
               3
 72
               0
 73
               0
 74
              41
 44
0.000001
 12
0.9936236052884185
 22
0.1127480865187747
 32
0.0
 13
-0.7599872673059157
 23
0.6499379612954506
 33
0.0
 11
7.5
 21
71.40526762939453
 31
0.0
 11
7.6835950088173588
 21
71.428123267609038
 31
0.0
 11
7.8666686806424586
 21
71.454895417704648
 31
0.0
 11
8.0491910633257291
 21
71.485479364499056
 31
0.0
 11
8.2310568235546953
 21
71.519758535907869
 31
0.0
 11
8.4406626240586622
 21
71.563998981520683
 31
0.0
 11
8.649106878944103
 21
71.613419088463488
 31
0.0
 11
8.8561594910560579
 21
71.668387978702725
 31
0.0
 11
9.0615580130913713
 21
71.729258291194185
 31
0.0
 11
9.2353059500019636
 21
71.786247707026774
 31
0.0
 11
9.4071785261935723
 21
71.84863853665253
 31
0.0
 11
9.5766717496788285
 21
71.91725865265731
 31
0.0
 11
9.7431792480185919
 21
71.992864094229418
 31
0.0
 11
9.884658523879077
 21
72.064946759022433
 31
0.0
 11
10.022020079175453
 21
72.144584341831774
 31
0.0
 11
10.153970854407367
 21
72.233524835959656
 31
0.0
 11
10.278340260704439
 21
72.332708612755752
 31
0.0
 11
10.346874292388282
 21
72.396283105988161
 31
0.0
 11
10.410546072132185
 21
72.464736937210759
 31
0.0
 11
10.46713695114574
 21
72.538176049514817
 31
0.0
 11
10.514997869451605
 21
72.617446722203397
 31
0.0
 11
10.549917829455914
 21
72.69621329976836
 31
0.0
 11
10.575515680144669
 21
72.778576844818303
 31
0.0
 11
10.592198313296183
 21
72.86367179086082
 31
0.0
 11
10.599999999999994
 21
72.950007629394534
 31
0.0
 11
10.595632982791633
 21
73.081507194509101
 31
0.0
 11
10.57391503592663
 21
73.211467265502876
 31
0.0
 11
10.53720470804193
 21
73.338585978299761
 31
0.0
 11
10.488003382173801
 21
73.461377612864524
 31
0.0
 11
10.430152813385154
 21
73.576387486672587
 31
0.0
 11
10.363653525925152
 21
73.686600311040536
 31
0.0
 11
10.289686462386664
 21
73.791457674966665
 31
0.0
 11
10.209031295337283
 21
73.891269025366682
 31
0.0
 11
10.124525609864227
 21
73.98413771519688
 31
0.0
 11
10.035290438314245
 21
74.072473197356217
 31
0.0
 11
9.9419839874271663
 21
74.156622427803697
 31
0.0
 11
9.8453261584372456
 21
74.236876554540828
 31
0.0
 11
9.7612674779220665
 21
74.302453965734117
 31
0.0
 11
9.6764842259950576
 21
74.367124702194545
 31
0.0
 11
9.5923170190930787
 21
74.432433145658194
 31
0.0
 11
9.5100000000000051
 21
74.500007629394531
 31
0.0
  0
LINE
  5
407
100
AcDbEntity
  8
0
  6
CONTINUOUS
 62
               4
100
AcDbLine
 10
5.0
 20
71.40526762939453
 30
0.0
 11
7.5
 21
71.40526762939453
 31
0.0
  0
LINE
  5
408
100
AcDbEntity
  8
0
  6
CONTINUOUS
 62
               7
100
AcDbLine
 10
23.300000011920929
 20
70.0
 30
0.0
 11
23.300000011920929
 21
69.5
 31
0.0
  0
LINE
  5
409
100
AcDbEntity
  8
0
  6
CONTINUOUS
 62
               4
100
AcDbLine
 10
23.0
 20
74.003302029394519
 30
0.0
 11
23.0
 21
70.900000015894562
 31
0.0
  0
LINE
  5
40A
100
AcDbEntity
  8
0
  6
CONTINUOUS
 62
               4
100
AcDbLine
 10
23.0
 20
74.500007629394531
 30
0.0
 11
17.721160500000011
 21
74.500007629394531
 31
0.0
  0
ARC
  5
40B
100
AcDbEntity
  8
0
  6
CONTINUOUS
 62
               4
100
AcDbCircle
 10
14.0
 20
88.190530761898515
 30
0.0
 40
14.187228732503996
100
AcDbArc
 50
254.79404619011382
 51
285.2059538098851
  0
LINE
  5
40C
100
AcDbEntity
  8
0
  6
CONTINUOUS
 62
               4
100
AcDbLine
 10
19.300000369548798
 20
71.499999999999957
 30
0.0
 11
21.800000369548798
 21
71.499999999999957
 31
0.0
  0
ARC
  5
40D
100
AcDbEntity
  8
0
  6
CONTINUOUS
 62
               4
100
AcDbCircle
 10
21.800000011920929
 20
70.0
 30
0.0
 40
1.5
100
AcDbArc
 50
0.0000179860893428
 51
89.999986339621458
  0
ARC
  5
40E
100
AcDbEntity
  8
0
  6
CONTINUOUS
 62
               4
100
AcDbCircle
 10
19.300000011920929
 20
70.0
 30
0.0
 40
1.5
100
AcDbArc
 50
89.999986339621458
 51
160.52877936550897
  0
LINE
  5
40F
100
AcDbEntity
  8
0
  6
CONTINUOUS
 62
               4
100
AcDbLine
 10
10.278839500000004
 20
74.500007629394531
 30
0.0
 11
5.0
 21
74.500007629394531
 31
0.0
  0
LINE
  5
410
100
AcDbEntity
  8
0
  6
CONTINUOUS
 62
               4
100
AcDbLine
 10
23.0
 20
85.200007429394532
 30
0.0
 11
5.0
 21
85.200007429394532
 31
0.0
  0
LINE
  5
411
100
AcDbEntity
  8
0
  6
CONTINUOUS
 62
               4
100
AcDbLine
 10
5.0000000000000142
 20
90.300007629394543
 30
0.0
 11
23.0
 21
90.300007629394543
 31
0.0
  0
LINE
  5
412
100
AcDbEntity
  8
0
  6
CONTINUOUS
 62
               4
100
AcDbLine
 10
5.0000000000000142
 20
91.500007629394531
 30
0.0
 11
23.0
 21
91.500007629394531
 31
0.0
  0
LINE
  5
413
100
AcDbEntity
  8
0
  6
CONTINUOUS
 62
               4
100
AcDbLine
 10
5.0000000000000142
 20
93.864920629394533
 30
0.0
 11
23.0
 21
93.864920629394533
 31
0.0
  0
LINE
  5
414
100
AcDbEntity
  8
0
  6
CONTINUOUS
 62
               4
100
AcDbLine
 10
5.7535904000000073
 20
94.300006629394545
 30
0.0
 11
22.246409600000007
 21
94.300006629394545
 31
0.0
  0
LINE
  5
415
100
AcDbEntity
  8
0
  6
CONTINUOUS
 62
               4
100
AcDbLine
 10
6.9000000000000199
 20
95.900007629394537
 30
0.0
 11
21.100000000000009
 21
95.900007629394537
 31
0.0
  0
LINE
  5
416
100
AcDbEntity
  8
0
  6
CONTINUOUS
 62
               4
100
AcDbLine
 10
20.0
 20
96.400007629394537
 30
0.0
 11
20.0
 21
96.000007629394531
 31
0.0
  0
LINE
  5
417
100
AcDbEntity
  8
0
  6
CONTINUOUS
 62
               4
100
AcDbLine
 10
5.0000000000000142
 20
85.600007229394521
 30
0.0
 11
23.0
 21
85.600007229394521
 31
0.0
  0
LINE
  5
418
100
AcDbEntity
  8
0
  6
CONTINUOUS
 62
               4
100
AcDbLine
 10
22.800000000000011
 20
85.400007629394537
 30
0.0
 11
23.0
 21
85.200007429394532
 31
0.0
  0
LINE
  5
419
100
AcDbEntity
  8
0
  6
CONTINUOUS
 62
               4
100
AcDbLine
 10
5.7000000000000171
 20
91.300007629394543
 30
0.0
 11
5.7000000000000171
 21
90.400007629394537
 31
0.0
  0
LINE
  5
41A
100
AcDbEntity
  8
0
  6
CONTINUOUS
 62
               4
100
AcDbLine
 10
22.300000000000011
 20
91.300007629394543
 30
0.0
 11
22.300000000000011
 21
90.400007629394537
 31
0.0
  0
LINE
  5
41B
100
AcDbEntity
  8
0
  6
CONTINUOUS
 62
               4
100
AcDbLine
 10
5.2000000000000171
 20
85.400007629394537
 30
0.0
 11
5.0000000000000142
 21
85.200007429394532
 31
0.0
  0
LINE
  5
41C
100
AcDbEntity
  8
0
  6
CONTINUOUS
 62
               4
100
AcDbLine
 10
5.0000000000000142
 20
90.300007629394543
 30
0.0
 11
5.1000000000000085
 21
90.400007629394537
 31
0.0
  0
LINE
  5
41D
100
AcDbEntity
  8
0
  6
CONTINUOUS
 62
               4
100
AcDbLine
 10
23.0
 20
90.300007629394543
 30
0.0
 11
22.900000000000006
 21
90.400007629394537
 31
0.0
  0
LINE
  5
41E
100
AcDbEntity
  8
0
  6
CONTINUOUS
 62
               4
100
AcDbLine
 10
5.2000000000000171
 20
85.400007029394544
 30
0.0
 11
5.0000000000000142
 21
85.600007229394521
 31
0.0
  0
LINE
  5
41F
100
AcDbEntity
  8
0
  6
CONTINUOUS
 62
               4
100
AcDbLine
 10
5.0000000000000142
 20
90.300007629394543
 30
0.0
 11
5.0000000000000142
 21
85.600007229394521
 31
0.0
  0
LINE
  5
420
100
AcDbEntity
  8
0
  6
CONTINUOUS
 62
               4
100
AcDbLine
 10
23.0
 20
90.300007629394543
 30
0.0
 11
23.0
 21
85.600007229394521
 31
0.0
  0
LINE
  5
421
100
AcDbEntity
  8
0
  6
CONTINUOUS
 62
               4
100
AcDbLine
 10
5.2000000000000171
 20
85.400007229394532
 30
0.0
 11
22.800000000000011
 21
85.400007229394532
 31
0.0
  0
LINE
  5
422
100
AcDbEntity
  8
0
  6
CONTINUOUS
 62
               4
100
AcDbLine
 10
22.800000000000011
 20
85.400007029394544
 30
0.0
 11
23.0
 21
85.600007229394521
 31
0.0
  0
LINE
  5
423
100
AcDbEntity
  8
0
  6
CONTINUOUS
 62
               4
100
AcDbLine
 10
5.0000000000000142
 20
93.86492162939453
 30
0.0
 11
5.0000000000000142
 21
91.500007629394531
 31
0.0
  0
LINE
  5
424
100
AcDbEntity
  8
0
  6
CONTINUOUS
 62
               4
100
AcDbLine
 10
22.800000000000011
 20
91.300007629394543
 30
0.0
 11
23.0
 21
91.500007629394531
 31
0.0
  0
LINE
  5
425
100
AcDbEntity
  8
0
  6
CONTINUOUS
 62
               4
100
AcDbLine
 10
23.0
 20
93.86492162939453
 30
0.0
 11
23.0
 21
91.500007629394531
 31
0.0
  0
LINE
  5
426
100
AcDbEntity
  8
0
  6
CONTINUOUS
 62
               4
100
AcDbLine
 10
22.800000000000011
 20
91.300007629394543
 30
0.0
 11
5.2000000000000171
 21
91.300007629394543
 31
0.0
  0
LINE
  5
427
100
AcDbEntity
  8
0
  6
CONTINUOUS
 62
               4
100
AcDbLine
 10
5.7535904000000073
 20
94.300006629394545
 30
0.0
 11
6.1000008000000179
 21
94.900006629394539
 31
0.0
  0
LINE
  5
428
100
AcDbEntity
  8
0
  6
CONTINUOUS
 62
               4
100
AcDbLine
 10
22.246409600000007
 20
94.300006629394545
 30
0.0
 11
21.899999200000011
 21
94.900006629394539
 31
0.0
  0
LINE
  5
429
100
AcDbEntity
  8
0
  6
CONTINUOUS
 62
               4
100
AcDbLine
 10
23.0
 20
93.864920629394533
 30
0.0
 11
22.246409600000007
 21
94.300006629394545
 31
0.0
  0
LINE
  5
42A
100
AcDbEntity
  8
0
  6
CONTINUOUS
 62
               4
100
AcDbLine
 10
5.0000000000000142
 20
93.864920629394533
 30
0.0
 11
5.7535904000000073
 21
94.300006629394545
 31
0.0
  0
LINE
  5
42B
100
AcDbEntity
  8
0
  6
CONTINUOUS
 62
               4
100
AcDbLine
 10
5.2000000000000171
 20
91.300007629394543
 30
0.0
 11
5.0000000000000142
 21
91.500007629394531
 31
0.0
  0
LINE
  5
42C
100
AcDbEntity
  8
0
  6
CONTINUOUS
 62
               4
100
AcDbLine
 10
6.1000000000000085
 20
94.900006629394539
 30
0.0
 11
21.899999200000011
 21
94.900006629394539
 31
0.0
  0
LINE
  5
42D
100
AcDbEntity
  8
0
  6
CONTINUOUS
 62
               4
100
AcDbLine
 10
22.900000000000006
 20
90.400007629394537
 30
0.0
 11
5.1000000000000085
 21
90.400007629394537
 31
0.0
  0
LINE
  5
42E
100
AcDbEntity
  8
0
  6
CONTINUOUS
 62
               4
100
AcDbLine
 10
6.9000000000000199
 20
95.900007629394537
 30
0.0
 11
6.9000000000000199
 21
94.900006629394539
 31
0.0
  0
LINE
  5
42F
100
AcDbEntity
  8
0
  6
CONTINUOUS
 62
               4
100
AcDbLine
 10
7.0000000000000142
 20
96.000007629394531
 30
0.0
 11
21.0
 21
96.000007629394531
 31
0.0
  0
LINE
  5
430
100
AcDbEntity
  8
0
  6
CONTINUOUS
 62
               4
100
AcDbLine
 10
7.0000000000000142
 20
96.000007629394531
 30
0.0
 11
6.9000000000000199
 21
95.900007629394537
 31
0.0
  0
LINE
  5
431
100
AcDbEntity
  8
0
  6
CONTINUOUS
 62
               4
100
AcDbLine
 10
21.0
 20
96.000007629394531
 30
0.0
 11
21.100000000000009
 21
95.900007629394537
 31
0.0
  0
LINE
  5
432
100
AcDbEntity
  8
0
  6
CONTINUOUS
 62
               4
100
AcDbLine
 10
21.100000000000009
 20
95.900007629394537
 30
0.0
 11
21.100000000000009
 21
94.900006629394539
 31
0.0
  0
LINE
  5
433
100
AcDbEntity
  8
0
  6
CONTINUOUS
 62
               4
100
AcDbLine
 10
8.0000000000000142
 20
96.400007629394537
 30
0.0
 11
8.0000000000000142
 21
96.000007629394531
 31
0.0
  0
LINE
  5
434
100
AcDbEntity
  8
0
  6
CONTINUOUS
 62
               4
100
AcDbLine
 10
5.6000000000000085
 20
97.800688629394529
 30
0.0
 11
5.6000000000000085
 21
96.900007629394537
 31
0.0
  0
LINE
  5
435
100
AcDbEntity
  8
0
  6
CONTINUOUS
 62
               4
100
AcDbLine
 10
22.400000000000006
 20
96.900007629394537
 30
0.0
 11
5.6000000000000085
 21
96.900007629394537
 31
0.0
  0
LINE
  5
436
100
AcDbEntity
  8
0
  6
CONTINUOUS
 62
               4
100
AcDbLine
 10
5.9000000000000199
 20
98.100007629394526
 30
0.0
 11
22.100000000000009
 21
98.100007629394526
 31
0.0
  0
LINE
  5
437
100
AcDbEntity
  8
0
  6
CONTINUOUS
 62
               4
100
AcDbLine
 10
22.400000000000006
 20
97.800688629394529
 30
0.0
 11
22.400000000000006
 21
96.900007629394537
 31
0.0
  0
ARC
  5
438
100
AcDbEntity
  8
0
  6
CONTINUOUS
 62
               4
100
AcDbCircle
 10
20.5
 20
96.400007629394537
 30
0.0
 40
0.5
100
AcDbArc
 50
89.999999999999815
 51
179.9999999999998
  0
ARC
  5
439
100
AcDbEntity
  8
0
  6
CONTINUOUS
 62
               4
100
AcDbCircle
 10
5.9000000000000199
 20
97.800007629394543
 30
0.0
 40
0.3
100
AcDbArc
 50
89.999999999999815
 51
179.9999999999998
  0
ARC
  5
43A
100
AcDbEntity
  8
0
  6
CONTINUOUS
 62
               4
100
AcDbCircle
 10
7.5000000000000142
 20
96.400007629394537
 30
0.0
 40
0.5
100
AcDbArc
 50
0.0000000000006107
 51
90.000000000000611
  0
ARC
  5
43B
100
AcDbEntity
  8
0
  6
CONTINUOUS
 62
               4
100
AcDbCircle
 10
22.100000000000009
 20
97.800007629394543
 30
0.0
 40
0.3
100
AcDbArc
 50
0.0000000000006107
 51
90.000000000000611
  0
LINE
  5
43C
100
AcDbEntity
  8
0
  6
CONTINUOUS
 62
               4
100
AcDbLine
 10
23.0
 20
85.20000762939452
 30
0.0
 11
23.0
 21
74.003302029394519
 31
0.0
  0
LINE
  5
43D
100
AcDbEntity
  8
0
  6
CONTINUOUS
 62
               7
100
AcDbLine
 10
7.4999706325497755
 20
70.500037465079913
 30
0.0
 11
6.4999702453105783
 21
69.500035729140109
 31
0.0
  0
LINE
  5
43E
100
AcDbEntity
  8
0
  6
CONTINUOUS
 62
               7
100
AcDbLine
 10
21.500020392432816
 20
69.499984057169968
 30
0.0
 11
20.500019499430891
 21
70.499985287347045
 31
0.0
  0
LINE
  5
43F
100
AcDbEntity
  8
0
  6
CONTINUOUS
 62
               7
100
AcDbLine
 10
20.5
 20
70.5
 30
0.0
 11
7.5
 21
70.5
 31
0.0
  0
LINE
  5
440
100
AcDbEntity
  8
0
  6
CONTINUOUS
 62
               4
100
AcDbLine
 10
5.0
 20
85.200007429394532
 30
0.0
 11
5.0000152587890625
 21
68.000015095868378
 31
0.0
  0
ARC
  5
441
100
AcDbEntity
  8
0
  6
CONTINUOUS
 62
               4
100
AcDbCircle
 10
63.200027465820312
 20
38.199996948242188
 30
0.0
 40
1.5
100
AcDbArc
 50
89.999982013910454
 51
179.99996402782091
  0
ARC
  5
442
100
AcDbEntity
  8
0
  6
CONTINUOUS
 62
               4
100
AcDbCircle
 10
65.800033569335937
 20
38.199996948242188
 30
0.0
 40
1.5
100
AcDbArc
 50
0.0
 51
89.999982013910454
  0
ARC
  5
443
100
AcDbEntity
  8
0
  6
CONTINUOUS
 62
               4
100
AcDbCircle
 10
76.200027465820312
 20
38.199996948242188
 30
0.0
 40
1.5
100
AcDbArc
 50
89.999982013910454
 51
179.99996402782091
  0
ARC
  5
444
100
AcDbEntity
  8
0
  6
CONTINUOUS
 62
               4
100
AcDbCircle
 10
78.800033569335937
 20
38.199996948242188
 30
0.0
 40
1.5
100
AcDbArc
 50
0.0
 51
89.999982013910454
  0
CIRCLE
  5
445
100
AcDbEntity
  8
0
  6
CONTINUOUS
 62
               7
100
AcDbCircle
 10
20.000030517578125
 20
37.5
 30
0.0
 40
2.7999992370605469
  0
ARC
  5
446
100
AcDbEntity
  8
0
  6
CONTINUOUS
 62
               7
100
AcDbCircle
 10
20.000030517578125
 20
37.5
 30
0.0
 40
3.0
100
AcDbArc
 50
89.999982013910454
 51
179.99996402782091
  0
CIRCLE
  5
447
100
AcDbEntity
  8
0
  6
CONTINUOUS
 62
               7
100
AcDbCircle
 10
8.000030517578125
 20
63.500015258789063
 30
0.0
 40
2.7999992370605469
  0
ARC
  5
448
100
AcDbEntity
  8
0
  6
CONTINUOUS
 62
               7
100
AcDbCircle
 10
5.500030517578125
 20
68.000015258789063
 30
0.0
 40
0.5
100
AcDbArc
 50
89.999982013910454
 51
180.00001866933428
  0
ARC
  5
449
100
AcDbEntity
  8
0
  6
CONTINUOUS
 62
               7
100
AcDbCircle
 10
22.500030517578125
 20
68.000015258789063
 30
0.0
 40
0.5
100
AcDbArc
 50
0.00001366037834
 51
89.999982013910454
  0
ARC
  5
44A
100
AcDbEntity
  8
0
  6
CONTINUOUS
 62
               7
100
AcDbCircle
 10
8.000030517578125
 20
63.500015258789063
 30
0.0
 40
3.0
100
AcDbArc
 50
270.00001798608872
 51
90.00014593845053
  0
LINE
  5
44B
100
AcDbEntity
  8
0
  6
CONTINUOUS
 62
               7
100
AcDbLine
 10
-5.0
 20
24.0
 30
0.0
 11
90.0
 21
24.0
 31
0.0
  0
LINE
  5
44C
100
AcDbEntity
  8
0
  6
CONTINUOUS
 62
               7
100
AcDbLine
 10
90.0
 20
34.0
 30
0.0
 11
90.0
 21
0.0
 31
0.0
  0
LINE
  5
44D
100
AcDbEntity
  8
0
  6
CONTINUOUS
 62
               7
100
AcDbLine
 10
-5.0
 20
34.0
 30
0.0
 11
-5.0
 21
0.0
 31
0.0
  0
LINE
  5
44E
100
AcDbEntity
  8
0
  6
CONTINUOUS
 62
               7
100
AcDbLine
 10
-5.0
 20
0.0
 30
0.0
 11
90.0
 21
0.0
 31
0.0
  0
LINE
  5
44F
100
AcDbEntity
  8
0
  6
CONTINUOUS
 62
               7
100
AcDbLine
 10
-5.0
 20
34.0
 30
0.0
 11
90.0
 21
34.0
 31
0.0
  0
LINE
  5
450
100
AcDbEntity
  8
0
  6
CONTINUOUS
 62
               4
100
AcDbLine
 10
76.200027465820312
 20
39.699996948242187
 30
0.0
 11
78.800033569335937
 21
39.699996948242187
 31
0.0
  0
LINE
  5
451
100
AcDbEntity
  8
0
  6
CONTINUOUS
 62
               4
100
AcDbLine
 10
63.200027465820312
 20
39.699996948242187
 30
0.0
 11
65.800033569335937
 21
39.699996948242187
 31
0.0
  0
LINE
  5
452
100
AcDbEntity
  8
0
  6
CONTINUOUS
 62
               4
100
AcDbLine
 10
74.700027465820313
 20
38.199996948242188
 30
0.0
 11
74.700027465820313
 21
37.699996948242187
 31
0.0
  0
LINE
  5
453
100
AcDbEntity
  8
0
  6
CONTINUOUS
 62
               4
100
AcDbLine
 10
80.300033569335938
 20
38.199996948242188
 30
0.0
 11
80.300033569335938
 21
37.699996948242187
 31
0.0
  0
LINE
  5
454
100
AcDbEntity
  8
0
  6
CONTINUOUS
 62
               4
100
AcDbLine
 10
61.700027465820313
 20
38.199996948242188
 30
0.0
 11
61.700027465820313
 21
37.699996948242187
 31
0.0
  0
LINE
  5
455
100
AcDbEntity
  8
0
  6
CONTINUOUS
 62
               4
100
AcDbLine
 10
67.300033569335938
 20
38.199996948242188
 30
0.0
 11
67.300033569335938
 21
37.699996948242187
 31
0.0
  0
LINE
  5
456
100
AcDbEntity
  8
0
  6
CONTINUOUS
 62
               4
100
AcDbLine
 10
80.000030517578125
 20
37.699996948242187
 30
0.0
 11
80.000030517578125
 21
34.5
 31
0.0
  0
LINE
  5
457
100
AcDbEntity
  8
0
  6
CONTINUOUS
 62
               4
100
AcDbLine
 10
62.000030517578125
 20
37.699996948242187
 30
0.0
 11
62.000030517578125
 21
34.5
 31
0.0
  0
LINE
  5
458
100
AcDbEntity
  8
0
  6
CONTINUOUS
 62
             200
100
AcDbLine
 10
71.000030517578125
 20
40.093429565429687
 30
0.0
 11
71.000030517578125
 21
32.146865844726563
 31
0.0
  0
LINE
  5
459
100
AcDbEntity
  8
0
  6
CONTINUOUS
 62
               4
100
AcDbLine
 10
61.700027465820313
 20
37.699996948242187
 30
0.0
 11
80.300033569335938
 21
37.699996948242187
 31
0.0
  0
LINE
  5
45A
100
AcDbEntity
  8
0
  6
CONTINUOUS
 62
               7
100
AcDbLine
 10
62.000030517578125
 20
34.5
 30
0.0
 11
80.000030517578125
 21
34.5
 31
0.0
  0
LINE
  5
45B
100
AcDbEntity
  8
0
  6
CONTINUOUS
 62
               7
100
AcDbLine
 10
5.0000152587890625
 20
69.5
 30
0.0
 11
23.300000011920929
 21
69.5
 31
0.0
  0
LINE
  5
45C
100
AcDbEntity
  8
0
  6
CONTINUOUS
 62
               7
100
AcDbLine
 10
8.0000457763671875
 20
66.5
 30
0.0
 11
5.0000457763671875
 21
66.5
 31
0.0
  0
LINE
  5
45D
100
AcDbEntity
  8
0
  6
CONTINUOUS
 62
               7
100
AcDbLine
 10
18.939384533769683
 20
38.560601222132107
 30
0.0
 11
21.060704304582671
 21
36.439280199621578
 31
0.0
  0
LINE
  5
45E
100
AcDbEntity
  8
0
  6
CONTINUOUS
 62
               7
100
AcDbLine
 10
21.060841612628508
 20
38.560478328232421
 30
0.0
 11
18.939515195319643
 21
36.43915316262428
 31
0.0
  0
LINE
  5
45F
100
AcDbEntity
  8
0
  6
CONTINUOUS
 62
               7
100
AcDbLine
 10
17.000030517578125
 20
37.5
 30
0.0
 11
17.000030517578125
 21
34.5
 31
0.0
  0
LINE
  5
460
100
AcDbEntity
  8
0
  6
CONTINUOUS
 62
               7
100
AcDbLine
 10
20.000045776367188
 20
40.5
 30
0.0
 11
23.000045776367188
 21
40.5
 31
0.0
  0
LINE
  5
461
100
AcDbEntity
  8
0
  6
CONTINUOUS
 62
               7
100
AcDbLine
 10
6.9394738704716019
 20
62.439233794897973
 30
0.0
 11
9.0607952506099991
 21
64.560553208083093
 31
0.0
  0
LINE
  5
462
100
AcDbEntity
  8
0
  6
CONTINUOUS
 62
               7
100
AcDbLine
 10
9.0607106478350943
 20
62.439343404793362
 30
0.0
 11
6.9393912346499746
 21
64.56066478493176
 31
0.0
  0
LINE
  5
463
100
AcDbEntity
  8
0
  6
CONTINUOUS
 62
               7
100
AcDbLine
 10
6.5000152587890625
 20
69.500015258789063
 30
0.0
 11
6.5000152587890625
 21
68.500015258789063
 31
0.0
  0
LINE
  5
464
100
AcDbEntity
  8
0
  6
CONTINUOUS
 62
               7
100
AcDbLine
 10
21.500015258789063
 20
69.500015258789063
 30
0.0
 11
21.500015258789063
 21
68.500015258789063
 31
0.0
  0
LINE
  5
465
100
AcDbEntity
  8
0
  6
CONTINUOUS
 62
               7
100
AcDbLine
 10
22.500030517578125
 20
68.5
 30
0.0
 11
5.500030517578125
 21
68.5
 31
0.0
  0
LINE
  5
466
100
AcDbEntity
  8
0
  6
CONTINUOUS
 62
               7
100
AcDbLine
 10
5.0000152587890625
 20
68.000015095868378
 30
0.0
 11
5.0000152587890625
 21
34.0
 31
0.0
  0
LINE
  5
467
100
AcDbEntity
  8
0
  6
CONTINUOUS
 62
               7
100
AcDbLine
 10
23.000015258789063
 20
69.5
 30
0.0
 11
23.000015258789063
 21
34.0
 31
0.0
  0
LINE
  5
468
100
AcDbEntity
  8
0
  6
CONTINUOUS
 62
             200
100
AcDbLine
 10
14.0
 20
99.56109619140625
 30
0.0
 11
14.0
 21
69.5
 31
0.0
  0
LINE
  5
469
100
AcDbEntity
  8
0
  6
CONTINUOUS
 62
               7
100
AcDbLine
 10
8.000030517578125
 20
60.500015258789063
 30
0.0
 11
5.000030517578125
 21
60.500015258789063
 31
0.0
  0
ENDBLK
  5
46A
100
AcDbEntity
  8
0
100
AcDbBlockEnd
  0
BLOCK
  5
46B
100
AcDbEntity
  8
0
100
AcDbBlockBegin
  2
F18MF-4
 70
               0
 10
0.0
 20
0.0
 30
0.0
  3
F18MF-4
  1

  0
LINE
  5
46C
100
AcDbEntity
  8
0
  6
CONTINUOUS
 62
               2
100
AcDbLine
 10
6.5
 20
-50.460000000000001
 30
0.0
 11
6.5
 21
6.7599999999999998
 31
0.0
  0
LINE
  5
46D
100
AcDbEntity
  8
0
  6
CONTINUOUS
 62
               4
100
AcDbLine
 10
-2.5
 20
4.2999999999999998
 30
0.0
 11
15.5
 21
4.2999999999999998
 31
0.0
  0
LINE
  5
46E
100
AcDbEntity
  8
0
  6
CONTINUOUS
 62
               4
100
AcDbLine
 10
-2.5
 20
-48.299999999999997
 30
0.0
 11
15.5
 21
-48.299999999999997
 31
0.0
  0
LINE
  5
46F
100
AcDbEntity
  8
0
  6
CONTINUOUS
 62
               4
100
AcDbLine
 10
13.0
 20
1.0
 30
0.0
 11
15.5
 21
1.0
 31
0.0
  0
LINE
  5
470
100
AcDbEntity
  8
0
  6
CONTINUOUS
 62
               4
100
AcDbLine
 10
13.0
 20
-5.0
 30
0.0
 11
15.5
 21
-5.0
 31
0.0
  0
LINE
  5
471
100
AcDbEntity
  8
0
  6
CONTINUOUS
 62
               4
100
AcDbLine
 10
-2.5
 20
-45.0
 30
0.0
 11
0.0
 21
-45.0
 31
0.0
  0
LINE
  5
472
100
AcDbEntity
  8
0
  6
CONTINUOUS
 62
               4
100
AcDbLine
 10
-2.5
 20
-39.0
 30
0.0
 11
0.0
 21
-39.0
 31
0.0
  0
LINE
  5
473
100
AcDbEntity
  8
0
  6
CONTINUOUS
 62
               4
100
AcDbLine
 10
3.0
 20
0.0
 30
0.0
 11
3.0
 21
4.2999999999999998
 31
0.0
  0
LINE
  5
474
100
AcDbEntity
  8
0
  6
CONTINUOUS
 62
               4
100
AcDbLine
 10
0.0
 20
-3.0
 30
0.0
 11
-2.5
 21
-3.0
 31
0.0
  0
LINE
  5
475
100
AcDbEntity
  8
0
  6
CONTINUOUS
 62
               4
100
AcDbLine
 10
-2.5
 20
-46.299999999999997
 30
0.0
 11
10.0
 21
-46.299999999999997
 31
0.0
  0
LINE
  5
476
100
AcDbEntity
  8
0
  6
CONTINUOUS
 62
               4
100
AcDbLine
 10
3.0
 20
2.2999999999999998
 30
0.0
 11
15.5
 21
2.2999999999999998
 31
0.0
  0
LINE
  5
477
100
AcDbEntity
  8
0
  6
CONTINUOUS
 62
               4
100
AcDbLine
 10
15.5
 20
-48.299999999999997
 30
0.0
 11
15.5
 21
-45.259999999999998
 31
0.0
  0
LINE
  5
478
100
AcDbEntity
  8
0
  6
CONTINUOUS
 62
               4
100
AcDbLine
 10
-2.5
 20
-48.299999999999997
 30
0.0
 11
-2.5
 21
-43.259999999999998
 31
0.0
  0
LINE
  5
479
100
AcDbEntity
  8
0
  6
CONTINUOUS
 62
             200
100
AcDbLine
 10
-3.5
 20
-12.5
 30
0.0
 11
16.5
 21
-12.5
 31
0.0
  0
LINE
  5
47A
100
AcDbEntity
  8
0
  6
CONTINUOUS
 62
             200
100
AcDbLine
 10
-3.5
 20
-31.5
 30
0.0
 11
16.5
 21
-31.5
 31
0.0
  0
LINE
  5
47B
100
AcDbEntity
  8
0
  6
CONTINUOUS
 62
               4
100
AcDbLine
 10
13.0
 20
-41.0
 30
0.0
 11
15.5
 21
-41.0
 31
0.0
  0
LINE
  5
47C
100
AcDbEntity
  8
0
  6
CONTINUOUS
 62
               4
100
AcDbLine
 10
10.0
 20
-44.0
 30
0.0
 11
10.0
 21
-48.299999999999997
 31
0.0
  0
LINE
  5
47D
100
AcDbEntity
  8
0
  6
CONTINUOUS
 62
               4
100
AcDbLine
 10
-1.0600000000000001
 20
-43.060000000000002
 30
0.0
 11
1.0600000000000001
 21
-40.93
 31
0.0
  0
LINE
  5
47E
100
AcDbEntity
  8
0
  6
CONTINUOUS
 62
               4
100
AcDbLine
 10
-1.0600000000000001
 20
-40.93
 30
0.0
 11
1.0600000000000001
 21
-43.060000000000002
 31
0.0
  0
LINE
  5
47F
100
AcDbEntity
  8
0
  6
CONTINUOUS
 62
               4
100
AcDbLine
 10
11.93
 20
-45.060000000000002
 30
0.0
 11
14.06
 21
-42.93
 31
0.0
  0
LINE
  5
480
100
AcDbEntity
  8
0
  6
CONTINUOUS
 62
               4
100
AcDbLine
 10
11.93
 20
-42.93
 30
0.0
 11
14.06
 21
-45.060000000000002
 31
0.0
  0
LINE
  5
481
100
AcDbEntity
  8
0
  6
CONTINUOUS
 62
               4
100
AcDbLine
 10
11.93
 20
-3.0600000000000001
 30
0.0
 11
14.06
 21
-0.9300000000000001
 31
0.0
  0
LINE
  5
482
100
AcDbEntity
  8
0
  6
CONTINUOUS
 62
               4
100
AcDbLine
 10
11.93
 20
-0.9300000000000001
 30
0.0
 11
14.06
 21
-3.0600000000000001
 31
0.0
  0
LINE
  5
483
100
AcDbEntity
  8
0
  6
CONTINUOUS
 62
               4
100
AcDbLine
 10
-1.0600000000000001
 20
-1.0600000000000001
 30
0.0
 11
1.0600000000000001
 21
1.0600000000000001
 31
0.0
  0
LINE
  5
484
100
AcDbEntity
  8
0
  6
CONTINUOUS
 62
               4
100
AcDbLine
 10
-1.0600000000000001
 20
1.0600000000000001
 30
0.0
 11
1.0600000000000001
 21
-1.0600000000000001
 31
0.0
  0
LINE
  5
485
100
AcDbEntity
  8
0
  6
CONTINUOUS
 62
               4
100
AcDbLine
 10
-2.5
 20
-40.729999999999997
 30
0.0
 11
-2.5
 21
-1.26
 31
0.0
  0
LINE
  5
486
100
AcDbEntity
  8
0
  6
CONTINUOUS
 62
               4
100
AcDbLine
 10
15.5
 20
-0.73
 30
0.0
 11
15.5
 21
4.2999999999999998
 31
0.0
  0
LINE
  5
487
100
AcDbEntity
  8
0
  6
CONTINUOUS
 62
               4
100
AcDbLine
 10
-2.5
 20
1.26
 30
0.0
 11
-2.5
 21
4.2999999999999998
 31
0.0
  0
LINE
  5
488
100
AcDbEntity
  8
0
  6
CONTINUOUS
 62
               4
100
AcDbLine
 10
15.5
 20
-42.729999999999997
 30
0.0
 11
15.5
 21
-3.2599999999999998
 31
0.0
  0
ARC
  5
489
100
AcDbEntity
  8
0
  6
CONTINUOUS
 62
               4
100
AcDbCircle
 10
13.0
 20
-2.0
 30
0.0
 40
3.0
100
AcDbArc
 50
89.999999999999815
 51
269.99999999999937
  0
ARC
  5
48A
100
AcDbEntity
  8
0
  6
CONTINUOUS
 62
               4
100
AcDbCircle
 10
0.0
 20
-42.0
 30
0.0
 40
3.0
100
AcDbArc
 50
269.99999999999937
 51
89.999999999999801
  0
ARC
  5
48B
100
AcDbEntity
  8
0
  6
CONTINUOUS
 62
               4
100
AcDbCircle
 10
-0.0000000000000002
 20
0.0000000000000002
 30
0.0
 40
3.0
100
AcDbArc
 50
269.99999999999937
 51
0.0
  0
CIRCLE
  5
48C
100
AcDbEntity
  8
0
  6
CONTINUOUS
 62
               4
100
AcDbCircle
 10
6.4949999999999992
 20
-12.5000293175999
 30
0.0
 40
8.9965920995317497
  0
CIRCLE
  5
48D
100
AcDbEntity
  8
0
  6
CONTINUOUS
 62
               4
100
AcDbCircle
 10
6.4949999999999992
 20
-31.500031716792158
 30
0.0
 40
9.005282811455281
  0
CIRCLE
  5
48E
100
AcDbEntity
  8
0
  6
CONTINUOUS
 62
               4
100
AcDbCircle
 10
6.5
 20
-12.500030517578125
 30
0.0
 40
5.6799993515014648
  0
CIRCLE
  5
48F
100
AcDbEntity
  8
0
  6
CONTINUOUS
 62
             200
100
AcDbCircle
 10
6.5
 20
-12.500030517578125
 30
0.0
 40
6.5
  0
CIRCLE
  5
490
100
AcDbEntity
  8
0
  6
CONTINUOUS
 62
             200
100
AcDbCircle
 10
6.5
 20
-31.500030517578125
 30
0.0
 40
6.5
  0
CIRCLE
  5
491
100
AcDbEntity
  8
0
  6
CONTINUOUS
 62
               4
100
AcDbCircle
 10
6.5
 20
-31.500030517578125
 30
0.0
 40
5.6799993515014648
  0
ARC
  5
492
100
AcDbEntity
  8
0
  6
CONTINUOUS
 62
               4
100
AcDbCircle
 10
13.0
 20
-44.0
 30
0.0
 40
3.0
100
AcDbArc
 50
89.999999999999815
 51
179.99999999999963
  0
CIRCLE
  5
493
100
AcDbEntity
  8
0
  6
CONTINUOUS
 62
               4
100
AcDbCircle
 10
0.0
 20
-42.0
 30
0.0
 40
2.7999992370605469
  0
CIRCLE
  5
494
100
AcDbEntity
  8
0
  6
CONTINUOUS
 62
               4
100
AcDbCircle
 10
13.0
 20
-43.999984741210938
 30
0.0
 40
2.7999992370605469
  0
CIRCLE
  5
495
100
AcDbEntity
  8
0
  6
CONTINUOUS
 62
               4
100
AcDbCircle
 10
13.0
 20
-2.0000152587890625
 30
0.0
 40
2.7999992370605469
  0
CIRCLE
  5
496
100
AcDbEntity
  8
0
  6
CONTINUOUS
 62
               4
100
AcDbCircle
 10
0.0
 20
0.0
 30
0.0
 40
2.7999992370605469
  0
ENDBLK
  5
497
100
AcDbEntity
  8
0
100
AcDbBlockEnd
  0
BLOCK
  5
498
100
AcDbEntity
  8
0
100
AcDbBlockBegin
  2
F18MF-5
 70
               0
 10
0.0
 20
0.0
 30
0.0
  3
F18MF-5
  1

  0
LINE
  5
499
100
AcDbEntity
  8
0
  6
CONTINUOUS
 62
               4
100
AcDbLine
 10
5.0
 20
-31.5
 30
0.0
 11
7.0
 21
-31.5
 31
0.0
  0
LINE
  5
49A
100
AcDbEntity
  8
0
  6
CONTINUOUS
 62
               4
100
AcDbLine
 10
5.0
 20
-12.5
 30
0.0
 11
7.0
 21
-12.5
 31
0.0
  0
LINE
  5
49B
100
AcDbEntity
  8
0
  6
CONTINUOUS
 62
               4
100
AcDbLine
 10
5.0
 20
1.2499732971191406
 30
0.0
 11
5.0
 21
-1.2500267028808594
 31
0.0
  0
LINE
  5
49C
100
AcDbEntity
  8
0
  6
CONTINUOUS
 62
               4
100
AcDbLine
 10
5.0
 20
-31.5
 30
0.0
 11
5.0
 21
-12.5
 31
0.0
  0
LINE
  5
49D
100
AcDbEntity
  8
0
  6
CONTINUOUS
 62
               4
100
AcDbLine
 10
7.0
 20
-12.5
 30
0.0
 11
7.0
 21
2.3000000000000007
 31
0.0
  0
ARC
  5
49E
100
AcDbEntity
  8
0
  6
CONTINUOUS
 62
               4
100
AcDbCircle
 10
11.500015258789063
 20
-23.0
 30
0.0
 40
0.5
100
AcDbArc
 50
0.0
 51
89.999999999999815
  0
ARC
  5
49F
100
AcDbEntity
  8
0
  6
CONTINUOUS
 62
               4
100
AcDbCircle
 10
11.500015258789063
 20
-21.0
 30
0.0
 40
0.5
100
AcDbArc
 50
270.00000000000023
 51
0.0
  0
LINE
  5
4A0
100
AcDbEntity
  8
0
  6
CONTINUOUS
 62
               4
100
AcDbLine
 10
12.000015258789063
 20
-21.0
 30
0.0
 11
12.000015258789063
 21
-4.0000114440917969
 31
0.0
  0
LINE
  5
4A1
100
AcDbEntity
  8
0
  6
CONTINUOUS
 62
               4
100
AcDbLine
 10
5.0
 20
-22.5
 30
0.0
 11
11.500015258789063
 21
-22.5
 31
0.0
  0
LINE
  5
4A2
100
AcDbEntity
  8
0
  6
CONTINUOUS
 62
               4
100
AcDbLine
 10
5.0
 20
-21.5
 30
0.0
 11
11.500015258789063
 21
-21.5
 31
0.0
  0
LINE
  5
4A3
100
AcDbEntity
  8
0
  6
CONTINUOUS
 62
               4
100
AcDbLine
 10
0.6999969482421875
 20
-39.049999237060561
 30
0.0
 11
0.0
 21
-39.049999237060561
 31
0.0
  0
LINE
  5
4A4
100
AcDbEntity
  8
0
  6
CONTINUOUS
 62
               4
100
AcDbLine
 10
0.6999969482421804
 20
-44.949993133544936
 30
0.0
 11
-0.0000000000000071
 21
-44.949993133544936
 31
0.0
  0
LINE
  5
4A5
100
AcDbEntity
  8
0
  6
CONTINUOUS
 62
               4
100
AcDbLine
 10
0.6999969482421804
 20
-44.949993133544936
 30
0.0
 11
0.6999969482421875
 21
-39.049999237060561
 31
0.0
  0
ARC
  5
4A6
100
AcDbEntity
  8
0
  6
CONTINUOUS
 62
               4
100
AcDbCircle
 10
1.199981689453125
 20
-40.750011444091797
 30
0.0
 40
1.5
100
AcDbArc
 50
0.0000179860890374
 51
89.999982013910454
  0
ARC
  5
4A7
100
AcDbEntity
  8
0
  6
CONTINUOUS
 62
               4
100
AcDbCircle
 10
1.199981689453125
 20
-43.249996185302734
 30
0.0
 40
1.5
100
AcDbArc
 50
269.99990870306209
 51
359.99994604173207
  0
LINE
  5
4A8
100
AcDbEntity
  8
0
  6
CONTINUOUS
 62
               4
100
AcDbLine
 10
1.1999969482421804
 20
-44.749980926513686
 30
0.0
 11
0.6999969482421804
 21
-44.749980926513686
 31
0.0
  0
LINE
  5
4A9
100
AcDbEntity
  8
0
  6
CONTINUOUS
 62
               4
100
AcDbLine
 10
1.1999969482421875
 20
-39.249996185302749
 30
0.0
 11
0.6999969482421875
 21
-39.249996185302749
 31
0.0
  0
LINE
  5
4AA
100
AcDbEntity
  8
0
  6
CONTINUOUS
 62
               4
100
AcDbLine
 10
2.699981689453125
 20
-40.749996185302749
 30
0.0
 11
2.6999816894531179
 21
-43.249996185302749
 31
0.0
  0
ARC
  5
4AB
100
AcDbEntity
  8
0
  6
CONTINUOUS
 62
               4
100
AcDbCircle
 10
3.5
 20
-1.2500267028808594
 30
0.0
 40
1.5
100
AcDbArc
 50
270.00001798608872
 51
0.0
  0
ARC
  5
4AC
100
AcDbEntity
  8
0
  6
CONTINUOUS
 62
               4
100
AcDbCircle
 10
3.5
 20
1.2499732971191406
 30
0.0
 40
1.5
100
AcDbArc
 50
0.0
 51
89.999982013910454
  0
ARC
  5
4AD
100
AcDbEntity
  8
0
  6
CONTINUOUS
 62
               4
100
AcDbCircle
 10
11.500015258789063
 20
-39.999996185302734
 30
0.0
 40
0.5
100
AcDbArc
 50
269.99996334457541
 51
0.0
  0
ARC
  5
4AE
100
AcDbEntity
  8
0
  6
CONTINUOUS
 62
               4
100
AcDbCircle
 10
11.500015258789063
 20
-4.0000114440917969
 30
0.0
 40
0.5
100
AcDbArc
 50
0.0
 51
89.999982013910454
  0
LINE
  5
4AF
100
AcDbEntity
  8
0
  6
CONTINUOUS
 62
               4
100
AcDbLine
 10
3.5
 20
2.7499732971191406
 30
0.0
 11
3.0
 21
2.7499732971191406
 31
0.0
  0
LINE
  5
4B0
100
AcDbEntity
  8
0
  6
CONTINUOUS
 62
               4
100
AcDbLine
 10
3.5
 20
-2.7500267028808594
 30
0.0
 11
3.0
 21
-2.7500267028808594
 31
0.0
  0
LINE
  5
4B1
100
AcDbEntity
  8
0
  6
CONTINUOUS
 62
               4
100
AcDbLine
 10
3.0
 20
-3.0000114440917969
 30
0.0
 11
3.0
 21
4.2999916076660156
 31
0.0
  0
LINE
  5
4B2
100
AcDbEntity
  8
0
  6
CONTINUOUS
 62
               4
100
AcDbLine
 10
7.0
 20
-44.999996185302734
 30
0.0
 11
0.0
 21
-44.999996185302734
 31
0.0
  0
LINE
  5
4B3
100
AcDbEntity
  8
0
  6
CONTINUOUS
 62
               4
100
AcDbLine
 10
7.0
 20
-38.999996185302734
 30
0.0
 11
0.0
 21
-38.999996185302734
 31
0.0
  0
LINE
  5
4B4
100
AcDbEntity
  8
0
  6
CONTINUOUS
 62
               4
100
AcDbLine
 10
7.0
 20
-3.0000114440917969
 30
0.0
 11
3.0
 21
-3.0000114440917969
 31
0.0
  0
LINE
  5
4B5
100
AcDbEntity
  8
0
  6
CONTINUOUS
 62
               4
100
AcDbLine
 10
6.9999897889338172
 20
-46.299984344614131
 30
0.0
 11
4.9999729986266175
 21
-48.299993379851003
 31
0.0
  0
LINE
  5
4B6
100
AcDbEntity
  8
0
  6
CONTINUOUS
 62
               4
100
AcDbLine
 10
7.0000035544026105
 20
2.3000178781067007
 30
0.0
 11
5.0000334020711721
 21
4.3000000000000007
 31
0.0
  0
LINE
  5
4B7
100
AcDbEntity
  8
0
  6
CONTINUOUS
 62
               4
100
AcDbLine
 10
7.0
 20
-46.299983978271484
 30
0.0
 11
7.0
 21
-31.5
 31
0.0
  0
LINE
  5
4B8
100
AcDbEntity
  8
0
  6
CONTINUOUS
 62
             200
100
AcDbLine
 10
13.78564453125
 20
-12.5
 30
0.0
 11
3.097412109375
 21
-12.5
 31
0.0
  0
LINE
  5
4B9
100
AcDbEntity
  8
0
  6
CONTINUOUS
 62
             200
100
AcDbLine
 10
13.78564453125
 20
-31.5
 30
0.0
 11
3.097412109375
 21
-31.5
 31
0.0
  0
LINE
  5
4BA
100
AcDbEntity
  8
0
  6
CONTINUOUS
 62
               4
100
AcDbLine
 10
11.500015258789063
 20
-40.499996185302734
 30
0.0
 11
7.0
 21
-40.499996185302734
 31
0.0
  0
LINE
  5
4BB
100
AcDbEntity
  8
0
  6
CONTINUOUS
 62
               4
100
AcDbLine
 10
11.500015258789063
 20
-3.5000114440917969
 30
0.0
 11
7.0
 21
-3.5000114440917969
 31
0.0
  0
LINE
  5
4BC
100
AcDbEntity
  8
0
  6
CONTINUOUS
 62
               4
100
AcDbLine
 10
12.000015258789063
 20
-39.999996185302734
 30
0.0
 11
12.000015258789063
 21
-23.0
 31
0.0
  0
LINE
  5
4BD
100
AcDbEntity
  8
0
  6
CONTINUOUS
 62
               4
100
AcDbLine
 10
4.999966378451953
 20
-48.299999999999997
 30
0.0
 11
0.0
 21
-48.299999999999997
 31
0.0
  0
LINE
  5
4BE
100
AcDbEntity
  8
0
  6
CONTINUOUS
 62
               4
100
AcDbLine
 10
5.000033402071173
 20
4.3000000000000007
 30
0.0
 11
0.0
 21
4.3000000000000007
 31
0.0
  0
ENDBLK
  5
4BF
100
AcDbEntity
  8
0
100
AcDbBlockEnd
  0
BLOCK
  5
4C0
100
AcDbEntity
  8
0
100
AcDbBlockBegin
  2
F18MF-6
 70
               0
 10
0.0
 20
0.0
 30
0.0
  3
F18MF-6
  1

  0
LINE
  5
4C1
100
AcDbEntity
  8
0
  6
CONTINUOUS
 62
               4
100
AcDbLine
 10
14.25
 20
5.0
 30
0.0
 11
11.75
 21
5.0
 31
0.0
  0
LINE
  5
4C2
100
AcDbEntity
  8
0
  6
CONTINUOUS
 62
               4
100
AcDbLine
 10
15.75
 20
3.5
 30
0.0
 11
15.75
 21
3.0
 31
0.0
  0
LINE
  5
4C3
100
AcDbEntity
  8
0
  6
CONTINUOUS
 62
               4
100
AcDbLine
 10
10.25
 20
3.5
 30
0.0
 11
10.25
 21
3.0
 31
0.0
  0
LINE
  5
4C4
100
AcDbEntity
  8
0
  6
CONTINUOUS
 62
               4
100
AcDbLine
 10
15.75
 20
3.0
 30
0.0
 11
-2.5
 21
3.0
 31
0.0
  0
LINE
  5
4C5
100
AcDbEntity
  8
0
  6
CONTINUOUS
 62
               4
100
AcDbLine
 10
15.5
 20
7.0
 30
0.0
 11
-2.5
 21
7.0
 31
0.0
  0
LINE
  5
4C6
100
AcDbEntity
  8
0
  6
CONTINUOUS
 62
               4
100
AcDbLine
 10
15.0
 20
12.0
 30
0.0
 11
-2.0
 21
12.0
 31
0.0
  0
LINE
  5
4C7
100
AcDbEntity
  8
0
  6
CONTINUOUS
 62
               4
100
AcDbLine
 10
15.5
 20
0.0
 30
0.0
 11
15.5
 21
3.0
 31
0.0
  0
LINE
  5
4C8
100
AcDbEntity
  8
0
  6
CONTINUOUS
 62
               4
100
AcDbLine
 10
-2.5
 20
0.0
 30
0.0
 11
-2.5
 21
11.5
 31
0.0
  0
LINE
  5
4C9
100
AcDbEntity
  8
0
  6
CONTINUOUS
 62
               4
100
AcDbLine
 10
10.0
 20
3.0
 30
0.0
 11
10.0
 21
7.0
 31
0.0
  0
LINE
  5
4CA
100
AcDbEntity
  8
0
  6
CONTINUOUS
 62
               4
100
AcDbLine
 10
15.5
 20
4.3200000000000003
 30
0.0
 11
15.5
 21
11.5
 31
0.0
  0
LINE
  5
4CB
100
AcDbEntity
  8
0
  6
CONTINUOUS
 62
             200
100
AcDbLine
 10
6.5
 20
-9.0
 30
0.0
 11
6.5
 21
19.050000000000001
 31
0.0
  0
ARC
  5
4CC
100
AcDbEntity
  8
0
  6
CONTINUOUS
 62
               4
100
AcDbCircle
 10
11.750022888358217
 20
3.4999771116417833
 30
0.0
 40
1.5000228885328397
100
AcDbArc
 50
90.000874257543387
 51
179.99912574245602
  0
ARC
  5
4CD
100
AcDbEntity
  8
0
  6
CONTINUOUS
 62
               4
100
AcDbCircle
 10
14.25002241116446
 20
3.5000224111644607
 30
0.0
 40
1.4999775890029619
100
AcDbArc
 50
359.99914394378408
 51
90.000856056214928
  0
ARC
  5
4CE
100
AcDbEntity
  8
0
  6
CONTINUOUS
 62
               4
100
AcDbCircle
 10
15.000000953673407
 20
11.500000953673407
 30
0.0
 40
0.4999990463275026
100
AcDbArc
 50
359.99989071686832
 51
90.00010928313074
  0
ARC
  5
4CF
100
AcDbEntity
  8
0
  6
CONTINUOUS
 62
               4
100
AcDbCircle
 10
-1.999999999996362
 20
11.499999999996362
 30
0.0
 40
0.500000000003638
100
AcDbArc
 50
90.000000000416691
 51
179.99999999958271
  0
ENDBLK
  5
4D0
100
AcDbEntity
  8
0
100
AcDbBlockEnd
  0
BLOCK
  5
4D1
100
AcDbEntity
  8
0
100
AcDbBlockBegin
  2
F18MF-7
 70
               0
 10
0.0
 20
0.0
 30
0.0
  3
F18MF-7
  1

  0
LINE
  5
4D2
100
AcDbEntity
  8
0
  6
CONTINUOUS
 62
               4
100
AcDbLine
 10
26.999999999999993
 20
24.0
 30
0.0
 11
26.999999999999993
 21
0.0
 31
0.0
  0
LINE
  5
4D3
100
AcDbEntity
  8
0
  6
CONTINUOUS
 62
               4
100
AcDbLine
 10
-0.0000000000000107
 20
17.0
 30
0.0
 11
0.0
 21
0.0
 31
0.0
  0
LINE
  5
4D4
100
AcDbEntity
  8
0
  6
CONTINUOUS
 62
               4
100
AcDbLine
 10
1.3999999999999844
 20
17.0
 30
0.0
 11
1.3999999999999844
 21
25.499999995708464
 31
0.0
  0
LINE
  5
4D5
100
AcDbEntity
  8
0
  6
CONTINUOUS
 62
               4
100
AcDbLine
 10
-10.000000000000021
 20
25.5
 30
0.0
 11
-10.000000000000021
 21
17.0
 31
0.0
  0
LINE
  5
4D6
100
AcDbEntity
  8
0
  6
CONTINUOUS
 62
               4
100
AcDbLine
 10
-10.000000000000021
 20
25.5
 30
0.0
 11
1.3999999999999844
 21
25.5
 31
0.0
  0
LINE
  5
4D7
100
AcDbEntity
  8
0
  6
CONTINUOUS
 62
               4
100
AcDbLine
 10
-10.000000000000021
 20
17.0
 30
0.0
 11
1.3999999999999844
 21
17.0
 31
0.0
  0
LINE
  5
4D8
100
AcDbEntity
  8
0
  6
CONTINUOUS
 62
               4
100
AcDbLine
 10
26.999999999999993
 20
24.0
 30
0.0
 11
1.3999999999999844
 21
24.0
 31
0.0
  0
LINE
  5
4D9
100
AcDbEntity
  8
0
  6
CONTINUOUS
 62
               4
100
AcDbLine
 10
14.295000000000002
 20
24.0
 30
0.0
 11
12.795000000000002
 21
24.0
 31
0.0
  0
LINE
  5
4DA
100
AcDbEntity
  8
0
  6
CONTINUOUS
 62
               4
100
AcDbLine
 10
1.4999999999999893
 20
25.599999999999994
 30
0.0
 11
-3.0000000000000213
 21
25.599999999999994
 31
0.0
  0
ARC
  5
4DB
100
AcDbEntity
  8
0
  6
CONTINUOUS
 62
               4
100
AcDbCircle
 10
-2.5015404500182896
 20
32.501540450018268
 30
0.0
 40
0.4984619302958243
100
AcDbArc
 50
89.822932465397898
 51
180.17706753460195
  0
LINE
  5
4DC
100
AcDbEntity
  8
0
  6
CONTINUOUS
 62
               4
100
AcDbLine
 10
-3.0000000000000213
 20
32.5
 30
0.0
 11
-3.0000000000000213
 21
25.599999999999994
 31
0.0
  0
LINE
  5
4DD
100
AcDbEntity
  8
0
  6
CONTINUOUS
 62
               4
100
AcDbLine
 10
1.4999999999999893
 20
25.599999999999994
 30
0.0
 11
1.4999999999999893
 21
24.0
 31
0.0
  0
ARC
  5
4DE
100
AcDbEntity
  8
0
  6
CONTINUOUS
 62
               4
100
AcDbCircle
 10
25.501123948313886
 20
28.179394402117026
 30
0.0
 40
1.4988865337462252
100
AcDbArc
 50
0.2142776266259142
 51
24.039904443234629
  0
ARC
  5
4DF
100
AcDbEntity
  8
0
  6
CONTINUOUS
 62
               4
100
AcDbCircle
 10
24.675687863874497
 20
32.502671112077593
 30
0.0
 40
0.4973293636201366
100
AcDbArc
 50
24.005903588636794
 51
90.079246697133684
  0
LINE
  5
4E0
100
AcDbEntity
  8
0
  6
CONTINUOUS
 62
               4
100
AcDbLine
 10
25.129999999999992
 20
32.704999999999984
 30
0.0
 11
26.870000000000001
 21
28.789999999999992
 31
0.0
  0
LINE
  5
4E1
100
AcDbEntity
  8
0
  6
CONTINUOUS
 62
               4
100
AcDbLine
 10
24.674999999999986
 20
33.0
 30
0.0
 11
-2.5030809000333001
 21
33.0
 31
0.0
  0
LINE
  5
4E2
100
AcDbEntity
  8
0
  6
CONTINUOUS
 62
               4
100
AcDbLine
 10
26.999999999999996
 20
28.184999999999974
 30
0.0
 11
26.999999999999996
 21
24.0
 31
0.0
  0
LINE
  5
4E3
100
AcDbEntity
  8
0
  6
CONTINUOUS
 62
             200
100
AcDbLine
 10
-20.08921456599456
 20
24.164996213151426
 30
0.0
 11
-21.946103769656482
 21
17.234991419142716
 31
0.0
  0
LINE
  5
4E4
100
AcDbEntity
  8
0
  6
CONTINUOUS
 62
             200
100
AcDbLine
 10
-19.053935707233002
 20
24.165006258827816
 30
0.0
 11
-20.910828860160116
 21
17.23498672596088
 31
0.0
  0
LINE
  5
4E5
100
AcDbEntity
  8
0
  6
CONTINUOUS
 62
               4
100
AcDbLine
 10
-20.491119384765632
 20
22.665023803710938
 30
0.0
 11
-24.50001525878907
 21
22.665023803710938
 31
0.0
  0
LINE
  5
4E6
100
AcDbEntity
  8
0
  6
CONTINUOUS
 62
               4
100
AcDbLine
 10
-20.874298095703132
 20
21.235015869140625
 30
0.0
 11
-24.50001525878907
 21
21.235015869140625
 31
0.0
  0
LINE
  5
4E7
100
AcDbEntity
  8
0
  6
CONTINUOUS
 62
               4
100
AcDbLine
 10
-21.160995483398445
 20
20.165023803710937
 30
0.0
 11
-24.50001525878907
 21
20.165023803710937
 31
0.0
  0
LINE
  5
4E8
100
AcDbEntity
  8
0
  6
CONTINUOUS
 62
               4
100
AcDbLine
 10
-21.544174194335945
 20
18.735015869140625
 30
0.0
 11
-24.50001525878907
 21
18.735015869140625
 31
0.0
  0
LINE
  5
4E9
100
AcDbEntity
  8
0
  6
CONTINUOUS
 62
               4
100
AcDbLine
 10
-24.500000000000007
 20
22.665008544921875
 30
0.0
 11
-24.500000000000007
 21
21.235000610351563
 31
0.0
  0
LINE
  5
4EA
100
AcDbEntity
  8
0
  6
CONTINUOUS
 62
               4
100
AcDbLine
 10
-24.500000000000007
 20
18.735000610351563
 30
0.0
 11
-24.500000000000007
 21
20.165008544921875
 31
0.0
  0
LINE
  5
4EB
100
AcDbEntity
  8
0
  6
CONTINUOUS
 62
               4
100
AcDbLine
 10
-29.500000000000007
 20
22.350006103515625
 30
0.0
 11
-29.500000000000007
 21
21.550003051757813
 31
0.0
  0
LINE
  5
4EC
100
AcDbEntity
  8
0
  6
CONTINUOUS
 62
               4
100
AcDbLine
 10
-24.50001525878907
 20
21.550003051757813
 30
0.0
 11
-29.500000000000007
 21
21.550003051757813
 31
0.0
  0
LINE
  5
4ED
100
AcDbEntity
  8
0
  6
CONTINUOUS
 62
               4
100
AcDbLine
 10
-24.50001525878907
 20
22.350006103515625
 30
0.0
 11
-29.500000000000007
 21
22.350006103515625
 31
0.0
  0
LINE
  5
4EE
100
AcDbEntity
  8
0
  6
CONTINUOUS
 62
               4
100
AcDbLine
 10
-16.500000000000007
 20
20.165023803710937
 30
0.0
 11
-20.125717163085945
 21
20.165023803710937
 31
0.0
  0
LINE
  5
4EF
100
AcDbEntity
  8
0
  6
CONTINUOUS
 62
               4
100
AcDbLine
 10
-16.500000000000007
 20
18.735015869140625
 30
0.0
 11
-20.508895874023445
 21
18.735015869140625
 31
0.0
  0
LINE
  5
4F0
100
AcDbEntity
  8
0
  6
CONTINUOUS
 62
               4
100
AcDbLine
 10
-16.500000000000007
 20
21.235015869140625
 30
0.0
 11
-19.839019775390632
 21
21.235015869140625
 31
0.0
  0
LINE
  5
4F1
100
AcDbEntity
  8
0
  6
CONTINUOUS
 62
               4
100
AcDbLine
 10
-16.500000000000007
 20
22.665023803710938
 30
0.0
 11
-19.455841064453132
 21
22.665023803710938
 31
0.0
  0
LINE
  5
4F2
100
AcDbEntity
  8
0
  6
CONTINUOUS
 62
               4
100
AcDbLine
 10
-24.50001525878907
 20
19.050003051757812
 30
0.0
 11
-29.500000000000007
 21
19.050003051757812
 31
0.0
  0
LINE
  5
4F3
100
AcDbEntity
  8
0
  6
CONTINUOUS
 62
               4
100
AcDbLine
 10
-24.50001525878907
 20
19.850006103515625
 30
0.0
 11
-29.500000000000007
 21
19.850006103515625
 31
0.0
  0
LINE
  5
4F4
100
AcDbEntity
  8
0
  6
CONTINUOUS
 62
               4
100
AcDbLine
 10
-29.500000000000007
 20
19.050003051757812
 30
0.0
 11
-29.500000000000007
 21
19.850006103515625
 31
0.0
  0
LINE
  5
4F5
100
AcDbEntity
  8
0
  6
CONTINUOUS
 62
               4
100
AcDbLine
 10
-15.000000000000007
 20
27.5
 30
0.0
 11
-16.500000000000007
 21
27.5
 31
0.0
  0
LINE
  5
4F6
100
AcDbEntity
  8
0
  6
CONTINUOUS
 62
               4
100
AcDbLine
 10
-15.499999958178712
 20
25.49997843908659
 30
0.0
 11
-16.499994209762924
 21
26.077324759068688
 31
0.0
  0
LINE
  5
4F7
100
AcDbEntity
  8
0
  6
CONTINUOUS
 62
               4
100
AcDbLine
 10
-10.000000000000007
 20
25.5
 30
0.0
 11
-16.500000000000007
 21
25.5
 31
0.0
  0
LINE
  5
4F8
100
AcDbEntity
  8
0
  6
CONTINUOUS
 62
               4
100
AcDbLine
 10
-5.9984545794686781
 20
26.50007114755681
 30
0.0
 11
-9.556142663157523
 21
27.000070470572609
 31
0.0
  0
LINE
  5
4F9
100
AcDbEntity
  8
0
  6
CONTINUOUS
 62
               4
100
AcDbLine
 10
-9.5561523437500071
 20
27.0
 30
0.0
 11
-15.000000000000007
 21
27.0
 31
0.0
  0
LINE
  5
4FA
100
AcDbEntity
  8
0
  6
CONTINUOUS
 62
               4
100
AcDbLine
 10
-15.500000000000007
 20
16.5
 30
0.0
 11
-15.500000000000007
 21
17.0
 31
0.0
  0
LINE
  5
4FB
100
AcDbEntity
  8
0
  6
CONTINUOUS
 62
               4
100
AcDbLine
 10
-15.500000000000007
 20
16.5
 30
0.0
 11
-16.500000000000007
 21
16.5
 31
0.0
  0
LINE
  5
4FC
100
AcDbEntity
  8
0
  6
CONTINUOUS
 62
               4
100
AcDbLine
 10
-10.000000000000007
 20
17.0
 30
0.0
 11
-15.500000000000007
 21
17.0
 31
0.0
  0
LINE
  5
4FD
100
AcDbEntity
  8
0
  6
CONTINUOUS
 62
               4
100
AcDbLine
 10
-15.000000000000007
 20
27.0
 30
0.0
 11
-15.000000000000007
 21
27.5
 31
0.0
  0
LINE
  5
4FE
100
AcDbEntity
  8
0
  6
CONTINUOUS
 62
               4
100
AcDbLine
 10
-5.9984588623046946
 20
25.5
 30
0.0
 11
-5.9984588623046946
 21
26.5
 31
0.0
  0
LINE
  5
4FF
100
AcDbEntity
  8
0
  6
CONTINUOUS
 62
               4
100
AcDbLine
 10
-16.500000000000007
 20
26.077346801757813
 30
0.0
 11
-16.500000000000007
 21
27.5
 31
0.0
  0
LINE
  5
500
100
AcDbEntity
  8
0
  6
CONTINUOUS
 62
               4
100
AcDbLine
 10
-10.000000000000007
 20
25.449996948242187
 30
0.0
 11
-10.000000000000007
 21
25.5
 31
0.0
  0
LINE
  5
501
100
AcDbEntity
  8
0
  6
CONTINUOUS
 62
               4
100
AcDbLine
 10
-16.500000000000007
 20
16.5
 30
0.0
 11
-16.500000000000007
 21
25.5
 31
0.0
  0
ENDBLK
  5
502
100
AcDbEntity
  8
0
100
AcDbBlockEnd
  0
BLOCK
  5
503
100
AcDbEntity
  8
0
100
AcDbBlockBegin
  2
F18MF-8
 70
               0
 10
0.0
 20
0.0
 30
0.0
  3
F18MF-8
  1

  0
LINE
  5
504
100
AcDbEntity
  8
0
  6
CONTINUOUS
 62
               4
100
AcDbLine
 10
0.0
 20
24.0
 30
0.0
 11
10.0
 21
24.0
 31
0.0
  0
LINE
  5
505
100
AcDbEntity
  8
0
  6
CONTINUOUS
 62
               4
100
AcDbLine
 10
0.05
 20
24.0
 30
0.0
 11
0.05
 21
32.5
 31
0.0
  0
LINE
  5
506
100
AcDbEntity
  8
0
  6
CONTINUOUS
 62
               4
100
AcDbLine
 10
9.5
 20
33.0
 30
0.0
 11
0.5
 21
33.0
 31
0.0
  0
LINE
  5
507
100
AcDbEntity
  8
0
  6
CONTINUOUS
 62
               4
100
AcDbLine
 10
9.9499999999999993
 20
28.5
 30
0.0
 11
0.05
 21
28.5
 31
0.0
  0
LINE
  5
508
100
AcDbEntity
  8
0
  6
CONTINUOUS
 62
               4
100
AcDbLine
 10
9.9499999999999993
 20
24.0
 30
0.0
 11
9.9499999999999993
 21
32.5
 31
0.0
  0
LINE
  5
509
100
AcDbEntity
  8
0
  6
CONTINUOUS
 62
               4
100
AcDbLine
 10
0.0
 20
0.0
 30
0.0
 11
0.0
 21
24.0
 31
0.0
  0
LINE
  5
50A
100
AcDbEntity
  8
0
  6
CONTINUOUS
 62
               4
100
AcDbLine
 10
10.0
 20
0.0
 30
0.0
 11
10.0
 21
24.0
 31
0.0
  0
ARC
  5
50B
100
AcDbEntity
  8
0
  6
CONTINUOUS
 62
               4
100
AcDbCircle
 10
9.4499984741187646
 20
32.499998474118769
 30
0.0
 40
0.5000015258835625
100
AcDbArc
 50
0.0001748525759638
 51
89.999825147423834
  0
ARC
  5
50C
100
AcDbEntity
  8
0
  6
CONTINUOUS
 62
               4
100
AcDbCircle
 10
0.5500015258812345
 20
32.499998474118769
 30
0.0
 40
0.5000015258835628
100
AcDbArc
 50
90.000174852575768
 51
179.99982514742368
  0
ENDBLK
  5
50D
100
AcDbEntity
  8
0
100
AcDbBlockEnd
  0
BLOCK
  5
583
100
AcDbEntity
  8
0
  6
ByBlock
 62
               0
100
AcDbBlockBegin
  2
*D8
 70
               1
 10
0.0
 20
0.0
 30
0.0
  3
*D8
  1

  0
LINE
  5
584
100
AcDbEntity
  8
0
  6
CONTINUOUS
 62
               2
100
AcDbLine
 10
-53.000015258789063
 20
161.63664245605469
 30
0.0
 11
-48.000015258789063
 21
161.63664245605469
 31
0.0
  0
LINE
  5
585
100
AcDbEntity
  8
0
  6
CONTINUOUS
 62
               2
100
AcDbLine
 10
-61.684555053710938
 20
161.63664245605469
 30
0.0
 11
-53.000015258789063
 21
161.63664245605469
 31
0.0
  0
LINE
  5
586
100
AcDbEntity
  8
0
  6
CONTINUOUS
 62
               2
100
AcDbLine
 10
-48.000015258789063
 20
63.656524658203125
 30
0.0
 11
-48.000015258789063
 21
163.13664245605469
 31
0.0
  0
LINE
  5
587
100
AcDbEntity
  8
0
  6
CONTINUOUS
 62
               2
100
AcDbLine
 10
-53.000015258789063
 20
161.63664245605469
 30
0.0
 11
-56.556015253067017
 21
161.63664245605469
 31
0.0
  0
LINE
  5
588
100
AcDbEntity
  8
0
  6
CONTINUOUS
 62
               2
100
AcDbLine
 10
-48.000015258789063
 20
161.63664245605469
 30
0.0
 11
-44.444015264511108
 21
161.63664245605469
 31
0.0
  0
INSERT
  5
58F
100
AcDbEntity
  8
0
  6
CONTINUOUS
 62
               2
100
AcDbBlockReference
  2
_OPEN30
 10
-53.000015258789063
 20
161.63664245605469
 30
0.0
 41
2.77
 42
2.77
 43
2.77
  0
INSERT
  5
590
100
AcDbEntity
  8
0
  6
CONTINUOUS
 62
               2
100
AcDbBlockReference
  2
_OPEN30
 10
-48.000015258789063
 20
161.63664245605469
 30
0.0
 41
2.77
 42
2.77
 43
2.77
 50
180.0
  0
MTEXT
  5
591
100
AcDbEntity
  8
0
  6
CONTINUOUS
 62
               2
100
AcDbMText
 10
-59.434555053710938
 20
164.88664245605469
 30
0.0
 40
4.5
 41
0.0
 71
               5
 72
               1
  1
\A1;5
  0
POINT
  5
592
100
AcDbEntity
  8
DEFPOINTS
  6
CONTINUOUS
 62
               0
100
AcDbPoint
 10
-53.000015258789063
 20
88.906524658203125
 30
0.0
  0
POINT
  5
593
100
AcDbEntity
  8
DEFPOINTS
  6
CONTINUOUS
 62
               0
100
AcDbPoint
 10
-48.000015258789063
 20
63.656524658203125
 30
0.0
  0
POINT
  5
594
100
AcDbEntity
  8
DEFPOINTS
  6
CONTINUOUS
 62
               0
100
AcDbPoint
 10
-48.000015258789063
 20
161.63664245605469
 30
0.0
  0
ENDBLK
  5
595
100
AcDbEntity
  8
0
  6
ByBlock
 62
               0
100
AcDbBlockEnd
  0
BLOCK
  5
58A
100
AcDbEntity
  8
0
  6
ByBlock
 62
               0
100
AcDbBlockBegin
  2
_OPEN30
 70
               2
 10
0.0
 20
0.0
 30
0.0
  3
_OPEN30
  1

  0
LINE
  5
58B
100
AcDbEntity
  8
0
  6
ByBlock
 62
               0
100
AcDbLine
 10
-1.0
 20
0.267949
 30
0.0
 11
0.0
 21
0.0
 31
0.0
  0
LINE
  5
58C
100
AcDbEntity
  8
0
  6
ByBlock
 62
               0
100
AcDbLine
 10
0.0
 20
0.0
 30
0.0
 11
-1.0
 21
-0.267949
 31
0.0
  0
LINE
  5
58D
100
AcDbEntity
  8
0
  6
ByBlock
 62
               0
100
AcDbLine
 10
0.0
 20
0.0
 30
0.0
 11
-1.0
 21
0.0
 31
0.0
  0
ENDBLK
  5
58E
100
AcDbEntity
  8
0
  6
ByBlock
 62
               0
100
AcDbBlockEnd
  0
BLOCK
  5
598
100
AcDbEntity
  8
0
  6
ByBlock
 62
               0
100
AcDbBlockBegin
  2
*D10
 70
               1
 10
0.0
 20
0.0
 30
0.0
  3
*D10
  1

  0
LINE
  5
599
100
AcDbEntity
  8
0
  6
CONTINUOUS
 62
               2
100
AcDbLine
 10
-48.000015258789063
 20
161.63664245605469
 30
0.0
 11
36.999984741210938
 21
161.63664245605469
 31
0.0
  0
LINE
  5
59A
100
AcDbEntity
  8
0
  6
CONTINUOUS
 62
               2
100
AcDbLine
 10
36.999984741210938
 20
63.656524658203125
 30
0.0
 11
36.999984741210938
 21
163.13664245605469
 31
0.0
  0
INSERT
  5
59B
100
AcDbEntity
  8
0
  6
CONTINUOUS
 62
               2
100
AcDbBlockReference
  2
_OPEN30
 10
-48.000015258789063
 20
161.63664245605469
 30
0.0
 41
2.77
 42
2.77
 43
2.77
 50
180.0
  0
INSERT
  5
59C
100
AcDbEntity
  8
0
  6
CONTINUOUS
 62
               2
100
AcDbBlockReference
  2
_OPEN30
 10
36.999984741210938
 20
161.63664245605469
 30
0.0
 41
2.77
 42
2.77
 43
2.77
  0
MTEXT
  5
59D
100
AcDbEntity
  8
0
  6
CONTINUOUS
 62
               2
100
AcDbMText
 10
-5.5000152587890625
 20
164.88664245605469
 30
0.0
 40
4.5
 41
0.0
 71
               5
 72
               1
  1
\A1;P
  0
POINT
  5
59E
100
AcDbEntity
  8
DEFPOINTS
  6
CONTINUOUS
 62
               0
100
AcDbPoint
 10
-48.000015258789063
 20
63.656524658203125
 30
0.0
  0
POINT
  5
59F
100
AcDbEntity
  8
DEFPOINTS
  6
CONTINUOUS
 62
               0
100
AcDbPoint
 10
36.999984741210938
 20
63.656524658203125
 30
0.0
  0
POINT
  5
5A0
100
AcDbEntity
  8
DEFPOINTS
  6
CONTINUOUS
 62
               0
100
AcDbPoint
 10
36.999984741210938
 20
161.63664245605469
 30
0.0
  0
ENDBLK
  5
5A1
100
AcDbEntity
  8
0
  6
ByBlock
 62
               0
100
AcDbBlockEnd
  0
BLOCK
  5
5A4
100
AcDbEntity
  8
0
  6
ByBlock
 62
               0
100
AcDbBlockBegin
  2
*D11
 70
               1
 10
0.0
 20
0.0
 30
0.0
  3
*D11
  1

  0
LINE
  5
5A5
100
AcDbEntity
  8
0
  6
CONTINUOUS
 62
               2
100
AcDbLine
 10
36.999984741210938
 20
161.63664245605469
 30
0.0
 11
41.999984741210938
 21
161.63664245605469
 31
0.0
  0
LINE
  5
5A6
100
AcDbEntity
  8
0
  6
CONTINUOUS
 62
               2
100
AcDbLine
 10
41.999984741210938
 20
161.63664245605469
 30
0.0
 11
52.003738403320313
 21
161.63664245605469
 31
0.0
  0
LINE
  5
5A7
100
AcDbEntity
  8
0
  6
CONTINUOUS
 62
               2
100
AcDbLine
 10
36.999984741210938
 20
161.63664245605469
 30
0.0
 11
33.443984746932983
 21
161.63664245605469
 31
0.0
  0
LINE
  5
5A8
100
AcDbEntity
  8
0
  6
CONTINUOUS
 62
               2
100
AcDbLine
 10
41.999984741210938
 20
161.63664245605469
 30
0.0
 11
45.555984735488892
 21
161.63664245605469
 31
0.0
  0
INSERT
  5
5A9
100
AcDbEntity
  8
0
  6
CONTINUOUS
 62
               2
100
AcDbBlockReference
  2
_OPEN30
 10
36.999984741210938
 20
161.63664245605469
 30
0.0
 41
2.77
 42
2.77
 43
2.77
  0
INSERT
  5
5AA
100
AcDbEntity
  8
0
  6
CONTINUOUS
 62
               2
100
AcDbBlockReference
  2
_OPEN30
 10
41.999984741210938
 20
161.63664245605469
 30
0.0
 41
2.77
 42
2.77
 43
2.77
 50
180.0
  0
MTEXT
  5
5AB
100
AcDbEntity
  8
0
  6
CONTINUOUS
 62
               2
100
AcDbMText
 10
49.753738403320313
 20
164.88664245605469
 30
0.0
 40
4.5
 41
0.0
 71
               5
 72
               1
  1
\A1;5
  0
POINT
  5
5AC
100
AcDbEntity
  8
DEFPOINTS
  6
CONTINUOUS
 62
               0
100
AcDbPoint
 10
36.999984741210938
 20
63.656524658203125
 30
0.0
  0
POINT
  5
5AD
100
AcDbEntity
  8
DEFPOINTS
  6
CONTINUOUS
 62
               0
100
AcDbPoint
 10
41.999984741210938
 20
88.906524658203125
 30
0.0
  0
POINT
  5
5AE
100
AcDbEntity
  8
DEFPOINTS
  6
CONTINUOUS
 62
               0
100
AcDbPoint
 10
41.999984741210938
 20
161.63664245605469
 30
0.0
  0
ENDBLK
  5
5AF
100
AcDbEntity
  8
0
  6
ByBlock
 62
               0
100
AcDbBlockEnd
  0
BLOCK
  5
5B2
100
AcDbEntity
  8
0
  6
ByBlock
 62
               0
100
AcDbBlockBegin
  2
*D12
 70
               1
 10
0.0
 20
0.0
 30
0.0
  3
*D12
  1

  0
LINE
  5
5B3
100
AcDbEntity
  8
0
  6
CONTINUOUS
 62
               2
100
AcDbLine
 10
-53.000015258789063
 20
171.63664245605469
 30
0.0
 11
41.999984741210938
 21
171.63664245605469
 31
0.0
  0
LINE
  5
5B4
100
AcDbEntity
  8
0
  6
CONTINUOUS
 62
               2
100
AcDbLine
 10
-53.000015258789063
 20
90.406524658203125
 30
0.0
 11
-53.000015258789063
 21
173.13664245605469
 31
0.0
  0
LINE
  5
5B5
100
AcDbEntity
  8
0
  6
CONTINUOUS
 62
               2
100
AcDbLine
 10
41.999984741210938
 20
90.406524658203125
 30
0.0
 11
41.999984741210938
 21
173.13664245605469
 31
0.0
  0
INSERT
  5
5B6
100
AcDbEntity
  8
0
  6
CONTINUOUS
 62
               2
100
AcDbBlockReference
  2
_OPEN30
 10
-53.000015258789063
 20
171.63664245605469
 30
0.0
 41
2.77
 42
2.77
 43
2.77
 50
180.0
  0
INSERT
  5
5B7
100
AcDbEntity
  8
0
  6
CONTINUOUS
 62
               2
100
AcDbBlockReference
  2
_OPEN30
 10
41.999984741210938
 20
171.63664245605469
 30
0.0
 41
2.77
 42
2.77
 43
2.77
  0
MTEXT
  5
5B8
100
AcDbEntity
  8
0
  6
CONTINUOUS
 62
               2
100
AcDbMText
 10
-5.5000152587890625
 20
174.88664245605469
 30
0.0
 40
4.5
 41
0.0
 71
               5
 72
               1
  1
\A1;L
  0
POINT
  5
5B9
100
AcDbEntity
  8
DEFPOINTS
  6
CONTINUOUS
 62
               0
100
AcDbPoint
 10
-53.000015258789063
 20
88.906524658203125
 30
0.0
  0
POINT
  5
5BA
100
AcDbEntity
  8
DEFPOINTS
  6
CONTINUOUS
 62
               0
100
AcDbPoint
 10
41.999984741210938
 20
88.906524658203125
 30
0.0
  0
POINT
  5
5BB
100
AcDbEntity
  8
DEFPOINTS
  6
CONTINUOUS
 62
               0
100
AcDbPoint
 10
41.999984741210938
 20
171.63664245605469
 30
0.0
  0
ENDBLK
  5
5BC
100
AcDbEntity
  8
0
  6
ByBlock
 62
               0
100
AcDbBlockEnd
  0
ENDSEC
  0
SECTION
  2
ENTITIES
  0
INSERT
  5
50E
100
AcDbEntity
  8
0
  6
ByBlock
100
AcDbBlockReference
  2
F18MF-1
 10
-48.000015258789063
 20
60.406524658203125
 30
0.0
  0
INSERT
  5
50F
100
AcDbEntity
  8
0
  6
ByBlock
100
AcDbBlockReference
  2
F18MF-2
 10
-208.00016784667969
 20
60.406524658203125
 30
0.0
  0
INSERT
  5
510
100
AcDbEntity
  8
0
  6
ByBlock
100
AcDbBlockReference
  2
F18MF-3
 10
-48.000015258789063
 20
-153.09347534179687
 30
0.0
  0
INSERT
  5
511
100
AcDbEntity
  8
0
  6
ByBlock
100
AcDbBlockReference
  2
F18MF-4
 10
220.75253295898437
 20
127.27008056640625
 30
0.0
  0
INSERT
  5
512
100
AcDbEntity
  8
0
  6
ByBlock
100
AcDbBlockReference
  2
F18MF-5
 10
146.25221252441406
 20
127.27008056640625
 30
0.0
  0
INSERT
  5
513
100
AcDbEntity
  8
0
  6
ByBlock
100
AcDbBlockReference
  2
F18MF-6
 10
220.75253295898437
 20
36.055572509765625
 30
0.0
  0
INSERT
  5
514
100
AcDbEntity
  8
0
  6
ByBlock
100
AcDbBlockReference
  2
F18MF-7
 10
139.91107177734375
 20
-106.62164306640625
 30
0.0
  0
INSERT
  5
515
100
AcDbEntity
  8
0
  6
ByBlock
100
AcDbBlockReference
  2
F18MF-8
 10
225.41091918945313
 20
-106.62165832519531
 30
0.0
  0
LINE
  5
516
100
AcDbEntity
  8
0
  6
CONTINUOUS
 62
               7
100
AcDbLine
 10
-281.25
 20
195.5
 30
0.0
 11
282.10000000000002
 21
195.5
 31
0.0
  0
LINE
  5
517
100
AcDbEntity
  8
0
  6
CONTINUOUS
 62
               7
100
AcDbLine
 10
282.10000000000002
 20
195.5
 30
0.0
 11
282.10000000000002
 21
-195.0
 31
0.0
  0
LINE
  5
518
100
AcDbEntity
  8
0
  6
CONTINUOUS
 62
               7
100
AcDbLine
 10
-281.25
 20
-195.0
 30
0.0
 11
282.10000000000002
 21
-195.0
 31
0.0
  0
LINE
  5
519
100
AcDbEntity
  8
0
  6
CONTINUOUS
 62
               7
100
AcDbLine
 10
162.09999999999999
 20
-175.0
 30
0.0
 11
162.09999999999999
 21
-195.0
 31
0.0
  0
LINE
  5
51A
100
AcDbEntity
  8
0
  6
CONTINUOUS
 62
               7
100
AcDbLine
 10
162.09999999999999
 20
-175.0
 30
0.0
 11
282.10000000000002
 21
-175.0
 31
0.0
  0
LINE
  5
51B
100
AcDbEntity
  8
0
  6
CONTINUOUS
 62
               7
100
AcDbLine
 10
162.09999999999999
 20
175.5
 30
0.0
 11
282.10000000000002
 21
175.5
 31
0.0
  0
LINE
  5
51C
100
AcDbEntity
  8
0
  6
CONTINUOUS
 62
               7
100
AcDbLine
 10
-281.25
 20
175.5
 30
0.0
 11
-161.25
 21
175.5
 31
0.0
  0
LINE
  5
51D
100
AcDbEntity
  8
0
  6
CONTINUOUS
 62
               7
100
AcDbLine
 10
162.09999999999999
 20
195.5
 30
0.0
 11
162.09999999999999
 21
175.5
 31
0.0
  0
LINE
  5
51E
100
AcDbEntity
  8
0
  6
CONTINUOUS
 62
               7
100
AcDbLine
 10
-161.25
 20
195.5
 30
0.0
 11
-161.25
 21
175.5
 31
0.0
  0
LINE
  5
51F
100
AcDbEntity
  8
0
  6
CONTINUOUS
 62
               7
100
AcDbLine
 10
-271.25
 20
-185.0
 30
0.0
 11
-171.25
 21
-185.0
 31
0.0
  0
LINE
  5
520
100
AcDbEntity
  8
0
  6
CONTINUOUS
 62
               7
100
AcDbLine
 10
-271.25
 20
-177.0
 30
0.0
 11
-171.25
 21
-177.0
 31
0.0
  0
LINE
  5
521
100
AcDbEntity
  8
0
  6
CONTINUOUS
 62
               7
100
AcDbLine
 10
-271.25
 20
-169.0
 30
0.0
 11
-171.25
 21
-169.0
 31
0.0
  0
LINE
  5
522
100
AcDbEntity
  8
0
  6
CONTINUOUS
 62
               7
100
AcDbLine
 10
-271.25
 20
-161.0
 30
0.0
 11
-171.25
 21
-161.0
 31
0.0
  0
LINE
  5
523
100
AcDbEntity
  8
0
  6
CONTINUOUS
 62
               7
100
AcDbLine
 10
-271.25
 20
-153.0
 30
0.0
 11
-171.25
 21
-153.0
 31
0.0
  0
LINE
  5
524
100
AcDbEntity
  8
0
  6
CONTINUOUS
 62
               7
100
AcDbLine
 10
-271.25
 20
-145.0
 30
0.0
 11
-171.25
 21
-145.0
 31
0.0
  0
LINE
  5
525
100
AcDbEntity
  8
0
  6
CONTINUOUS
 62
               7
100
AcDbLine
 10
-271.25
 20
-137.0
 30
0.0
 11
-171.25
 21
-137.0
 31
0.0
  0
LINE
  5
526
100
AcDbEntity
  8
0
  6
CONTINUOUS
 62
               7
100
AcDbLine
 10
-271.25
 20
-129.0
 30
0.0
 11
-171.25
 21
-129.0
 31
0.0
  0
LINE
  5
527
100
AcDbEntity
  8
0
  6
CONTINUOUS
 62
               7
100
AcDbLine
 10
-271.25
 20
-121.0
 30
0.0
 11
-171.25
 21
-121.0
 31
0.0
  0
LINE
  5
528
100
AcDbEntity
  8
0
  6
CONTINUOUS
 62
               7
100
AcDbLine
 10
-271.25
 20
-113.0
 30
0.0
 11
-171.25
 21
-113.0
 31
0.0
  0
LINE
  5
529
100
AcDbEntity
  8
0
  6
CONTINUOUS
 62
               7
100
AcDbLine
 10
-271.25
 20
-105.0
 30
0.0
 11
-171.25
 21
-105.0
 31
0.0
  0
LINE
  5
52A
100
AcDbEntity
  8
0
  6
CONTINUOUS
 62
               7
100
AcDbLine
 10
-271.25
 20
-97.0
 30
0.0
 11
-171.25
 21
-97.0
 31
0.0
  0
LINE
  5
52B
100
AcDbEntity
  8
0
  6
CONTINUOUS
 62
               7
100
AcDbLine
 10
-271.25
 20
-89.0
 30
0.0
 11
-171.25
 21
-89.0
 31
0.0
  0
LINE
  5
52C
100
AcDbEntity
  8
0
  6
CONTINUOUS
 62
               7
100
AcDbLine
 10
-271.25
 20
-81.0
 30
0.0
 11
-171.25
 21
-81.0
 31
0.0
  0
LINE
  5
52D
100
AcDbEntity
  8
0
  6
CONTINUOUS
 62
               7
100
AcDbLine
 10
-271.25
 20
-73.0
 30
0.0
 11
-171.25
 21
-73.0
 31
0.0
  0
LINE
  5
52E
100
AcDbEntity
  8
0
  6
CONTINUOUS
 62
               7
100
AcDbLine
 10
-271.25
 20
-65.0
 30
0.0
 11
-171.25
 21
-65.0
 31
0.0
  0
LINE
  5
52F
100
AcDbEntity
  8
0
  6
CONTINUOUS
 62
               7
100
AcDbLine
 10
-271.25
 20
-57.0
 30
0.0
 11
-171.25
 21
-57.0
 31
0.0
  0
LINE
  5
530
100
AcDbEntity
  8
0
  6
CONTINUOUS
 62
               7
100
AcDbLine
 10
-271.25
 20
-49.0
 30
0.0
 11
-171.25
 21
-49.0
 31
0.0
  0
LINE
  5
531
100
AcDbEntity
  8
0
  6
CONTINUOUS
 62
               7
100
AcDbLine
 10
-271.25
 20
-41.0
 30
0.0
 11
-171.25
 21
-41.0
 31
0.0
  0
LINE
  5
532
100
AcDbEntity
  8
0
  6
CONTINUOUS
 62
               7
100
AcDbLine
 10
-271.25
 20
-33.0
 30
0.0
 11
-171.25
 21
-33.0
 31
0.0
  0
LINE
  5
533
100
AcDbEntity
  8
0
  6
CONTINUOUS
 62
               7
100
AcDbLine
 10
-271.25
 20
-25.0
 30
0.0
 11
-171.25
 21
-25.0
 31
0.0
  0
LINE
  5
534
100
AcDbEntity
  8
0
  6
CONTINUOUS
 62
               7
100
AcDbLine
 10
-231.25
 20
-25.0
 30
0.0
 11
-231.25
 21
-185.0
 31
0.0
  0
LINE
  5
535
100
AcDbEntity
  8
0
  6
CONTINUOUS
 62
               7
100
AcDbLine
 10
-271.25
 20
-25.0
 30
0.0
 11
-271.25
 21
-185.0
 31
0.0
  0
LINE
  5
536
100
AcDbEntity
  8
0
  6
CONTINUOUS
 62
               7
100
AcDbLine
 10
-281.25
 20
-195.0
 30
0.0
 11
-281.25
 21
195.5
 31
0.0
  0
LINE
  5
537
100
AcDbEntity
  8
0
  6
CONTINUOUS
 62
               7
100
AcDbLine
 10
-201.25
 20
-25.0
 30
0.0
 11
-201.25
 21
-185.0
 31
0.0
  0
LINE
  5
538
100
AcDbEntity
  8
0
  6
CONTINUOUS
 62
               7
100
AcDbLine
 10
-171.25
 20
-25.0
 30
0.0
 11
-171.25
 21
-185.0
 31
0.0
  0
LINE
  5
539
100
AcDbEntity
  8
0
  6
CONTINUOUS
 62
               7
100
AcDbLine
 10
94.310000000000002
 20
195.5
 30
0.0
 11
94.310000000000002
 21
-195.0
 31
0.0
  0
LINE
  5
53A
100
AcDbEntity
  8
0
  6
CONTINUOUS
 62
               7
100
AcDbLine
 10
94.310000000000002
 20
0.25
 30
0.0
 11
282.10000000000002
 21
0.25
 31
0.0
  0
LINE
  5
53B
100
AcDbEntity
  8
0
  6
CONTINUOUS
 62
               7
100
AcDbLine
 10
139.91107177734375
 20
-106.62164306640625
 30
0.0
 11
166.91107177734375
 21
-106.62164306640625
 31
0.0
  0
LINE
  5
53C
100
AcDbEntity
  8
0
  6
CONTINUOUS
 62
               7
100
AcDbLine
 10
225.41091918945313
 20
-106.62165832519531
 30
0.0
 11
235.41091918945313
 21
-106.62165832519531
 31
0.0
  0
LINE
  5
53D
100
AcDbEntity
  8
0
  6
CONTINUOUS
 62
               7
100
AcDbLine
 10
146.25221252441406
 20
131.57008056640626
 30
0.0
 11
146.25221252441406
 21
78.970080566406267
 31
0.0
  0
LINE
  5
53E
100
AcDbEntity
  8
0
  6
CONTINUOUS
 62
               7
100
AcDbLine
 10
218.25253295898437
 20
36.055572509765625
 30
0.0
 11
236.25253295898437
 21
36.055572509765625
 31
0.0
  0
MTEXT
  5
53F
100
AcDbEntity
  8
0
  6
CONTINUOUS
 62
               7
100
AcDbMText
 10
201.30997488927844
 20
185.5
 30
0.0
 40
6.3000001907348633
 41
0.0
 71
               4
 72
               1
  1
\W1.200;\A1;Ver.3.0
  0
MTEXT
  5
540
100
AcDbEntity
  8
0
  6
CONTINUOUS
 62
               7
100
AcDbMText
 10
170.28099805280428
 20
-185.0
 30
0.0
 40
9.0
 41
0.0
 71
               4
 72
               1
  1
\W1.121;\A1;KOGANEI CORP.
  0
MTEXT
  5
541
100
AcDbEntity
  8
0
  6
CONTINUOUS
 62
               7
100
AcDbMText
 10
-251.5746278087926
 20
185.5
 30
0.0
 40
6.3000001907348633
 41
0.0
 71
               4
 72
               1
  1
\W1.119;\A1;F18 SERIES
  0
MTEXT
  5
542
100
AcDbEntity
  8
0
  6
CONTINUOUS
 62
               7
100
AcDbMText
 10
-268.25454548080415
 20
160.5
 30
0.0
 40
6.3000001907348633
 41
0.0
 71
               4
 72
               1
  1
\W1.091;\A1;MODEL:F18M4F
  0
MTEXT
  5
543
100
AcDbEntity
  8
0
  6
CONTINUOUS
 62
               7
100
AcDbMText
 10
-259.5
 20
-29.0
 30
0.0
 40
4.5
 41
0.0
 71
               4
 72
               1
  1
\A1;TYPE
  0
MTEXT
  5
544
100
AcDbEntity
  8
0
  6
CONTINUOUS
 62
               7
100
AcDbMText
 10
-251.91666665578606
 20
-21.0
 30
0.0
 40
4.5
 41
0.0
 71
               4
 72
               1
  1
\W1.111;\A1;DIMENSION LIST
  0
MTEXT
  5
545
100
AcDbEntity
  8
0
  6
CONTINUOUS
 62
               7
100
AcDbMText
 10
-217.75
 20
-29.0
 30
0.0
 40
4.5
 41
0.0
 71
               4
 72
               1
  1
\A1;L
  0
MTEXT
  5
546
100
AcDbEntity
  8
0
  6
CONTINUOUS
 62
               7
100
AcDbMText
 10
-187.75
 20
-29.0
 30
0.0
 40
4.5
 41
0.0
 71
               4
 72
               1
  1
\A1;P
  0
MTEXT
  5
547
100
AcDbEntity
  8
0
  6
CONTINUOUS
 62
               7
100
AcDbMText
 10
-266.19230771599672
 20
-181.0
 30
0.0
 40
4.5
 41
0.0
 71
               4
 72
               1
  1
\W1.077;\A1;F18M20F
  0
MTEXT
  5
548
100
AcDbEntity
  8
0
  6
CONTINUOUS
 62
               7
100
AcDbMText
 10
-261.70588235851022
 20
-37.0
 30
0.0
 40
4.5
 41
0.0
 71
               4
 72
               1
  1
\W1.059;\A1;F18M2F
  0
MTEXT
  5
549
100
AcDbEntity
  8
0
  6
CONTINUOUS
 62
               7
100
AcDbMText
 10
-261.70588235851022
 20
-45.0
 30
0.0
 40
4.5
 41
0.0
 71
               4
 72
               1
  1
\W1.059;\A1;F18M3F
  0
MTEXT
  5
54A
100
AcDbEntity
  8
0
  6
CONTINUOUS
 62
               7
100
AcDbMText
 10
-261.70588235851022
 20
-53.0
 30
0.0
 40
4.5
 41
0.0
 71
               4
 72
               1
  1
\W1.059;\A1;F18M4F
  0
MTEXT
  5
54B
100
AcDbEntity
  8
0
  6
CONTINUOUS
 62
               7
100
AcDbMText
 10
-261.70588235851022
 20
-61.0
 30
0.0
 40
4.5
 41
0.0
 71
               4
 72
               1
  1
\W1.059;\A1;F18M5F
  0
MTEXT
  5
54C
100
AcDbEntity
  8
0
  6
CONTINUOUS
 62
               7
100
AcDbMText
 10
-261.70588235851022
 20
-69.0
 30
0.0
 40
4.5
 41
0.0
 71
               4
 72
               1
  1
\W1.059;\A1;F18M6F
  0
MTEXT
  5
54D
100
AcDbEntity
  8
0
  6
CONTINUOUS
 62
               7
100
AcDbMText
 10
-261.70588235851022
 20
-77.0
 30
0.0
 40
4.5
 41
0.0
 71
               4
 72
               1
  1
\W1.059;\A1;F18M7F
  0
MTEXT
  5
54E
100
AcDbEntity
  8
0
  6
CONTINUOUS
 62
               7
100
AcDbMText
 10
-261.70588235851022
 20
-85.0
 30
0.0
 40
4.5
 41
0.0
 71
               4
 72
               1
  1
\W1.059;\A1;F18M8F
  0
MTEXT
  5
54F
100
AcDbEntity
  8
0
  6
CONTINUOUS
 62
               7
100
AcDbMText
 10
-261.70588235851022
 20
-93.0
 30
0.0
 40
4.5
 41
0.0
 71
               4
 72
               1
  1
\W1.059;\A1;F18M9F
  0
MTEXT
  5
550
100
AcDbEntity
  8
0
  6
CONTINUOUS
 62
               7
100
AcDbMText
 10
-266.1486486944076
 20
-101.0
 30
0.0
 40
4.5
 41
0.0
 71
               4
 72
               1
  1
\W1.135;\A1;F18M10F
  0
MTEXT
  5
551
100
AcDbEntity
  8
0
  6
CONTINUOUS
 62
               7
100
AcDbMText
 10
-266.12499999751896
 20
-109.0
 30
0.0
 40
4.5
 41
0.0
 71
               4
 72
               1
  1
\W1.167;\A1;F18M11F
  0
MTEXT
  5
552
100
AcDbEntity
  8
0
  6
CONTINUOUS
 62
               7
100
AcDbMText
 10
-266.17105266080216
 20
-117.0
 30
0.0
 40
4.5
 41
0.0
 71
               4
 72
               1
  1
\W1.105;\A1;F18M12F
  0
MTEXT
  5
553
100
AcDbEntity
  8
0
  6
CONTINUOUS
 62
               7
100
AcDbMText
 10
-266.17105266080216
 20
-125.0
 30
0.0
 40
4.5
 41
0.0
 71
               4
 72
               1
  1
\W1.105;\A1;F18M13F
  0
MTEXT
  5
554
100
AcDbEntity
  8
0
  6
CONTINUOUS
 62
               7
100
AcDbMText
 10
-266.17105266080216
 20
-133.0
 30
0.0
 40
4.5
 41
0.0
 71
               4
 72
               1
  1
\W1.105;\A1;F18M14F
  0
MTEXT
  5
555
100
AcDbEntity
  8
0
  6
CONTINUOUS
 62
               7
100
AcDbMText
 10
-266.17105266080216
 20
-141.0
 30
0.0
 40
4.5
 41
0.0
 71
               4
 72
               1
  1
\W1.105;\A1;F18M15F
  0
MTEXT
  5
556
100
AcDbEntity
  8
0
  6
CONTINUOUS
 62
               7
100
AcDbMText
 10
-266.17105266080216
 20
-149.0
 30
0.0
 40
4.5
 41
0.0
 71
               4
 72
               1
  1
\W1.105;\A1;F18M16F
  0
MTEXT
  5
557
100
AcDbEntity
  8
0
  6
CONTINUOUS
 62
               7
100
AcDbMText
 10
-266.17105266080216
 20
-157.0
 30
0.0
 40
4.5
 41
0.0
 71
               4
 72
               1
  1
\W1.105;\A1;F18M17F
  0
MTEXT
  5
558
100
AcDbEntity
  8
0
  6
CONTINUOUS
 62
               7
100
AcDbMText
 10
-266.17105266080216
 20
-165.0
 30
0.0
 40
4.5
 41
0.0
 71
               4
 72
               1
  1
\W1.105;\A1;F18M18F
  0
MTEXT
  5
559
100
AcDbEntity
  8
0
  6
CONTINUOUS
 62
               7
100
AcDbMText
 10
-266.17105266080216
 20
-173.0
 30
0.0
 40
4.5
 41
0.0
 71
               4
 72
               1
  1
\W1.105;\A1;F18M19F
  0
MTEXT
  5
55A
100
AcDbEntity
  8
0
  6
CONTINUOUS
 62
               7
100
AcDbMText
 10
-217.75
 20
-37.0
 30
0.0
 40
4.5
 41
0.0
 71
               4
 72
               1
  1
\A1;57
  0
MTEXT
  5
55B
100
AcDbEntity
  8
0
  6
CONTINUOUS
 62
               7
100
AcDbMText
 10
-217.75
 20
-45.0
 30
0.0
 40
4.5
 41
0.0
 71
               4
 72
               1
  1
\A1;76
  0
MTEXT
  5
55C
100
AcDbEntity
  8
0
  6
CONTINUOUS
 62
               7
100
AcDbMText
 10
-217.75
 20
-53.0
 30
0.0
 40
4.5
 41
0.0
 71
               4
 72
               1
  1
\A1;95
  0
MTEXT
  5
55D
100
AcDbEntity
  8
0
  6
CONTINUOUS
 62
               7
100
AcDbMText
 10
-222.03571434410617
 20
-61.0
 30
0.0
 40
4.5
 41
0.0
 71
               4
 72
               1
  1
\W1.286;\A1;114
  0
MTEXT
  5
55E
100
AcDbEntity
  8
0
  6
CONTINUOUS
 62
               7
100
AcDbMText
 10
-222.15625001257285
 20
-69.0
 30
0.0
 40
4.5
 41
0.0
 71
               4
 72
               1
  1
\W1.125;\A1;133
  0
MTEXT
  5
55F
100
AcDbEntity
  8
0
  6
CONTINUOUS
 62
               7
100
AcDbMText
 10
-222.15625001257285
 20
-77.0
 30
0.0
 40
4.5
 41
0.0
 71
               4
 72
               1
  1
\W1.125;\A1;152
  0
MTEXT
  5
560
100
AcDbEntity
  8
0
  6
CONTINUOUS
 62
               7
100
AcDbMText
 10
-222.03571434410617
 20
-85.0
 30
0.0
 40
4.5
 41
0.0
 71
               4
 72
               1
  1
\W1.286;\A1;171
  0
MTEXT
  5
561
100
AcDbEntity
  8
0
  6
CONTINUOUS
 62
               7
100
AcDbMText
 10
-222.10000003576278
 20
-93.0
 30
0.0
 40
4.5
 41
0.0
 71
               4
 72
               1
  1
\W1.200;\A1;190
  0
MTEXT
  5
562
100
AcDbEntity
  8
0
  6
CONTINUOUS
 62
               7
100
AcDbMText
 10
-222.20588234180306
 20
-101.0
 30
0.0
 40
4.5
 41
0.0
 71
               4
 72
               1
  1
\W1.059;\A1;209
  0
MTEXT
  5
563
100
AcDbEntity
  8
0
  6
CONTINUOUS
 62
               7
100
AcDbMText
 10
-222.25
 20
-109.0
 30
0.0
 40
4.5
 41
0.0
 71
               4
 72
               1
  1
\A1;228
  0
MTEXT
  5
564
100
AcDbEntity
  8
0
  6
CONTINUOUS
 62
               7
100
AcDbMText
 10
-222.25
 20
-117.0
 30
0.0
 40
4.5
 41
0.0
 71
               4
 72
               1
  1
\A1;247
  0
MTEXT
  5
565
100
AcDbEntity
  8
0
  6
CONTINUOUS
 62
               7
100
AcDbMText
 10
-222.25
 20
-125.0
 30
0.0
 40
4.5
 41
0.0
 71
               4
 72
               1
  1
\A1;266
  0
MTEXT
  5
566
100
AcDbEntity
  8
0
  6
CONTINUOUS
 62
               7
100
AcDbMText
 10
-222.25
 20
-133.0
 30
0.0
 40
4.5
 41
0.0
 71
               4
 72
               1
  1
\A1;285
  0
MTEXT
  5
567
100
AcDbEntity
  8
0
  6
CONTINUOUS
 62
               7
100
AcDbMText
 10
-222.20588234180306
 20
-141.0
 30
0.0
 40
4.5
 41
0.0
 71
               4
 72
               1
  1
\W1.059;\A1;304
  0
MTEXT
  5
568
100
AcDbEntity
  8
0
  6
CONTINUOUS
 62
               7
100
AcDbMText
 10
-222.25
 20
-149.0
 30
0.0
 40
4.5
 41
0.0
 71
               4
 72
               1
  1
\A1;323
  0
MTEXT
  5
569
100
AcDbEntity
  8
0
  6
CONTINUOUS
 62
               7
100
AcDbMText
 10
-222.25
 20
-157.0
 30
0.0
 40
4.5
 41
0.0
 71
               4
 72
               1
  1
\A1;342
  0
MTEXT
  5
56A
100
AcDbEntity
  8
0
  6
CONTINUOUS
 62
               7
100
AcDbMText
 10
-222.15625001257285
 20
-165.0
 30
0.0
 40
4.5
 41
0.0
 71
               4
 72
               1
  1
\W1.125;\A1;361
  0
MTEXT
  5
56B
100
AcDbEntity
  8
0
  6
CONTINUOUS
 62
               7
100
AcDbMText
 10
-222.20588234180306
 20
-173.0
 30
0.0
 40
4.5
 41
0.0
 71
               4
 72
               1
  1
\W1.059;\A1;380
  0
MTEXT
  5
56C
100
AcDbEntity
  8
0
  6
CONTINUOUS
 62
               7
100
AcDbMText
 10
-222.25
 20
-181.0
 30
0.0
 40
4.5
 41
0.0
 71
               4
 72
               1
  1
\A1;399
  0
MTEXT
  5
56D
100
AcDbEntity
  8
0
  6
CONTINUOUS
 62
               7
100
AcDbMText
 10
-187.75
 20
-37.0
 30
0.0
 40
4.5
 41
0.0
 71
               4
 72
               1
  1
\A1;47
  0
MTEXT
  5
56E
100
AcDbEntity
  8
0
  6
CONTINUOUS
 62
               7
100
AcDbMText
 10
-187.75
 20
-45.0
 30
0.0
 40
4.5
 41
0.0
 71
               4
 72
               1
  1
\A1;66
  0
MTEXT
  5
56F
100
AcDbEntity
  8
0
  6
CONTINUOUS
 62
               7
100
AcDbMText
 10
-187.75
 20
-53.0
 30
0.0
 40
4.5
 41
0.0
 71
               4
 72
               1
  1
\A1;85
  0
MTEXT
  5
570
100
AcDbEntity
  8
0
  6
CONTINUOUS
 62
               7
100
AcDbMText
 10
-192.10000003576278
 20
-61.0
 30
0.0
 40
4.5
 41
0.0
 71
               4
 72
               1
  1
\W1.200;\A1;104
  0
MTEXT
  5
571
100
AcDbEntity
  8
0
  6
CONTINUOUS
 62
               7
100
AcDbMText
 10
-192.15625001257285
 20
-69.0
 30
0.0
 40
4.5
 41
0.0
 71
               4
 72
               1
  1
\W1.125;\A1;123
  0
MTEXT
  5
572
100
AcDbEntity
  8
0
  6
CONTINUOUS
 62
               7
100
AcDbMText
 10
-192.15625001257285
 20
-77.0
 30
0.0
 40
4.5
 41
0.0
 71
               4
 72
               1
  1
\W1.125;\A1;142
  0
MTEXT
  5
573
100
AcDbEntity
  8
0
  6
CONTINUOUS
 62
               7
100
AcDbMText
 10
-192.03571434410617
 20
-85.0
 30
0.0
 40
4.5
 41
0.0
 71
               4
 72
               1
  1
\W1.286;\A1;161
  0
MTEXT
  5
574
100
AcDbEntity
  8
0
  6
CONTINUOUS
 62
               7
100
AcDbMText
 10
-192.10000003576278
 20
-93.0
 30
0.0
 40
4.5
 41
0.0
 71
               4
 72
               1
  1
\W1.200;\A1;180
  0
MTEXT
  5
575
100
AcDbEntity
  8
0
  6
CONTINUOUS
 62
               7
100
AcDbMText
 10
-192.15625001257285
 20
-101.0
 30
0.0
 40
4.5
 41
0.0
 71
               4
 72
               1
  1
\W1.125;\A1;199
  0
MTEXT
  5
576
100
AcDbEntity
  8
0
  6
CONTINUOUS
 62
               7
100
AcDbMText
 10
-192.15625001257285
 20
-109.0
 30
0.0
 40
4.5
 41
0.0
 71
               4
 72
               1
  1
\W1.125;\A1;218
  0
MTEXT
  5
577
100
AcDbEntity
  8
0
  6
CONTINUOUS
 62
               7
100
AcDbMText
 10
-192.25
 20
-117.0
 30
0.0
 40
4.5
 41
0.0
 71
               4
 72
               1
  1
\A1;237
  0
MTEXT
  5
578
100
AcDbEntity
  8
0
  6
CONTINUOUS
 62
               7
100
AcDbMText
 10
-192.25
 20
-125.0
 30
0.0
 40
4.5
 41
0.0
 71
               4
 72
               1
  1
\A1;256
  0
MTEXT
  5
579
100
AcDbEntity
  8
0
  6
CONTINUOUS
 62
               7
100
AcDbMText
 10
-192.25
 20
-133.0
 30
0.0
 40
4.5
 41
0.0
 71
               4
 72
               1
  1
\A1;275
  0
MTEXT
  5
57A
100
AcDbEntity
  8
0
  6
CONTINUOUS
 62
               7
100
AcDbMText
 10
-192.25
 20
-141.0
 30
0.0
 40
4.5
 41
0.0
 71
               4
 72
               1
  1
\A1;294
  0
MTEXT
  5
57B
100
AcDbEntity
  8
0
  6
CONTINUOUS
 62
               7
100
AcDbMText
 10
-192.15625001257285
 20
-149.0
 30
0.0
 40
4.5
 41
0.0
 71
               4
 72
               1
  1
\W1.125;\A1;313
  0
MTEXT
  5
57C
100
AcDbEntity
  8
0
  6
CONTINUOUS
 62
               7
100
AcDbMText
 10
-192.25
 20
-157.0
 30
0.0
 40
4.5
 41
0.0
 71
               4
 72
               1
  1
\A1;332
  0
MTEXT
  5
57D
100
AcDbEntity
  8
0
  6
CONTINUOUS
 62
               7
100
AcDbMText
 10
-192.15625001257285
 20
-165.0
 30
0.0
 40
4.5
 41
0.0
 71
               4
 72
               1
  1
\W1.125;\A1;351
  0
MTEXT
  5
57E
100
AcDbEntity
  8
0
  6
CONTINUOUS
 62
               7
100
AcDbMText
 10
-192.20588234180306
 20
-173.0
 30
0.0
 40
4.5
 41
0.0
 71
               4
 72
               1
  1
\W1.059;\A1;370
  0
MTEXT
  5
57F
100
AcDbEntity
  8
0
  6
CONTINUOUS
 62
               7
100
AcDbMText
 10
-192.25
 20
-181.0
 30
0.0
 40
4.5
 41
0.0
 71
               4
 72
               1
  1
\A1;389
  0
MTEXT
  5
580
100
AcDbEntity
  8
0
  6
CONTINUOUS
 62
               7
100
AcDbMText
 10
107.30065028182506
 20
160.5
 30
0.0
 40
6.3000001907348633
 41
0.0
 71
               4
 72
               1
  1
\W1.080;\A1;MODEL:-FM
  0
MTEXT
  5
581
100
AcDbEntity
  8
0
  6
CONTINUOUS
 62
               7
100
AcDbMText
 10
107.30065028182506
 20
-14.75
 30
0.0
 40
6.3000001907348633
 41
0.0
 71
               4
 72
               1
  1
\W1.080;\A1;MODEL:-PL
  0
DIMENSION
  5
596
100
AcDbEntity
  8
0
  6
CONTINUOUS
 62
               2
100
AcDbDimension
  2
*D8
 10
-48.000015258789063
 20
161.63664245605469
 30
0.0
 11
-59.434555053710938
 21
161.63664245605469
 31
0.0
 70
             128
  1
<>
  3
MXDIMSTYLE
100
AcDbAlignedDimension
 13
-53.000015258789063
 23
88.906524658203125
 33
0.0
 14
-48.000015258789063
 24
63.656524658203125
 34
0.0
100
AcDbRotatedDimension
1001
ACAD
1000
DSTYLE
1002
{
1070
               6
1000
_OPEN30
1070
               7
1000
_OPEN30
1070
              41
1040
2.77
1070
              42
1040
0.0
1070
              75
1070
               1
1070
             140
1040
4.5
1070
             173
1070
               1
1070
             271
1070
               0
1070
             284
1070
               8
1070
             341
1005
589
1002
}
  0
DIMENSION
  5
5A2
100
AcDbEntity
  8
0
  6
CONTINUOUS
 62
               2
100
AcDbDimension
  2
*D10
 10
36.999984741210938
 20
161.63664245605469
 30
0.0
 11
-5.5000152587890625
 21
161.63664245605469
 31
0.0
 70
             128
  1
P
  3
MXDIMSTYLE
100
AcDbAlignedDimension
 13
-48.000015258789063
 23
63.656524658203125
 33
0.0
 14
36.999984741210938
 24
63.656524658203125
 34
0.0
100
AcDbRotatedDimension
1001
ACAD
1000
DSTYLE
1002
{
1070
               6
1000
_OPEN30
1070
               7
1000
_OPEN30
1070
              41
1040
2.77
1070
              42
1040
0.0
1070
              75
1070
               1
1070
              78
1070
               0
1070
             140
1040
4.5
1070
             173
1070
               1
1070
             271
1070
               0
1070
             341
1005
589
1002
}
  0
DIMENSION
  5
5B0
100
AcDbEntity
  8
0
  6
CONTINUOUS
 62
               2
100
AcDbDimension
  2
*D11
 10
41.999984741210938
 20
161.63664245605469
 30
0.0
 11
49.753738403320313
 21
161.63664245605469
 31
0.0
 70
             128
  1
<>
  3
MXDIMSTYLE
100
AcDbAlignedDimension
 13
36.999984741210938
 23
63.656524658203125
 33
0.0
 14
41.999984741210938
 24
88.906524658203125
 34
0.0
100
AcDbRotatedDimension
1001
ACAD
1000
DSTYLE
1002
{
1070
               6
1000
_OPEN30
1070
               7
1000
_OPEN30
1070
              41
1040
2.77
1070
              75
1070
               1
1070
              76
1070
               1
1070
             140
1040
4.5
1070
             173
1070
               1
1070
             271
1070
               0
1070
             284
1070
               8
1070
             341
1005
589
1002
}
  0
DIMENSION
  5
5BD
100
AcDbEntity
  8
0
  6
CONTINUOUS
 62
               2
100
AcDbDimension
  2
*D12
 10
41.999984741210938
 20
171.63664245605469
 30
0.0
 11
-5.5000152587890625
 21
171.63664245605469
 31
0.0
 70
             128
  1
L
  3
MXDIMSTYLE
100
AcDbAlignedDimension
 13
-53.000015258789063
 23
88.906524658203125
 33
0.0
 14
41.999984741210938
 24
88.906524658203125
 34
0.0
100
AcDbRotatedDimension
1001
ACAD
1000
DSTYLE
1002
{
1070
               6
1000
_OPEN30
1070
               7
1000
_OPEN30
1070
              41
1040
2.77
1070
              78
1070
               0
1070
             140
1040
4.5
1070
             173
1070
               1
1070
             271
1070
               0
1070
             341
1005
589
1002
}
  0
MTEXT
  5
5BE
100
AcDbEntity
  8
0
  6
CONTINUOUS
 62
               2
100
AcDbMText
 10
-93.832577123944802
 20
-33.613750476837161
 30
0.0
 40
4.5
 41
0.0
 71
               4
 72
               1
  1
\W1.065;\A1;F18T1-FJ-PS
  0
LEADER
  5
5BF
100
AcDbEntity
  8
0
  6
CONTINUOUS
 62
               2
100
AcDbLeader
  3
MXDIMSTYLE
 73
               3
 74
               0
 75
               0
 40
0.0
 76
               3
 10
-34.000015258789063
 20
-55.593475341796875
 30
0.0
 10
-44.0
 20
-38.270000000000003
 30
0.0
 10
-93.832577109336853
 20
-38.270000000000003
 30
0.0
 77
               2
1001
ACAD
1000
DSTYLE
1002
{
1070
               6
1000
_OPEN30
1070
               7
1000
_OPEN30
1070
              41
1040
2.77
1070
             173
1070
               1
1070
             341
1005
589
1002
}
  0
MTEXT
  5
5C0
100
AcDbEntity
  8
0
  6
CONTINUOUS
 62
               2
100
AcDbMText
 10
-4.7907099142172376
 20
-33.613750476837161
 30
0.0
 40
4.5
 41
0.0
 71
               4
 72
               1
  1
\W1.031;\A1;F18T2-FJ-PS
  0
LEADER
  5
5C1
100
AcDbEntity
  8
0
  6
CONTINUOUS
 62
               2
100
AcDbLeader
  3
MXDIMSTYLE
 73
               3
 74
               0
 75
               0
 40
0.0
 76
               3
 10
-15.000015258789063
 20
-55.593475341796875
 30
0.0
 10
-5.0
 20
-38.270000000000003
 30
0.0
 10
44.709290117025375
 20
-38.270000000000003
 30
0.0
 77
               2
1001
ACAD
1000
DSTYLE
1002
{
1070
               6
1000
_OPEN30
1070
               7
1000
_OPEN30
1070
              41
1040
2.77
1070
             173
1070
               1
1070
             341
1005
589
1002
}
  0
MTEXT
  5
5C2
100
AcDbEntity
  8
0
  6
CONTINUOUS
 62
               2
100
AcDbMText
 10
9.4287792727849453
 20
-42.273750476837158
 30
0.0
 40
4.5
 41
0.0
 71
               4
 72
               1
  1
\W1.031;\A1;F18T3-FJ-PS
  0
LEADER
  5
5C3
100
AcDbEntity
  8
0
  6
CONTINUOUS
 62
               2
100
AcDbLeader
  3
MXDIMSTYLE
 73
               3
 74
               0
 75
               0
 40
0.0
 76
               3
 10
3.9999866485595703
 20
-55.593460083007813
 30
0.0
 10
9.0
 20
-46.93
 30
0.0
 10
58.928779304027557
 20
-46.93
 30
0.0
 77
               2
1001
ACAD
1000
DSTYLE
1002
{
1070
               6
1000
_OPEN30
1070
               7
1000
_OPEN30
1070
              41
1040
2.77
1070
             173
1070
               1
1070
             341
1005
589
1002
}
  0
MTEXT
  5
5C4
100
AcDbEntity
  8
0
  6
CONTINUOUS
 62
               2
100
AcDbMText
 10
28.272951246145581
 20
-102.07375047683716
 30
0.0
 40
4.5
 41
0.0
 71
               4
 72
               1
  1
\W1.071;\A1;F18BP
  0
LEADER
  5
5C5
100
AcDbEntity
  8
0
  6
CONTINUOUS
 62
               2
100
AcDbLeader
  3
MXDIMSTYLE
 73
               3
 74
               0
 75
               0
 40
0.0
 76
               3
 10
23.000015258789063
 20
-115.39347839355469
 30
0.0
 10
28.0
 20
-106.73
 30
0.0
 10
50.772951245307922
 20
-106.73
 30
0.0
 77
               2
1001
ACAD
1000
DSTYLE
1002
{
1070
               6
1000
_OPEN30
1070
               7
1000
_OPEN30
1070
              41
1040
2.77
1070
             173
1070
               1
1070
             341
1005
589
1002
}
  0
ENDSEC
  0
SECTION
  2
OBJECTS
  0
DICTIONARY
  5
19
100
AcDbDictionary
  3
ACAD_GROUP
350
1A
  3
ACAD_MLINESTYLE
350
1B
  0
DICTIONARY
  5
1A
102
{ACAD_REACTORS
330
19
102
}
100
AcDbDictionary
  0
DICTIONARY
  5
1B
102
{ACAD_REACTORS
330
19
102
}
100
AcDbDictionary
  3
STANDARD
350
1C
  0
MLINESTYLE
  5
1C
102
{ACAD_REACTORS
330
1B
102
}
100
AcDbMlineStyle
  2
Standard
 70
               0
  3

 62
               0
 51
90.0
 52
90.0
 71
               2
 49
0.5
 62
             256
  6
ByLayer
 49
-0.5
 62
             256
  6
ByLayer
  0
ENDSEC
  0
EOF
