  0
SECTION
  2
HEADER
  9
$ACADVER
  1
AC1012
  9
$DWGCODEPAGE
  3
dos932
  9
$INSBASE
 10
0.0
 20
0.0
 30
0.0
  9
$EXTMIN
 10
-281.25
 20
-195.0
 30
0.0
  9
$EXTMAX
 10
285.6319057062413
 20
195.5
 30
0.0
  9
$LIMMIN
 10
-281.25
 20
-195.0
  9
$LIMMAX
 10
285.6319057062413
 20
195.5
  9
$ORTHOMODE
 70
               0
  9
$REGENMODE
 70
               1
  9
$FILLMODE
 70
               1
  9
$QTEXTMODE
 70
               0
  9
$MIRRTEXT
 70
               1
  9
$DRAGMODE
 70
               2
  9
$LTSCALE
 40
1.0
  9
$OSMODE
 70
               0
  9
$ATTMODE
 70
               1
  9
$TEXTSIZE
 40
3.2000000476837158
  9
$TRACEWID
 40
0.05
  9
$TEXTSTYLE
  7
MX_NOTE_STANDARD
  9
$CLAYER
  8
0
  9
$CELTYPE
  6
CONTINUOUS
  9
$CECOLOR
 62
             256
  9
$CELTSCALE
 40
1.0
  9
$DELOBJ
 70
               1
  9
$DISPSILH
 70
               0
  9
$DIMSCALE
 40
1.0
  9
$DIMASZ
 40
2.5
  9
$DIMEXO
 40
1.5
  9
$DIMDLI
 40
3.75
  9
$DIMRND
 40
0.0
  9
$DIMDLE
 40
0.0
  9
$DIMEXE
 40
1.5
  9
$DIMTP
 40
0.0
  9
$DIMTM
 40
0.0
  9
$DIMTXT
 40
3.2000000476837158
  9
$DIMCEN
 40
2.5
  9
$DIMTSZ
 40
0.0
  9
$DIMTOL
 70
               0
  9
$DIMLIM
 70
               0
  9
$DIMTIH
 70
               0
  9
$DIMTOH
 70
               0
  9
$DIMSE1
 70
               0
  9
$DIMSE2
 70
               0
  9
$DIMTAD
 70
               1
  9
$DIMZIN
 70
               8
  9
$DIMBLK
  1

  9
$DIMASO
 70
               1
  9
$DIMSHO
 70
               1
  9
$DIMPOST
  1

  9
$DIMAPOST
  1

  9
$DIMALT
 70
               0
  9
$DIMALTD
 70
               4
  9
$DIMALTF
 40
0.03937007874016
  9
$DIMLFAC
 40
1.0
  9
$DIMTOFL
 70
               1
  9
$DIMTVP
 40
0.0
  9
$DIMTIX
 70
               0
  9
$DIMSOXD
 70
               0
  9
$DIMSAH
 70
               0
  9
$DIMBLK1
  1

  9
$DIMBLK2
  1

  9
$DIMSTYLE
  2
MXDIMSTYLE
  9
$DIMCLRD
 70
               0
  9
$DIMCLRE
 70
               0
  9
$DIMCLRT
 70
               0
  9
$DIMTFAC
 40
1.0
  9
$DIMGAP
 40
1.0
  9
$DIMJUST
 70
               0
  9
$DIMSD1
 70
               0
  9
$DIMSD2
 70
               0
  9
$DIMTOLJ
 70
               1
  9
$DIMTZIN
 70
               0
  9
$DIMALTZ
 70
               0
  9
$DIMALTTZ
 70
               0
  9
$DIMFIT
 70
               3
  9
$DIMUPT
 70
               1
  9
$DIMUNIT
 70
               2
  9
$DIMDEC
 70
               4
  9
$DIMTDEC
 70
               4
  9
$DIMALTU
 70
               2
  9
$DIMALTTD
 70
               4
  9
$DIMTXSTY
  7
MX_NOTE_STANDARD
  9
$DIMAUNIT
 70
               0
  9
$LUNITS
 70
               2
  9
$LUPREC
 70
               4
  9
$SKETCHINC
 40
0.1
  9
$FILLETRAD
 40
0.0
  9
$AUNITS
 70
               0
  9
$AUPREC
 70
               0
  9
$MENU
  1
acad
  9
$ELEVATION
 40
0.0
  9
$PELEVATION
 40
0.0
  9
$THICKNESS
 40
0.0
  9
$LIMCHECK
 70
               0
  9
$BLIPMODE
 70
               1
  9
$CHAMFERA
 40
0.0
  9
$CHAMFERB
 40
0.0
  9
$CHAMFERC
 40
0.0
  9
$CHAMFERD
 40
0.0
  9
$SKPOLY
 70
               0
  9
$TDCREATE
 40
2453378.356504630
  9
$TDUPDATE
 40
2453378.356504630
  9
$TDINDWG
 40
0.0000000000
  9
$TDUSRTIMER
 40
0.0000000000
  9
$USRTIMER
 70
               1
  9
$ANGBASE
 50
0.0
  9
$ANGDIR
 70
               0
  9
$PDMODE
 70
               0
  9
$PDSIZE
 40
0.0
  9
$PLINEWID
 40
0.0
  9
$COORDS
 70
               1
  9
$SPLFRAME
 70
               0
  9
$SPLINETYPE
 70
               6
  9
$SPLINESEGS
 70
               8
  9
$ATTDIA
 70
               0
  9
$ATTREQ
 70
               1
  9
$HANDLING
 70
               1
  9
$HANDSEED
  5
66D
  9
$SURFTAB1
 70
               6
  9
$SURFTAB2
 70
               6
  9
$SURFTYPE
 70
               6
  9
$SURFU
 70
               6
  9
$SURFV
 70
               6
  9
$UCSNAME
  2

  9
$UCSORG
 10
0.0
 20
0.0
 30
0.0
  9
$UCSXDIR
 10
1.0
 20
0.0
 30
0.0
  9
$UCSYDIR
 10
0.0
 20
1.0
 30
0.0
  9
$PUCSNAME
  2

  9
$PUCSORG
 10
0.0
 20
0.0
 30
0.0
  9
$PUCSXDIR
 10
1.0
 20
0.0
 30
0.0
  9
$PUCSYDIR
 10
0.0
 20
1.0
 30
0.0
  9
$USERI1
 70
               0
  9
$USERI2
 70
               0
  9
$USERI3
 70
               0
  9
$USERI4
 70
               0
  9
$USERI5
 70
               0
  9
$USERR1
 40
0.0
  9
$USERR2
 40
0.0
  9
$USERR3
 40
0.0
  9
$USERR4
 40
0.0
  9
$USERR5
 40
0.0
  9
$WORLDVIEW
 70
               1
  9
$SHADEDGE
 70
               3
  9
$SHADEDIF
 70
              70
  9
$TILEMODE
 70
               1
  9
$MAXACTVP
 70
              16
  9
$PINSBASE
 10
0.0
 20
0.0
 30
0.0
  9
$PLIMCHECK
 70
               0
  9
$PEXTMIN
 10
1.0000000000000000E+20
 20
1.0000000000000000E+20
 30
1.0000000000000000E+20
  9
$PEXTMAX
 10
-1.0000000000000000E+20
 20
-1.0000000000000000E+20
 30
-1.0000000000000000E+20
  9
$PLIMMIN
 10
0.0
 20
0.0
  9
$PLIMMAX
 10
12.0
 20
9.0
  9
$UNITMODE
 70
               0
  9
$VISRETAIN
 70
               0
  9
$PLINEGEN
 70
               1
  9
$PSLTSCALE
 70
               0
  9
$TREEDEPTH
 70
            3020
  9
$PICKSTYLE
 70
               1
  9
$CMLSTYLE
  2
Standard
  9
$CMLJUST
 70
               0
  9
$CMLSCALE
 40
1.0
  9
$SAVEIMAGES
 70
               0
  0
ENDSEC
  0
SECTION
  2
CLASSES
  0
CLASS
  1
LWPOLYLINE
  2
AcDbPolyline
  3
"AutoCAD"
 90
        0
280
               0
281
               1
  0
CLASS
  1
IMAGE
  2
AcDbRasterImage
  3
ISM
 90
      127
280
               0
281
               1
  0
CLASS
  1
OLE2FRAME
  2
AcDbOle2Frame
  3
""
 90
        0
280
               0
281
               1
  0
CLASS
  1
HATCH
  2
AcDbHatch
  3
"ACAD_SEDONA"
 90
        0
280
               0
281
               1
  0
CLASS
  1
DICTIONARYVAR
  2
AcDbDictionaryVar
  3
"AutoCAD"
 90
        0
280
               0
281
               0
  0
CLASS
  1
RASTERVARIABLES
  2
AcDbRasterVariables
  3
ISM
 90
        0
280
               0
281
               0
  0
CLASS
  1
IMAGEDEF
  2
AcDbRasterImageDef
  3
ISM
 90
        0
280
               0
281
               0
  0
CLASS
  1
IMAGEDEF_REACTOR
  2
AcDbRasterImageDefReactor
  3
ISM
 90
        1
280
               0
281
               0
  0
CLASS
  1
IDBUFFER
  2
AcDbIdBuffer
  3
"Acad"
 90
        0
280
               0
281
               0
  0
CLASS
  1
SPATIAL_FILTER
  2
AcDbSpatialFilter
  3
"Acad"
 90
        0
280
               0
281
               0
  0
CLASS
  1
XRECORD
  2
AcDbXrecord
  3
"<Built In>"
 90
        0
280
               0
281
               0
  0
CLASS
  1
SORTENTSTABLE
  2
AcDbSortentsTable
  3
"AutoCAD"
 90
        0
280
               0
281
               0
  0
CLASS
  1
LAYER_INDEX
  2
AcDbLayerIndex
  3
"Acad"
 90
        0
280
               0
281
               0
  0
CLASS
  1
SPATIAL_INDEX
  2
AcDbSpatialIndex
  3
"Acad"
 90
        0
280
               0
281
               0
  0
CLASS
  1
OBJECT_PTR
  2
CAseDLPNTableRecord
  3
"ASE-LPNTableRecord"
 90
        1
280
               0
281
               0
  0
CLASS
  1
LAYOUT
  2
AcDbLayout
  3
"AutoCAD 2000"
 90
        1
280
               0
281
               0
  0
CLASS
  1
PLOTSETTINGS
  2
AcDbPlotSettings
  3
"AutoCAD 2000"
 90
        1
280
               0
281
               0
  0
CLASS
  1
ACDBDICTIONARYWDFLT
  2
AcDbDictionaryWithDefault
  3
"AutoCAD 2000"
 90
        1
280
               0
281
               0
  0
CLASS
  1
ACDBPLACEHOLDER
  2
AcDbPlaceHolder
  3
"AutoCAD 2000"
 90
        1
280
               0
281
               0
  0
ENDSEC
  0
SECTION
  2
TABLES
  0
TABLE
  2
VPORT
  5
7
100
AcDbSymbolTable
 70
               1
  0
VPORT
  5
15
100
AcDbSymbolTableRecord
100
AcDbViewportTableRecord
  2
*ACTIVE
 70
               0
 10
0.0
 20
0.0
 11
1.0
 21
1.0
 12
2.1909528531206206
 22
0.25
 13
0.0
 23
0.0
 14
1.0
 24
1.0
 15
0.0
 25
0.0
 16
0.0
 26
0.0
 36
1.0
 17
0.0
 27
0.0
 37
0.0
 40
394.40500000000003
 41
1.7320508075688772
 42
50.0
 43
0.0
 44
0.0
 50
0.0
 51
0.0
 71
               0
 72
             100
 73
               1
 74
               1
 75
               0
 76
               0
 77
               0
 78
               0
  0
ENDTAB
  0
TABLE
  2
LTYPE
  5
4
100
AcDbSymbolTable
 70
               3
  0
LTYPE
  5
11
100
AcDbSymbolTableRecord
100
AcDbLinetypeTableRecord
  2
BYBLOCK
 70
              64
  3

 72
              65
 73
               0
 40
0.0
  0
LTYPE
  5
12
100
AcDbSymbolTableRecord
100
AcDbLinetypeTableRecord
  2
BYLAYER
 70
              64
  3

 72
              65
 73
               0
 40
0.0
  0
LTYPE
  5
13
100
AcDbSymbolTableRecord
100
AcDbLinetypeTableRecord
  2
CONTINUOUS
 70
              64
  3
Solid line
 72
              65
 73
               0
 40
0.0
  0
ENDTAB
  0
TABLE
  2
LAYER
  5
2
100
AcDbSymbolTable
 70
               2
  0
LAYER
  5
14
100
AcDbSymbolTableRecord
100
AcDbLayerTableRecord
  2
0
 70
               0
 62
               7
  6
CONTINUOUS
  0
LAYER
  5
1D
100
AcDbSymbolTableRecord
100
AcDbLayerTableRecord
  2
DEFPOINTS
 70
               0
 62
               7
  6
CONTINUOUS
  0
ENDTAB
  0
TABLE
  2
STYLE
  5
3
100
AcDbSymbolTable
 70
               1
  0
STYLE
  5
17
100
AcDbSymbolTableRecord
100
AcDbTextStyleTableRecord
  2
MX_NOTE_STANDARD
 70
               0
 40
0.0
 41
1.0
 50
0.0
 71
               0
 42
3.2000000476837158
  3
txt.shx
  4
extfont.shx
  0
ENDTAB
  0
TABLE
  2
VIEW
  5
5
100
AcDbSymbolTable
 70
               0
  0
ENDTAB
  0
TABLE
  2
UCS
  5
6
100
AcDbSymbolTable
 70
               0
  0
ENDTAB
  0
TABLE
  2
APPID
  5
8
100
AcDbSymbolTable
 70
               1
  0
APPID
  5
16
100
AcDbSymbolTableRecord
100
AcDbRegAppTableRecord
  2
ACAD
 70
               0
  0
ENDTAB
  0
TABLE
  2
DIMSTYLE
  5
9
100
AcDbSymbolTable
 70
               1
  0
DIMSTYLE
105
18
100
AcDbSymbolTableRecord
100
AcDbDimStyleTableRecord
  2
MXDIMSTYLE
 70
               0
  3

  4

  5

  6

  7

 40
1.0
 41
2.5
 42
1.5
 43
3.75
 44
1.5
 45
0.0
 46
0.0
 47
0.0
 48
0.0
 71
               0
 72
               0
 73
               0
 74
               0
 75
               0
 76
               0
 77
               1
 78
               8
140
3.2000000476837158
141
2.5
142
0.0
143
0.03937007874016
144
1.0
145
0.0
146
1.0
147
1.0
170
               0
171
               4
172
               1
173
               0
174
               0
175
               0
176
               0
177
               0
178
               0
270
               2
271
               4
272
               4
273
               2
274
               4
275
               0
280
               0
281
               0
282
               0
283
               1
284
               0
285
               0
286
               0
287
               3
288
               1
340
17
  0
ENDTAB
  0
TABLE
  2
BLOCK_RECORD
  5
1
100
AcDbSymbolTable
 70
              13
  0
BLOCK_RECORD
  5
A
100
AcDbSymbolTableRecord
100
AcDbBlockTableRecord
  2
*MODEL_SPACE
  0
BLOCK_RECORD
  5
B
100
AcDbSymbolTableRecord
100
AcDbBlockTableRecord
  2
*PAPER_SPACE
  0
BLOCK_RECORD
  5
1E
100
AcDbSymbolTableRecord
100
AcDbBlockTableRecord
  2
F18MA-1
  0
BLOCK_RECORD
  5
1F
100
AcDbSymbolTableRecord
100
AcDbBlockTableRecord
  2
F18MA-2
  0
BLOCK_RECORD
  5
20
100
AcDbSymbolTableRecord
100
AcDbBlockTableRecord
  2
F18MA-3
  0
BLOCK_RECORD
  5
21
100
AcDbSymbolTableRecord
100
AcDbBlockTableRecord
  2
F18MA-4
  0
BLOCK_RECORD
  5
22
100
AcDbSymbolTableRecord
100
AcDbBlockTableRecord
  2
F18MA-5
  0
BLOCK_RECORD
  5
23
100
AcDbSymbolTableRecord
100
AcDbBlockTableRecord
  2
F18MA-6
  0
BLOCK_RECORD
  5
24
100
AcDbSymbolTableRecord
100
AcDbBlockTableRecord
  2
F18MA-7
  0
BLOCK_RECORD
  5
25
100
AcDbSymbolTableRecord
100
AcDbBlockTableRecord
  2
F18MA-8
  0
BLOCK_RECORD
  5
627
100
AcDbSymbolTableRecord
100
AcDbBlockTableRecord
  2
*D8
  0
BLOCK_RECORD
  5
62E
100
AcDbSymbolTableRecord
100
AcDbBlockTableRecord
  2
_OPEN30
  0
BLOCK_RECORD
  5
63C
100
AcDbSymbolTableRecord
100
AcDbBlockTableRecord
  2
*D10
  0
BLOCK_RECORD
  5
648
100
AcDbSymbolTableRecord
100
AcDbBlockTableRecord
  2
*D11
  0
BLOCK_RECORD
  5
656
100
AcDbSymbolTableRecord
100
AcDbBlockTableRecord
  2
*D12
  0
ENDTAB
  0
ENDSEC
  0
SECTION
  2
BLOCKS
  0
BLOCK
  5
D
100
AcDbEntity
  8
0
100
AcDbBlockBegin
  2
*MODEL_SPACE
 70
               0
 10
0.0
 20
0.0
 30
0.0
  3
*MODEL_SPACE
  1

  0
ENDBLK
  5
E
100
AcDbEntity
  8
0
100
AcDbBlockEnd
  0
BLOCK
  5
F
100
AcDbEntity
 67
               1
  8
0
100
AcDbBlockBegin
  2
*PAPER_SPACE
 70
               0
 10
0.0
 20
0.0
 30
0.0
  3
*PAPER_SPACE
  1

  0
ENDBLK
  5
10
100
AcDbEntity
 67
               1
  8
0
100
AcDbBlockEnd
  0
BLOCK
  5
26
100
AcDbEntity
  8
0
100
AcDbBlockBegin
  2
F18MA-1
 70
               0
 10
0.0
 20
0.0
 30
0.0
  3
F18MA-1
  1

  0
LINE
  5
27
100
AcDbEntity
  8
0
  6
CONTINUOUS
 62
               2
100
AcDbLine
 10
14.0
 20
-60.500019073486328
 30
0.0
 11
14.0
 21
84.755050659179687
 31
0.0
  0
LINE
  5
28
100
AcDbEntity
  8
0
  6
CONTINUOUS
 62
               2
100
AcDbLine
 10
32.999984741210938
 20
-60.500015258789063
 30
0.0
 11
32.999984741210938
 21
84.755050659179687
 31
0.0
  0
LINE
  5
29
100
AcDbEntity
  8
0
  6
CONTINUOUS
 62
               2
100
AcDbLine
 10
51.999984741210937
 20
-60.500015258789063
 30
0.0
 11
51.999984741210937
 21
84.755050659179687
 31
0.0
  0
LINE
  5
2A
100
AcDbEntity
  8
0
  6
CONTINUOUS
 62
               2
100
AcDbLine
 10
71.0
 20
-48.000015258789063
 30
0.0
 11
71.0
 21
32.660720825195313
 31
0.0
  0
LINE
  5
2B
100
AcDbEntity
  8
0
  6
CONTINUOUS
 62
               4
100
AcDbLine
 10
80.0
 20
-51.000015258789063
 30
0.0
 11
61.699999988079071
 21
-51.000015258789063
 31
0.0
  0
LINE
  5
2C
100
AcDbEntity
  8
0
  6
CONTINUOUS
 62
               7
100
AcDbLine
 10
56.999984741210937
 20
38.999984741210938
 30
0.0
 11
56.999984741210937
 21
27.999984741210937
 31
0.0
  0
LINE
  5
2D
100
AcDbEntity
  8
0
  6
CONTINUOUS
 62
               7
100
AcDbLine
 10
46.999984741210937
 20
38.999984741210938
 30
0.0
 11
46.999984741210937
 21
27.999984741210937
 31
0.0
  0
LINE
  5
2E
100
AcDbEntity
  8
0
  6
CONTINUOUS
 62
               7
100
AcDbLine
 10
37.999984741210937
 20
38.999984741210938
 30
0.0
 11
37.999984741210937
 21
27.999984741210937
 31
0.0
  0
LINE
  5
2F
100
AcDbEntity
  8
0
  6
CONTINUOUS
 62
               7
100
AcDbLine
 10
27.999984741210937
 20
38.999984741210938
 30
0.0
 11
27.999984741210937
 21
27.999984741210937
 31
0.0
  0
LINE
  5
30
100
AcDbEntity
  8
0
  6
CONTINUOUS
 62
               7
100
AcDbLine
 10
19.0
 20
38.999984741210938
 30
0.0
 11
19.0
 21
28.0
 31
0.0
  0
LINE
  5
31
100
AcDbEntity
  8
0
  6
CONTINUOUS
 62
               7
100
AcDbLine
 10
9.0
 20
38.999984741210938
 30
0.0
 11
9.0
 21
28.0
 31
0.0
  0
LINE
  5
32
100
AcDbEntity
  8
0
  6
CONTINUOUS
 62
               7
100
AcDbLine
 10
27.999984741210937
 20
29.499984741210938
 30
0.0
 11
37.999984741210937
 21
29.499984741210938
 31
0.0
  0
LINE
  5
33
100
AcDbEntity
  8
0
  6
CONTINUOUS
 62
               2
100
AcDbLine
 10
30.499984741210937
 20
35.699981689453125
 30
0.0
 11
35.499984741210938
 21
35.699981689453125
 31
0.0
  0
LINE
  5
34
100
AcDbEntity
  8
0
  6
CONTINUOUS
 62
             200
100
AcDbLine
 10
32.999984741210938
 20
-80.500015258789063
 30
0.0
 11
32.999984741210938
 21
-60.500015258789063
 31
0.0
  0
LINE
  5
35
100
AcDbEntity
  8
0
  6
CONTINUOUS
 62
               4
100
AcDbLine
 10
28.0
 20
62.999984741210938
 30
0.0
 11
38.0
 21
62.999984741210938
 31
0.0
  0
LINE
  5
36
100
AcDbEntity
  8
0
  6
CONTINUOUS
 62
               7
100
AcDbLine
 10
27.999984741210937
 20
38.999984741210938
 30
0.0
 11
37.999984741210937
 21
38.999984741210938
 31
0.0
  0
LINE
  5
37
100
AcDbEntity
  8
0
  6
CONTINUOUS
 62
               7
100
AcDbLine
 10
31.073196411132812
 20
35.399978637695312
 30
0.0
 11
34.926773071289063
 21
35.399978637695312
 31
0.0
  0
LINE
  5
38
100
AcDbEntity
  8
0
  6
CONTINUOUS
 62
               7
100
AcDbLine
 10
31.073196411132812
 20
35.999984741210937
 30
0.0
 11
34.926773071289063
 21
35.999984741210937
 31
0.0
  0
LINE
  5
39
100
AcDbEntity
  8
0
  6
CONTINUOUS
 62
               4
100
AcDbLine
 10
28.04998779296875
 20
62.999984741210938
 30
0.0
 11
28.04998779296875
 21
76.499984741210937
 31
0.0
  0
LINE
  5
3A
100
AcDbEntity
  8
0
  6
CONTINUOUS
 62
               4
100
AcDbLine
 10
37.5
 20
71.999984741210937
 30
0.0
 11
28.5
 21
71.999984741210937
 31
0.0
  0
LINE
  5
3B
100
AcDbEntity
  8
0
  6
CONTINUOUS
 62
               2
100
AcDbLine
 10
37.949981689453125
 20
67.499984741210938
 30
0.0
 11
28.04998779296875
 21
67.499984741210938
 31
0.0
  0
LINE
  5
3C
100
AcDbEntity
  8
0
  6
CONTINUOUS
 62
               4
100
AcDbLine
 10
37.949981689453125
 20
62.999984741210938
 30
0.0
 11
37.949981689453125
 21
76.499984741210937
 31
0.0
  0
LINE
  5
3D
100
AcDbEntity
  8
0
  6
CONTINUOUS
 62
               4
100
AcDbLine
 10
34.28497314453125
 20
82.999984741210938
 30
0.0
 11
34.28497314453125
 21
86.82666015625
 31
0.0
  0
LINE
  5
3E
100
AcDbEntity
  8
0
  6
CONTINUOUS
 62
               4
100
AcDbLine
 10
35.714996337890625
 20
82.999984741210938
 30
0.0
 11
35.714996337890625
 21
87.209823608398438
 31
0.0
  0
LINE
  5
3F
100
AcDbEntity
  8
0
  6
CONTINUOUS
 62
               4
100
AcDbLine
 10
34.5999755859375
 20
90.999984741210938
 30
0.0
 11
34.5999755859375
 21
95.999984741210938
 31
0.0
  0
LINE
  5
40
100
AcDbEntity
  8
0
  6
CONTINUOUS
 62
               4
100
AcDbLine
 10
35.399993896484375
 20
90.999984741210938
 30
0.0
 11
35.399993896484375
 21
95.999984741210938
 31
0.0
  0
LINE
  5
41
100
AcDbEntity
  8
0
  6
CONTINUOUS
 62
               4
100
AcDbLine
 10
34.5999755859375
 20
95.999984741210938
 30
0.0
 11
35.399978637695312
 21
95.999984741210938
 31
0.0
  0
LINE
  5
42
100
AcDbEntity
  8
0
  6
CONTINUOUS
 62
               4
100
AcDbLine
 10
34.28497314453125
 20
90.999984741210938
 30
0.0
 11
35.714981079101563
 21
90.999984741210938
 31
0.0
  0
LINE
  5
43
100
AcDbEntity
  8
0
  6
CONTINUOUS
 62
               4
100
AcDbLine
 10
34.28497314453125
 20
87.861923217773437
 30
0.0
 11
34.28497314453125
 21
90.999984741210938
 31
0.0
  0
LINE
  5
44
100
AcDbEntity
  8
0
  6
CONTINUOUS
 62
               4
100
AcDbLine
 10
35.714996337890625
 20
88.245101928710938
 30
0.0
 11
35.714996337890625
 21
90.999984741210938
 31
0.0
  0
LINE
  5
45
100
AcDbEntity
  8
0
  6
CONTINUOUS
 62
               4
100
AcDbLine
 10
28.04998779296875
 20
76.499984741210937
 30
0.0
 11
29.5
 21
76.499984741210937
 31
0.0
  0
LINE
  5
46
100
AcDbEntity
  8
0
  6
CONTINUOUS
 62
               4
100
AcDbLine
 10
28.949981689453125
 20
71.999984741210937
 30
0.0
 11
28.949981689453125
 21
74.499984741210938
 31
0.0
  0
LINE
  5
47
100
AcDbEntity
  8
0
  6
CONTINUOUS
 62
               4
100
AcDbLine
 10
37.04998779296875
 20
71.999984741210937
 30
0.0
 11
37.04998779296875
 21
74.499984741210938
 31
0.0
  0
LINE
  5
48
100
AcDbEntity
  8
0
  6
CONTINUOUS
 62
               4
100
AcDbLine
 10
36.499984741210937
 20
72.498458862304688
 30
0.0
 11
36.499984741210937
 21
82.999984741210938
 31
0.0
  0
LINE
  5
49
100
AcDbEntity
  8
0
  6
CONTINUOUS
 62
               4
100
AcDbLine
 10
29.499984741210938
 20
72.498458862304688
 30
0.0
 11
29.499984741210938
 21
82.999984741210938
 31
0.0
  0
LINE
  5
4A
100
AcDbEntity
  8
0
  6
CONTINUOUS
 62
               4
100
AcDbLine
 10
29.5
 20
72.498458862304688
 30
0.0
 11
36.5
 21
72.498458862304688
 31
0.0
  0
LINE
  5
4B
100
AcDbEntity
  8
0
  6
CONTINUOUS
 62
               4
100
AcDbLine
 10
29.5
 20
76.056137084960937
 30
0.0
 11
36.5
 21
76.056137084960937
 31
0.0
  0
LINE
  5
4C
100
AcDbEntity
  8
0
  6
CONTINUOUS
 62
               4
100
AcDbLine
 10
29.5
 20
81.499984741210937
 30
0.0
 11
36.5
 21
81.499984741210937
 31
0.0
  0
LINE
  5
4D
100
AcDbEntity
  8
0
  6
CONTINUOUS
 62
               4
100
AcDbLine
 10
28.099990844726563
 20
82.999984741210938
 30
0.0
 11
37.899993896484375
 21
82.999984741210938
 31
0.0
  0
LINE
  5
4E
100
AcDbEntity
  8
0
  6
CONTINUOUS
 62
               4
100
AcDbLine
 10
36.5
 20
76.499984741210937
 30
0.0
 11
37.949981689453125
 21
76.499984741210937
 31
0.0
  0
LINE
  5
4F
100
AcDbEntity
  8
0
  6
CONTINUOUS
 62
               4
100
AcDbLine
 10
36.5
 20
75.499984741210938
 30
0.0
 11
37.04998779296875
 21
75.499984741210938
 31
0.0
  0
LINE
  5
50
100
AcDbEntity
  8
0
  6
CONTINUOUS
 62
               4
100
AcDbLine
 10
36.5
 20
74.499984741210938
 30
0.0
 11
37.04998779296875
 21
74.499984741210938
 31
0.0
  0
LINE
  5
51
100
AcDbEntity
  8
0
  6
CONTINUOUS
 62
               4
100
AcDbLine
 10
28.949981689453125
 20
75.499984741210938
 30
0.0
 11
29.5
 21
75.499984741210938
 31
0.0
  0
LINE
  5
52
100
AcDbEntity
  8
0
  6
CONTINUOUS
 62
               4
100
AcDbLine
 10
28.949981689453125
 20
74.499984741210938
 30
0.0
 11
29.5
 21
74.499984741210938
 31
0.0
  0
LINE
  5
53
100
AcDbEntity
  8
0
  6
CONTINUOUS
 62
               4
100
AcDbLine
 10
28.949981689453125
 20
75.499984741210938
 30
0.0
 11
28.949981689453125
 21
76.499984741210937
 31
0.0
  0
LINE
  5
54
100
AcDbEntity
  8
0
  6
CONTINUOUS
 62
               4
100
AcDbLine
 10
37.04998779296875
 20
75.499984741210938
 30
0.0
 11
37.04998779296875
 21
76.499984741210937
 31
0.0
  0
LINE
  5
55
100
AcDbEntity
  8
0
  6
CONTINUOUS
 62
               4
100
AcDbLine
 10
31.714996337890625
 20
87.173309326171875
 30
0.0
 11
31.714996337890625
 21
90.999984741210938
 31
0.0
  0
LINE
  5
56
100
AcDbEntity
  8
0
  6
CONTINUOUS
 62
               4
100
AcDbLine
 10
30.28497314453125
 20
86.790130615234375
 30
0.0
 11
30.28497314453125
 21
90.999984741210938
 31
0.0
  0
LINE
  5
57
100
AcDbEntity
  8
0
  6
CONTINUOUS
 62
               4
100
AcDbLine
 10
30.28497314453125
 20
90.999984741210938
 30
0.0
 11
31.714981079101563
 21
90.999984741210938
 31
0.0
  0
LINE
  5
58
100
AcDbEntity
  8
0
  6
CONTINUOUS
 62
               4
100
AcDbLine
 10
31.399993896484375
 20
90.999984741210938
 30
0.0
 11
31.399993896484375
 21
95.999984741210938
 31
0.0
  0
LINE
  5
59
100
AcDbEntity
  8
0
  6
CONTINUOUS
 62
               4
100
AcDbLine
 10
30.5999755859375
 20
90.999984741210938
 30
0.0
 11
30.5999755859375
 21
95.999984741210938
 31
0.0
  0
LINE
  5
5A
100
AcDbEntity
  8
0
  6
CONTINUOUS
 62
               4
100
AcDbLine
 10
30.5999755859375
 20
95.999984741210938
 30
0.0
 11
31.399978637695313
 21
95.999984741210938
 31
0.0
  0
LINE
  5
5B
100
AcDbEntity
  8
0
  6
CONTINUOUS
 62
               4
100
AcDbLine
 10
31.714996337890625
 20
82.999984741210938
 30
0.0
 11
31.714996337890625
 21
86.138031005859375
 31
0.0
  0
LINE
  5
5C
100
AcDbEntity
  8
0
  6
CONTINUOUS
 62
               4
100
AcDbLine
 10
30.28497314453125
 20
82.999984741210938
 30
0.0
 11
30.28497314453125
 21
85.754852294921875
 31
0.0
  0
LINE
  5
5D
100
AcDbEntity
  8
0
  6
CONTINUOUS
 62
               4
100
AcDbLine
 10
37.899993896484375
 20
76.499984741210937
 30
0.0
 11
37.899993896484375
 21
82.999984741210938
 31
0.0
  0
LINE
  5
5E
100
AcDbEntity
  8
0
  6
CONTINUOUS
 62
               4
100
AcDbLine
 10
28.099990844726563
 20
76.499984741210937
 30
0.0
 11
28.099990844726563
 21
82.999984741210938
 31
0.0
  0
LINE
  5
5F
100
AcDbEntity
  8
0
  6
CONTINUOUS
 62
               4
100
AcDbLine
 10
28.999984741210938
 20
76.499984741210937
 30
0.0
 11
28.999984741210938
 21
82.999984741210938
 31
0.0
  0
LINE
  5
60
100
AcDbEntity
  8
0
  6
CONTINUOUS
 62
               4
100
AcDbLine
 10
36.999984741210938
 20
76.499984741210937
 30
0.0
 11
36.999984741210938
 21
82.999984741210938
 31
0.0
  0
LINE
  5
61
100
AcDbEntity
  8
0
  6
CONTINUOUS
 62
               7
100
AcDbLine
 10
23.999984741210937
 20
15.499984741210938
 30
0.0
 11
41.999984741210938
 21
15.499984741210938
 31
0.0
  0
LINE
  5
62
100
AcDbEntity
  8
0
  6
CONTINUOUS
 62
               7
100
AcDbLine
 10
41.999984741210938
 20
-60.000015258789063
 30
0.0
 11
41.999984741210938
 21
-34.145645141601562
 31
0.0
  0
LINE
  5
63
100
AcDbEntity
  8
0
  6
CONTINUOUS
 62
               7
100
AcDbLine
 10
23.999984741210937
 20
25.499984741210937
 30
0.0
 11
41.999984741210938
 21
25.499984741210937
 31
0.0
  0
LINE
  5
64
100
AcDbEntity
  8
0
  6
CONTINUOUS
 62
               7
100
AcDbLine
 10
23.999984741210937
 20
-37.500015258789063
 30
0.0
 11
41.999984741210938
 21
-37.500015258789063
 31
0.0
  0
LINE
  5
65
100
AcDbEntity
  8
0
  6
CONTINUOUS
 62
               7
100
AcDbLine
 10
23.999984741210937
 20
-49.500015258789063
 30
0.0
 11
41.999984741210938
 21
-49.500015258789063
 31
0.0
  0
LINE
  5
66
100
AcDbEntity
  8
0
  6
CONTINUOUS
 62
               7
100
AcDbLine
 10
23.999984741210937
 20
15.299972534179688
 30
0.0
 11
41.999984741210938
 21
15.299972534179688
 31
0.0
  0
LINE
  5
67
100
AcDbEntity
  8
0
  6
CONTINUOUS
 62
               7
100
AcDbLine
 10
23.999984741210937
 20
-37.300018310546875
 30
0.0
 11
41.999984741210938
 21
-37.300018310546875
 31
0.0
  0
LINE
  5
68
100
AcDbEntity
  8
0
  6
CONTINUOUS
 62
               7
100
AcDbLine
 10
23.999984741210937
 20
-34.000015258789063
 30
0.0
 11
26.499984741210938
 21
-34.000015258789063
 31
0.0
  0
LINE
  5
69
100
AcDbEntity
  8
0
  6
CONTINUOUS
 62
               7
100
AcDbLine
 10
23.999984741210937
 20
-28.000015258789063
 30
0.0
 11
26.499984741210938
 21
-28.000015258789063
 31
0.0
  0
LINE
  5
6A
100
AcDbEntity
  8
0
  6
CONTINUOUS
 62
               7
100
AcDbLine
 10
36.499984741210937
 20
-33.0
 30
0.0
 11
36.499984741210937
 21
-37.300018310546875
 31
0.0
  0
LINE
  5
6B
100
AcDbEntity
  8
0
  6
CONTINUOUS
 62
               7
100
AcDbLine
 10
29.499984741210938
 20
11.0
 30
0.0
 11
29.499984741210938
 21
15.29998779296875
 31
0.0
  0
LINE
  5
6C
100
AcDbEntity
  8
0
  6
CONTINUOUS
 62
               7
100
AcDbLine
 10
26.499984741210938
 20
7.9999847412109375
 30
0.0
 11
23.999984741210937
 21
7.9999847412109375
 31
0.0
  0
LINE
  5
6D
100
AcDbEntity
  8
0
  6
CONTINUOUS
 62
               7
100
AcDbLine
 10
39.499984741210938
 20
-30.0
 30
0.0
 11
41.999984741210938
 21
-30.0
 31
0.0
  0
LINE
  5
6E
100
AcDbEntity
  8
0
  6
CONTINUOUS
 62
               7
100
AcDbLine
 10
23.999984741210937
 20
-35.300018310546875
 30
0.0
 11
36.499984741210937
 21
-35.300018310546875
 31
0.0
  0
LINE
  5
6F
100
AcDbEntity
  8
0
  6
CONTINUOUS
 62
               7
100
AcDbLine
 10
29.499984741210938
 20
13.299972534179687
 30
0.0
 11
41.999984741210938
 21
13.299972534179687
 31
0.0
  0
LINE
  5
70
100
AcDbEntity
  8
0
  6
CONTINUOUS
 62
               7
100
AcDbLine
 10
40.560655233193756
 20
7.9393397271319373
 30
0.0
 11
38.439325060782721
 21
10.060661137637908
 31
0.0
  0
LINE
  5
71
100
AcDbEntity
  8
0
  6
CONTINUOUS
 62
               7
100
AcDbLine
 10
27.560671372408535
 20
9.9393597312839006
 30
0.0
 11
25.439358575338986
 21
12.060687906351802
 31
0.0
  0
LINE
  5
72
100
AcDbEntity
  8
0
  6
CONTINUOUS
 62
               7
100
AcDbLine
 10
25.439343337080572
 20
9.9393276907794643
 30
0.0
 11
27.560665790102576
 21
12.060645852267044
 31
0.0
  0
LINE
  5
73
100
AcDbEntity
  8
0
  6
CONTINUOUS
 62
               7
100
AcDbLine
 10
38.439335638377315
 20
7.9393540165837067
 30
0.0
 11
40.560664886328823
 21
10.060665561955716
 31
0.0
  0
LINE
  5
74
100
AcDbEntity
  8
0
  6
CONTINUOUS
 62
               7
100
AcDbLine
 10
24.499984741210938
 20
-60.500015258789063
 30
0.0
 11
41.499984741210938
 21
-60.500015258789063
 31
0.0
  0
LINE
  5
75
100
AcDbEntity
  8
0
  6
CONTINUOUS
 62
               7
100
AcDbLine
 10
38.439335258025039
 20
-34.060678642135827
 30
0.0
 11
40.560651273745407
 21
-31.939353864532677
 31
0.0
  0
LINE
  5
76
100
AcDbEntity
  8
0
  6
CONTINUOUS
 62
               7
100
AcDbLine
 10
40.560634485906633
 20
-34.060675868542774
 30
0.0
 11
38.439315251535447
 21
-31.939354488404376
 31
0.0
  0
LINE
  5
77
100
AcDbEntity
  8
0
  6
CONTINUOUS
 62
               7
100
AcDbLine
 10
25.439341917017146
 20
-32.060655627723236
 30
0.0
 11
27.560655071714564
 21
-29.939328167911071
 31
0.0
  0
LINE
  5
78
100
AcDbEntity
  8
0
  6
CONTINUOUS
 62
               7
100
AcDbLine
 10
27.560657806999643
 20
-32.06067114700727
 30
0.0
 11
25.439339645512064
 21
-29.939348515171332
 31
0.0
  0
LINE
  5
79
100
AcDbEntity
  8
0
  6
CONTINUOUS
 62
               2
100
AcDbLine
 10
30.383323669433594
 20
-45.500015258789063
 30
0.0
 11
35.616661071777344
 21
-45.500015258789063
 31
0.0
  0
LINE
  5
7A
100
AcDbEntity
  8
0
  6
CONTINUOUS
 62
               7
100
AcDbLine
 10
31.073207855224609
 20
-45.800018310546875
 30
0.0
 11
34.926773071289063
 21
-45.800018310546875
 31
0.0
  0
LINE
  5
7B
100
AcDbEntity
  8
0
  6
CONTINUOUS
 62
               7
100
AcDbLine
 10
31.073207855224609
 20
-45.20001220703125
 30
0.0
 11
34.926773071289063
 21
-45.20001220703125
 31
0.0
  0
LINE
  5
7C
100
AcDbEntity
  8
0
  6
CONTINUOUS
 62
               7
100
AcDbLine
 10
23.999992370605469
 20
-46.500015258789063
 30
0.0
 11
26.999992370605469
 21
-46.500015258789063
 31
0.0
  0
LINE
  5
7D
100
AcDbEntity
  8
0
  6
CONTINUOUS
 62
               7
100
AcDbLine
 10
23.999992370605469
 20
-40.500015258789063
 30
0.0
 11
26.999992370605469
 21
-40.500015258789063
 31
0.0
  0
LINE
  5
7E
100
AcDbEntity
  8
0
  6
CONTINUOUS
 62
               7
100
AcDbLine
 10
26.499984741210938
 20
-49.500015258789063
 30
0.0
 11
26.499984741210938
 21
-46.500015258789063
 31
0.0
  0
LINE
  5
7F
100
AcDbEntity
  8
0
  6
CONTINUOUS
 62
               7
100
AcDbLine
 10
39.499984741210938
 20
-49.500015258789063
 30
0.0
 11
39.499984741210938
 21
-46.500015258789063
 31
0.0
  0
LINE
  5
80
100
AcDbEntity
  8
0
  6
CONTINUOUS
 62
               7
100
AcDbLine
 10
38.999992370605469
 20
-46.500015258789063
 30
0.0
 11
41.999992370605469
 21
-46.500015258789063
 31
0.0
  0
LINE
  5
81
100
AcDbEntity
  8
0
  6
CONTINUOUS
 62
               7
100
AcDbLine
 10
38.999992370605469
 20
-40.500015258789063
 30
0.0
 11
41.999992370605469
 21
-40.500015258789063
 31
0.0
  0
LINE
  5
82
100
AcDbEntity
  8
0
  6
CONTINUOUS
 62
               7
100
AcDbLine
 10
39.499984741210938
 20
-40.500015258789063
 30
0.0
 11
39.499984741210938
 21
-37.500015258789063
 31
0.0
  0
LINE
  5
83
100
AcDbEntity
  8
0
  6
CONTINUOUS
 62
               7
100
AcDbLine
 10
26.499984741210938
 20
-40.500015258789063
 30
0.0
 11
26.499984741210938
 21
-37.500015258789063
 31
0.0
  0
LINE
  5
84
100
AcDbEntity
  8
0
  6
CONTINUOUS
 62
               7
100
AcDbLine
 10
35.499984741210938
 20
35.699996948242187
 30
0.0
 11
36.499984741210937
 21
35.699996948242187
 31
0.0
  0
LINE
  5
85
100
AcDbEntity
  8
0
  6
CONTINUOUS
 62
               7
100
AcDbLine
 10
32.999984741210938
 20
32.199996948242188
 30
0.0
 11
32.999984741210938
 21
33.199996948242187
 31
0.0
  0
LINE
  5
86
100
AcDbEntity
  8
0
  6
CONTINUOUS
 62
               7
100
AcDbLine
 10
32.999978189478384
 20
32.699982077578056
 30
0.0
 11
33.999977478883011
 21
32.432033135011807
 31
0.0
  0
LINE
  5
87
100
AcDbEntity
  8
0
  6
CONTINUOUS
 62
               7
100
AcDbLine
 10
25.999985694885254
 20
27.999984741210937
 30
0.0
 11
39.999981880187988
 21
27.999984741210937
 31
0.0
  0
LINE
  5
88
100
AcDbEntity
  8
0
  6
CONTINUOUS
 62
               7
100
AcDbLine
 10
41.99994309901922
 20
25.499993083769368
 30
0.0
 11
39.999998318905455
 21
27.999987079076163
 31
0.0
  0
LINE
  5
89
100
AcDbEntity
  8
0
  6
CONTINUOUS
 62
               7
100
AcDbLine
 10
24.000038358181882
 20
25.499976784274622
 30
0.0
 11
25.999991906933246
 21
27.999983076464559
 31
0.0
  0
LINE
  5
8A
100
AcDbEntity
  8
0
  6
CONTINUOUS
 62
               4
100
AcDbLine
 10
27.999984741210937
 20
38.999984741210938
 30
0.0
 11
27.999984741210937
 21
62.999984741210938
 31
0.0
  0
LINE
  5
8B
100
AcDbEntity
  8
0
  6
CONTINUOUS
 62
               4
100
AcDbLine
 10
37.999984741210937
 20
38.999984741210938
 30
0.0
 11
37.999984741210937
 21
62.999984741210938
 31
0.0
  0
LINE
  5
8C
100
AcDbEntity
  8
0
  6
CONTINUOUS
 62
               7
100
AcDbLine
 10
41.999984741210938
 20
10.566024780273438
 30
0.0
 11
41.999984741210938
 21
25.499984741210937
 31
0.0
  0
LINE
  5
8D
100
AcDbEntity
  8
0
  6
CONTINUOUS
 62
               7
100
AcDbLine
 10
41.999984741210938
 20
-31.739028930664063
 30
0.0
 11
41.999984741210938
 21
7.4339447021484375
 31
0.0
  0
LINE
  5
8E
100
AcDbEntity
  8
0
  6
CONTINUOUS
 62
               7
100
AcDbLine
 10
23.999984741210937
 20
12.260955810546875
 30
0.0
 11
23.999984741210937
 21
25.499984741210937
 31
0.0
  0
LINE
  5
8F
100
AcDbEntity
  8
0
  6
CONTINUOUS
 62
               7
100
AcDbLine
 10
23.999984741210937
 20
-29.4339599609375
 30
0.0
 11
23.999984741210937
 21
9.739044189453125
 31
0.0
  0
LINE
  5
90
100
AcDbEntity
  8
0
  6
CONTINUOUS
 62
               7
100
AcDbLine
 10
23.999984741210937
 20
-60.0
 30
0.0
 11
23.999984741210937
 21
-32.566009521484375
 31
0.0
  0
LINE
  5
91
100
AcDbEntity
  8
0
  6
CONTINUOUS
 62
               7
100
AcDbLine
 10
39.499984741210938
 20
11.999984741210938
 30
0.0
 11
41.999984741210938
 21
11.999984741210938
 31
0.0
  0
LINE
  5
92
100
AcDbEntity
  8
0
  6
CONTINUOUS
 62
               7
100
AcDbLine
 10
39.499984741210938
 20
5.9999847412109375
 30
0.0
 11
41.999984741210938
 21
5.9999847412109375
 31
0.0
  0
LINE
  5
93
100
AcDbEntity
  8
0
  6
CONTINUOUS
 62
               7
100
AcDbLine
 10
30.49998664855957
 20
-45.500015258789063
 30
0.0
 11
29.49998664855957
 21
-45.500015258789063
 31
0.0
  0
LINE
  5
94
100
AcDbEntity
  8
0
  6
CONTINUOUS
 62
               7
100
AcDbLine
 10
32.999992046675459
 20
-42.500000550260836
 30
0.0
 11
31.999992818978058
 21
-42.232051422572908
 31
0.0
  0
LINE
  5
95
100
AcDbEntity
  8
0
  6
CONTINUOUS
 62
               7
100
AcDbLine
 10
32.999993291679857
 20
-42.000015258789063
 30
0.0
 11
32.999993291679857
 21
-43.000015258789063
 31
0.0
  0
CIRCLE
  5
96
100
AcDbEntity
  8
0
  6
CONTINUOUS
 62
               7
100
AcDbCircle
 10
32.999984741210938
 20
35.699996948242187
 30
0.0
 40
2.0
  0
CIRCLE
  5
97
100
AcDbEntity
  8
0
  6
CONTINUOUS
 62
               7
100
AcDbCircle
 10
32.999984741210938
 20
35.699996948242187
 30
0.0
 40
1.9499998092651367
  0
ARC
  5
98
100
AcDbEntity
  8
0
  6
CONTINUOUS
 62
               4
100
AcDbCircle
 10
37.449981689453125
 20
71.499984741210938
 30
0.0
 40
0.5
100
AcDbArc
 50
359.99994535848583
 51
89.999982013910454
  0
ARC
  5
99
100
AcDbEntity
  8
0
  6
CONTINUOUS
 62
               4
100
AcDbCircle
 10
28.54998779296875
 20
71.499984741210938
 30
0.0
 40
0.5
100
AcDbArc
 50
89.999982013910454
 51
179.99996402782091
  0
CIRCLE
  5
9A
100
AcDbEntity
  8
0
  6
CONTINUOUS
 62
               7
100
AcDbCircle
 10
26.499984741210938
 20
11.0
 30
0.0
 40
2.75
  0
ARC
  5
9B
100
AcDbEntity
  8
0
  6
CONTINUOUS
 62
               7
100
AcDbCircle
 10
39.499984741210938
 20
9.0
 30
0.0
 40
3.0
100
AcDbArc
 50
89.999982013910454
 51
269.99994604173139
  0
ARC
  5
9C
100
AcDbEntity
  8
0
  6
CONTINUOUS
 62
               7
100
AcDbCircle
 10
26.499984741210938
 20
-31.0
 30
0.0
 40
3.0
100
AcDbArc
 50
269.99996334457541
 51
89.999982013910454
  0
ARC
  5
9D
100
AcDbEntity
  8
0
  6
CONTINUOUS
 62
               7
100
AcDbCircle
 10
26.499984741210938
 20
11.0
 30
0.0
 40
3.0
100
AcDbArc
 50
270.00001798608872
 51
0.00001366037834
  0
ARC
  5
9E
100
AcDbEntity
  8
0
  6
CONTINUOUS
 62
               7
100
AcDbCircle
 10
39.499984741210938
 20
-33.0
 30
0.0
 40
3.0
100
AcDbArc
 50
89.999982013910454
 51
179.99996402782091
  0
CIRCLE
  5
9F
100
AcDbEntity
  8
0
  6
CONTINUOUS
 62
               7
100
AcDbCircle
 10
39.5
 20
9.0
 30
0.0
 40
2.75
  0
ARC
  5
A0
100
AcDbEntity
  8
0
  6
CONTINUOUS
 62
               7
100
AcDbCircle
 10
24.499984741210938
 20
-60.0
 30
0.0
 40
0.5
100
AcDbArc
 50
180.0000359721783
 51
269.99996334457541
  0
ARC
  5
A1
100
AcDbEntity
  8
0
  6
CONTINUOUS
 62
               7
100
AcDbCircle
 10
41.499984741210938
 20
-60.000015258789063
 30
0.0
 40
0.5
100
AcDbArc
 50
270.00001798608872
 51
0.00001366037834
  0
CIRCLE
  5
A2
100
AcDbEntity
  8
0
  6
CONTINUOUS
 62
               7
100
AcDbCircle
 10
39.499984741210938
 20
-33.0
 30
0.0
 40
2.75
  0
CIRCLE
  5
A3
100
AcDbEntity
  8
0
  6
CONTINUOUS
 62
               7
100
AcDbCircle
 10
26.5
 20
-31.0
 30
0.0
 40
2.75
  0
CIRCLE
  5
A4
100
AcDbEntity
  8
0
  6
CONTINUOUS
 62
               7
100
AcDbCircle
 10
32.999992370605469
 20
-45.500015258789063
 30
0.0
 40
2.0
  0
CIRCLE
  5
A5
100
AcDbEntity
  8
0
  6
CONTINUOUS
 62
               7
100
AcDbCircle
 10
32.999992370605469
 20
-45.500015258789063
 30
0.0
 40
1.9499998092651367
  0
ARC
  5
A6
100
AcDbEntity
  8
0
  6
CONTINUOUS
 62
               7
100
AcDbCircle
 10
33.099984705448151
 20
35.699996948242187
 30
0.0
 40
3.0
100
AcDbArc
 50
268.089805320533
 51
0.0
  0
ARC
  5
A7
100
AcDbEntity
  8
0
  6
CONTINUOUS
 62
               7
100
AcDbCircle
 10
32.999984741210938
 20
35.699996948242187
 30
0.0
 40
3.0
100
AcDbArc
 50
266.17746163595609
 51
3.822566595416411
  0
ARC
  5
A8
100
AcDbEntity
  8
0
  6
CONTINUOUS
 62
               7
100
AcDbCircle
 10
32.899984776973724
 20
35.699996948242187
 30
0.0
 40
3.0
100
AcDbArc
 50
271.91023065164455
 51
0.0
  0
ARC
  5
A9
100
AcDbEntity
  8
0
  6
CONTINUOUS
 62
               7
100
AcDbCircle
 10
39.000030517578125
 20
28.500045776367188
 30
0.0
 40
2.5000734329223633
100
AcDbArc
 50
191.53802865027069
 51
319.45890333229545
  0
CIRCLE
  5
AA
100
AcDbEntity
  8
0
  6
CONTINUOUS
 62
               7
100
AcDbCircle
 10
39.499984741210938
 20
8.9999847412109375
 30
0.0
 40
2.9499998092651367
  0
CIRCLE
  5
AB
100
AcDbEntity
  8
0
  6
CONTINUOUS
 62
               7
100
AcDbCircle
 10
26.5
 20
-30.999984741210938
 30
0.0
 40
2.9499998092651367
  0
ARC
  5
AC
100
AcDbEntity
  8
0
  6
CONTINUOUS
 62
               7
100
AcDbCircle
 10
32.899986267089844
 20
-45.500015258789063
 30
0.0
 40
3.0
100
AcDbArc
 50
88.08976934835465
 51
179.99996402782091
  0
ARC
  5
AD
100
AcDbEntity
  8
0
  6
CONTINUOUS
 62
               7
100
AcDbCircle
 10
32.999986240174621
 20
-45.500015258789063
 30
0.0
 40
3.0
100
AcDbArc
 50
86.177425663777811
 51
183.82257501946691
  0
ARC
  5
AE
100
AcDbEntity
  8
0
  6
CONTINUOUS
 62
               7
100
AcDbCircle
 10
33.09998619556427
 20
-45.500015258789063
 30
0.0
 40
3.0
100
AcDbArc
 50
91.910194679466258
 51
179.99996402782091
  0
LINE
  5
AF
100
AcDbEntity
  8
0
  6
CONTINUOUS
 62
             200
100
AcDbLine
 10
28.999987348672221
 20
85.41054331918167
 30
0.0
 11
36.999989033338352
 21
87.554137328002071
 31
0.0
  0
LINE
  5
B0
100
AcDbEntity
  8
0
  6
CONTINUOUS
 62
             200
100
AcDbLine
 10
28.999982655490385
 20
86.445818228678036
 30
0.0
 11
36.999984340156516
 21
88.589412237498436
 31
0.0
  0
LINE
  5
B1
100
AcDbEntity
  8
0
  6
CONTINUOUS
 62
               7
100
AcDbLine
 10
46.999984741210937
 20
29.499984741210938
 30
0.0
 11
56.999984741210937
 21
29.499984741210938
 31
0.0
  0
LINE
  5
B2
100
AcDbEntity
  8
0
  6
CONTINUOUS
 62
               2
100
AcDbLine
 10
49.499984741210938
 20
35.699981689453125
 30
0.0
 11
54.499984741210938
 21
35.699981689453125
 31
0.0
  0
LINE
  5
B3
100
AcDbEntity
  8
0
  6
CONTINUOUS
 62
             200
100
AcDbLine
 10
51.999984741210937
 20
-80.500015258789063
 30
0.0
 11
51.999984741210937
 21
-60.500015258789063
 31
0.0
  0
LINE
  5
B4
100
AcDbEntity
  8
0
  6
CONTINUOUS
 62
               4
100
AcDbLine
 10
47.0
 20
62.999984741210938
 30
0.0
 11
57.0
 21
62.999984741210938
 31
0.0
  0
LINE
  5
B5
100
AcDbEntity
  8
0
  6
CONTINUOUS
 62
               7
100
AcDbLine
 10
46.999984741210937
 20
38.999984741210938
 30
0.0
 11
56.999984741210937
 21
38.999984741210938
 31
0.0
  0
LINE
  5
B6
100
AcDbEntity
  8
0
  6
CONTINUOUS
 62
               7
100
AcDbLine
 10
50.073196411132813
 20
35.399978637695312
 30
0.0
 11
53.926773071289062
 21
35.399978637695312
 31
0.0
  0
LINE
  5
B7
100
AcDbEntity
  8
0
  6
CONTINUOUS
 62
               7
100
AcDbLine
 10
50.073196411132813
 20
35.999984741210937
 30
0.0
 11
53.926773071289062
 21
35.999984741210937
 31
0.0
  0
LINE
  5
B8
100
AcDbEntity
  8
0
  6
CONTINUOUS
 62
               4
100
AcDbLine
 10
47.04998779296875
 20
62.999984741210938
 30
0.0
 11
47.04998779296875
 21
76.499984741210937
 31
0.0
  0
LINE
  5
B9
100
AcDbEntity
  8
0
  6
CONTINUOUS
 62
               4
100
AcDbLine
 10
56.5
 20
71.999984741210937
 30
0.0
 11
47.5
 21
71.999984741210937
 31
0.0
  0
LINE
  5
BA
100
AcDbEntity
  8
0
  6
CONTINUOUS
 62
               2
100
AcDbLine
 10
56.949981689453125
 20
67.499984741210938
 30
0.0
 11
47.04998779296875
 21
67.499984741210938
 31
0.0
  0
LINE
  5
BB
100
AcDbEntity
  8
0
  6
CONTINUOUS
 62
               4
100
AcDbLine
 10
56.949981689453125
 20
62.999984741210938
 30
0.0
 11
56.949981689453125
 21
76.499984741210937
 31
0.0
  0
LINE
  5
BC
100
AcDbEntity
  8
0
  6
CONTINUOUS
 62
               4
100
AcDbLine
 10
53.28497314453125
 20
82.999984741210938
 30
0.0
 11
53.28497314453125
 21
86.82666015625
 31
0.0
  0
LINE
  5
BD
100
AcDbEntity
  8
0
  6
CONTINUOUS
 62
               4
100
AcDbLine
 10
54.714996337890625
 20
82.999984741210938
 30
0.0
 11
54.714996337890625
 21
87.209823608398438
 31
0.0
  0
LINE
  5
BE
100
AcDbEntity
  8
0
  6
CONTINUOUS
 62
               4
100
AcDbLine
 10
53.5999755859375
 20
90.999984741210938
 30
0.0
 11
53.5999755859375
 21
95.999984741210938
 31
0.0
  0
LINE
  5
BF
100
AcDbEntity
  8
0
  6
CONTINUOUS
 62
               4
100
AcDbLine
 10
54.399993896484375
 20
90.999984741210938
 30
0.0
 11
54.399993896484375
 21
95.999984741210938
 31
0.0
  0
LINE
  5
C0
100
AcDbEntity
  8
0
  6
CONTINUOUS
 62
               4
100
AcDbLine
 10
53.5999755859375
 20
95.999984741210938
 30
0.0
 11
54.399978637695312
 21
95.999984741210938
 31
0.0
  0
LINE
  5
C1
100
AcDbEntity
  8
0
  6
CONTINUOUS
 62
               4
100
AcDbLine
 10
53.28497314453125
 20
90.999984741210938
 30
0.0
 11
54.714981079101562
 21
90.999984741210938
 31
0.0
  0
LINE
  5
C2
100
AcDbEntity
  8
0
  6
CONTINUOUS
 62
               4
100
AcDbLine
 10
53.28497314453125
 20
87.861923217773437
 30
0.0
 11
53.28497314453125
 21
90.999984741210938
 31
0.0
  0
LINE
  5
C3
100
AcDbEntity
  8
0
  6
CONTINUOUS
 62
               4
100
AcDbLine
 10
54.714996337890625
 20
88.245101928710938
 30
0.0
 11
54.714996337890625
 21
90.999984741210938
 31
0.0
  0
LINE
  5
C4
100
AcDbEntity
  8
0
  6
CONTINUOUS
 62
               4
100
AcDbLine
 10
47.04998779296875
 20
76.499984741210937
 30
0.0
 11
48.5
 21
76.499984741210937
 31
0.0
  0
LINE
  5
C5
100
AcDbEntity
  8
0
  6
CONTINUOUS
 62
               4
100
AcDbLine
 10
47.949981689453125
 20
71.999984741210937
 30
0.0
 11
47.949981689453125
 21
74.499984741210938
 31
0.0
  0
LINE
  5
C6
100
AcDbEntity
  8
0
  6
CONTINUOUS
 62
               4
100
AcDbLine
 10
56.04998779296875
 20
71.999984741210937
 30
0.0
 11
56.04998779296875
 21
74.499984741210938
 31
0.0
  0
LINE
  5
C7
100
AcDbEntity
  8
0
  6
CONTINUOUS
 62
               4
100
AcDbLine
 10
55.499984741210938
 20
72.498458862304688
 30
0.0
 11
55.499984741210938
 21
82.999984741210938
 31
0.0
  0
LINE
  5
C8
100
AcDbEntity
  8
0
  6
CONTINUOUS
 62
               4
100
AcDbLine
 10
48.499984741210937
 20
72.498458862304688
 30
0.0
 11
48.499984741210937
 21
82.999984741210938
 31
0.0
  0
LINE
  5
C9
100
AcDbEntity
  8
0
  6
CONTINUOUS
 62
               4
100
AcDbLine
 10
48.5
 20
72.498458862304688
 30
0.0
 11
55.5
 21
72.498458862304688
 31
0.0
  0
LINE
  5
CA
100
AcDbEntity
  8
0
  6
CONTINUOUS
 62
               4
100
AcDbLine
 10
48.5
 20
76.056137084960937
 30
0.0
 11
55.5
 21
76.056137084960937
 31
0.0
  0
LINE
  5
CB
100
AcDbEntity
  8
0
  6
CONTINUOUS
 62
               4
100
AcDbLine
 10
48.5
 20
81.499984741210937
 30
0.0
 11
55.5
 21
81.499984741210937
 31
0.0
  0
LINE
  5
CC
100
AcDbEntity
  8
0
  6
CONTINUOUS
 62
               4
100
AcDbLine
 10
47.099990844726563
 20
82.999984741210938
 30
0.0
 11
56.899993896484375
 21
82.999984741210938
 31
0.0
  0
LINE
  5
CD
100
AcDbEntity
  8
0
  6
CONTINUOUS
 62
               4
100
AcDbLine
 10
55.5
 20
76.499984741210937
 30
0.0
 11
56.949981689453125
 21
76.499984741210937
 31
0.0
  0
LINE
  5
CE
100
AcDbEntity
  8
0
  6
CONTINUOUS
 62
               4
100
AcDbLine
 10
55.5
 20
75.499984741210938
 30
0.0
 11
56.04998779296875
 21
75.499984741210938
 31
0.0
  0
LINE
  5
CF
100
AcDbEntity
  8
0
  6
CONTINUOUS
 62
               4
100
AcDbLine
 10
55.5
 20
74.499984741210938
 30
0.0
 11
56.04998779296875
 21
74.499984741210938
 31
0.0
  0
LINE
  5
D0
100
AcDbEntity
  8
0
  6
CONTINUOUS
 62
               4
100
AcDbLine
 10
47.949981689453125
 20
75.499984741210938
 30
0.0
 11
48.5
 21
75.499984741210938
 31
0.0
  0
LINE
  5
D1
100
AcDbEntity
  8
0
  6
CONTINUOUS
 62
               4
100
AcDbLine
 10
47.949981689453125
 20
74.499984741210938
 30
0.0
 11
48.5
 21
74.499984741210938
 31
0.0
  0
LINE
  5
D2
100
AcDbEntity
  8
0
  6
CONTINUOUS
 62
               4
100
AcDbLine
 10
47.949981689453125
 20
75.499984741210938
 30
0.0
 11
47.949981689453125
 21
76.499984741210937
 31
0.0
  0
LINE
  5
D3
100
AcDbEntity
  8
0
  6
CONTINUOUS
 62
               4
100
AcDbLine
 10
56.04998779296875
 20
75.499984741210938
 30
0.0
 11
56.04998779296875
 21
76.499984741210937
 31
0.0
  0
LINE
  5
D4
100
AcDbEntity
  8
0
  6
CONTINUOUS
 62
               4
100
AcDbLine
 10
50.714996337890625
 20
87.173309326171875
 30
0.0
 11
50.714996337890625
 21
90.999984741210938
 31
0.0
  0
LINE
  5
D5
100
AcDbEntity
  8
0
  6
CONTINUOUS
 62
               4
100
AcDbLine
 10
49.28497314453125
 20
86.790130615234375
 30
0.0
 11
49.28497314453125
 21
90.999984741210938
 31
0.0
  0
LINE
  5
D6
100
AcDbEntity
  8
0
  6
CONTINUOUS
 62
               4
100
AcDbLine
 10
49.28497314453125
 20
90.999984741210938
 30
0.0
 11
50.714981079101562
 21
90.999984741210938
 31
0.0
  0
LINE
  5
D7
100
AcDbEntity
  8
0
  6
CONTINUOUS
 62
               4
100
AcDbLine
 10
50.399993896484375
 20
90.999984741210938
 30
0.0
 11
50.399993896484375
 21
95.999984741210938
 31
0.0
  0
LINE
  5
D8
100
AcDbEntity
  8
0
  6
CONTINUOUS
 62
               4
100
AcDbLine
 10
49.5999755859375
 20
90.999984741210938
 30
0.0
 11
49.5999755859375
 21
95.999984741210938
 31
0.0
  0
LINE
  5
D9
100
AcDbEntity
  8
0
  6
CONTINUOUS
 62
               4
100
AcDbLine
 10
49.5999755859375
 20
95.999984741210938
 30
0.0
 11
50.399978637695312
 21
95.999984741210938
 31
0.0
  0
LINE
  5
DA
100
AcDbEntity
  8
0
  6
CONTINUOUS
 62
               4
100
AcDbLine
 10
50.714996337890625
 20
82.999984741210938
 30
0.0
 11
50.714996337890625
 21
86.138031005859375
 31
0.0
  0
LINE
  5
DB
100
AcDbEntity
  8
0
  6
CONTINUOUS
 62
               4
100
AcDbLine
 10
49.28497314453125
 20
82.999984741210938
 30
0.0
 11
49.28497314453125
 21
85.754852294921875
 31
0.0
  0
LINE
  5
DC
100
AcDbEntity
  8
0
  6
CONTINUOUS
 62
               4
100
AcDbLine
 10
56.899993896484375
 20
76.499984741210937
 30
0.0
 11
56.899993896484375
 21
82.999984741210938
 31
0.0
  0
LINE
  5
DD
100
AcDbEntity
  8
0
  6
CONTINUOUS
 62
               4
100
AcDbLine
 10
47.099990844726563
 20
76.499984741210937
 30
0.0
 11
47.099990844726563
 21
82.999984741210938
 31
0.0
  0
LINE
  5
DE
100
AcDbEntity
  8
0
  6
CONTINUOUS
 62
               4
100
AcDbLine
 10
47.999984741210938
 20
76.499984741210937
 30
0.0
 11
47.999984741210938
 21
82.999984741210938
 31
0.0
  0
LINE
  5
DF
100
AcDbEntity
  8
0
  6
CONTINUOUS
 62
               4
100
AcDbLine
 10
55.999984741210937
 20
76.499984741210937
 30
0.0
 11
55.999984741210937
 21
82.999984741210938
 31
0.0
  0
LINE
  5
E0
100
AcDbEntity
  8
0
  6
CONTINUOUS
 62
               7
100
AcDbLine
 10
42.999984741210937
 20
15.499984741210938
 30
0.0
 11
60.999984741210937
 21
15.499984741210938
 31
0.0
  0
LINE
  5
E1
100
AcDbEntity
  8
0
  6
CONTINUOUS
 62
               7
100
AcDbLine
 10
60.999984741210937
 20
-60.000015258789063
 30
0.0
 11
60.999984741210937
 21
-34.145645141601562
 31
0.0
  0
LINE
  5
E2
100
AcDbEntity
  8
0
  6
CONTINUOUS
 62
               7
100
AcDbLine
 10
42.999984741210937
 20
25.499984741210937
 30
0.0
 11
60.999984741210937
 21
25.499984741210937
 31
0.0
  0
LINE
  5
E3
100
AcDbEntity
  8
0
  6
CONTINUOUS
 62
               7
100
AcDbLine
 10
42.999984741210937
 20
-37.500015258789063
 30
0.0
 11
60.999984741210937
 21
-37.500015258789063
 31
0.0
  0
LINE
  5
E4
100
AcDbEntity
  8
0
  6
CONTINUOUS
 62
               7
100
AcDbLine
 10
42.999984741210937
 20
-49.500015258789063
 30
0.0
 11
60.999984741210937
 21
-49.500015258789063
 31
0.0
  0
LINE
  5
E5
100
AcDbEntity
  8
0
  6
CONTINUOUS
 62
               7
100
AcDbLine
 10
42.999984741210937
 20
15.299972534179688
 30
0.0
 11
60.999984741210937
 21
15.299972534179688
 31
0.0
  0
LINE
  5
E6
100
AcDbEntity
  8
0
  6
CONTINUOUS
 62
               7
100
AcDbLine
 10
42.999984741210937
 20
-37.300018310546875
 30
0.0
 11
60.999984741210937
 21
-37.300018310546875
 31
0.0
  0
LINE
  5
E7
100
AcDbEntity
  8
0
  6
CONTINUOUS
 62
               7
100
AcDbLine
 10
42.999984741210937
 20
-34.000015258789063
 30
0.0
 11
45.499984741210938
 21
-34.000015258789063
 31
0.0
  0
LINE
  5
E8
100
AcDbEntity
  8
0
  6
CONTINUOUS
 62
               7
100
AcDbLine
 10
42.999984741210937
 20
-28.000015258789063
 30
0.0
 11
45.499984741210938
 21
-28.000015258789063
 31
0.0
  0
LINE
  5
E9
100
AcDbEntity
  8
0
  6
CONTINUOUS
 62
               7
100
AcDbLine
 10
55.499984741210938
 20
-33.0
 30
0.0
 11
55.499984741210938
 21
-37.300018310546875
 31
0.0
  0
LINE
  5
EA
100
AcDbEntity
  8
0
  6
CONTINUOUS
 62
               7
100
AcDbLine
 10
48.499984741210937
 20
11.0
 30
0.0
 11
48.499984741210937
 21
15.29998779296875
 31
0.0
  0
LINE
  5
EB
100
AcDbEntity
  8
0
  6
CONTINUOUS
 62
               7
100
AcDbLine
 10
45.499984741210938
 20
7.9999847412109375
 30
0.0
 11
42.999984741210937
 21
7.9999847412109375
 31
0.0
  0
LINE
  5
EC
100
AcDbEntity
  8
0
  6
CONTINUOUS
 62
               7
100
AcDbLine
 10
58.499984741210938
 20
-30.0
 30
0.0
 11
60.999984741210937
 21
-30.0
 31
0.0
  0
LINE
  5
ED
100
AcDbEntity
  8
0
  6
CONTINUOUS
 62
               7
100
AcDbLine
 10
42.999984741210937
 20
-35.300018310546875
 30
0.0
 11
55.499984741210938
 21
-35.300018310546875
 31
0.0
  0
LINE
  5
EE
100
AcDbEntity
  8
0
  6
CONTINUOUS
 62
               7
100
AcDbLine
 10
48.499984741210937
 20
13.299972534179687
 30
0.0
 11
60.999984741210937
 21
13.299972534179687
 31
0.0
  0
LINE
  5
EF
100
AcDbEntity
  8
0
  6
CONTINUOUS
 62
               7
100
AcDbLine
 10
59.560655233193756
 20
7.9393397271319373
 30
0.0
 11
57.439325060782721
 21
10.060661137637908
 31
0.0
  0
LINE
  5
F0
100
AcDbEntity
  8
0
  6
CONTINUOUS
 62
               7
100
AcDbLine
 10
46.560671372408535
 20
9.9393597312839006
 30
0.0
 11
44.439358575338986
 21
12.060687906351802
 31
0.0
  0
LINE
  5
F1
100
AcDbEntity
  8
0
  6
CONTINUOUS
 62
               7
100
AcDbLine
 10
44.439343337080572
 20
9.9393276907794643
 30
0.0
 11
46.560665790102576
 21
12.060645852267044
 31
0.0
  0
LINE
  5
F2
100
AcDbEntity
  8
0
  6
CONTINUOUS
 62
               7
100
AcDbLine
 10
57.439335638377315
 20
7.9393540165837067
 30
0.0
 11
59.560664886328823
 21
10.060665561955716
 31
0.0
  0
LINE
  5
F3
100
AcDbEntity
  8
0
  6
CONTINUOUS
 62
               7
100
AcDbLine
 10
43.499984741210938
 20
-60.500015258789063
 30
0.0
 11
60.499984741210937
 21
-60.500015258789063
 31
0.0
  0
LINE
  5
F4
100
AcDbEntity
  8
0
  6
CONTINUOUS
 62
               7
100
AcDbLine
 10
57.439335258025039
 20
-34.060678642135827
 30
0.0
 11
59.560651273745407
 21
-31.939353864532677
 31
0.0
  0
LINE
  5
F5
100
AcDbEntity
  8
0
  6
CONTINUOUS
 62
               7
100
AcDbLine
 10
59.560634485906633
 20
-34.060675868542774
 30
0.0
 11
57.439315251535447
 21
-31.939354488404376
 31
0.0
  0
LINE
  5
F6
100
AcDbEntity
  8
0
  6
CONTINUOUS
 62
               7
100
AcDbLine
 10
44.439341917017146
 20
-32.060655627723236
 30
0.0
 11
46.560655071714564
 21
-29.939328167911071
 31
0.0
  0
LINE
  5
F7
100
AcDbEntity
  8
0
  6
CONTINUOUS
 62
               7
100
AcDbLine
 10
46.560657806999643
 20
-32.06067114700727
 30
0.0
 11
44.439339645512064
 21
-29.939348515171332
 31
0.0
  0
LINE
  5
F8
100
AcDbEntity
  8
0
  6
CONTINUOUS
 62
               2
100
AcDbLine
 10
49.383323669433594
 20
-45.500015258789063
 30
0.0
 11
54.616661071777344
 21
-45.500015258789063
 31
0.0
  0
LINE
  5
F9
100
AcDbEntity
  8
0
  6
CONTINUOUS
 62
               7
100
AcDbLine
 10
50.073207855224609
 20
-45.800018310546875
 30
0.0
 11
53.926773071289062
 21
-45.800018310546875
 31
0.0
  0
LINE
  5
FA
100
AcDbEntity
  8
0
  6
CONTINUOUS
 62
               7
100
AcDbLine
 10
50.073207855224609
 20
-45.20001220703125
 30
0.0
 11
53.926773071289062
 21
-45.20001220703125
 31
0.0
  0
LINE
  5
FB
100
AcDbEntity
  8
0
  6
CONTINUOUS
 62
               7
100
AcDbLine
 10
42.999992370605469
 20
-46.500015258789063
 30
0.0
 11
45.999992370605469
 21
-46.500015258789063
 31
0.0
  0
LINE
  5
FC
100
AcDbEntity
  8
0
  6
CONTINUOUS
 62
               7
100
AcDbLine
 10
42.999992370605469
 20
-40.500015258789063
 30
0.0
 11
45.999992370605469
 21
-40.500015258789063
 31
0.0
  0
LINE
  5
FD
100
AcDbEntity
  8
0
  6
CONTINUOUS
 62
               7
100
AcDbLine
 10
45.499984741210938
 20
-49.500015258789063
 30
0.0
 11
45.499984741210938
 21
-46.500015258789063
 31
0.0
  0
LINE
  5
FE
100
AcDbEntity
  8
0
  6
CONTINUOUS
 62
               7
100
AcDbLine
 10
58.499984741210938
 20
-49.500015258789063
 30
0.0
 11
58.499984741210938
 21
-46.500015258789063
 31
0.0
  0
LINE
  5
FF
100
AcDbEntity
  8
0
  6
CONTINUOUS
 62
               7
100
AcDbLine
 10
57.999992370605469
 20
-46.500015258789063
 30
0.0
 11
60.999992370605469
 21
-46.500015258789063
 31
0.0
  0
LINE
  5
100
100
AcDbEntity
  8
0
  6
CONTINUOUS
 62
               7
100
AcDbLine
 10
57.999992370605469
 20
-40.500015258789063
 30
0.0
 11
60.999992370605469
 21
-40.500015258789063
 31
0.0
  0
LINE
  5
101
100
AcDbEntity
  8
0
  6
CONTINUOUS
 62
               7
100
AcDbLine
 10
58.499984741210938
 20
-40.500015258789063
 30
0.0
 11
58.499984741210938
 21
-37.500015258789063
 31
0.0
  0
LINE
  5
102
100
AcDbEntity
  8
0
  6
CONTINUOUS
 62
               7
100
AcDbLine
 10
45.499984741210938
 20
-40.500015258789063
 30
0.0
 11
45.499984741210938
 21
-37.500015258789063
 31
0.0
  0
LINE
  5
103
100
AcDbEntity
  8
0
  6
CONTINUOUS
 62
               7
100
AcDbLine
 10
54.499984741210938
 20
35.699996948242187
 30
0.0
 11
55.499984741210938
 21
35.699996948242187
 31
0.0
  0
LINE
  5
104
100
AcDbEntity
  8
0
  6
CONTINUOUS
 62
               7
100
AcDbLine
 10
51.999984741210937
 20
32.199996948242188
 30
0.0
 11
51.999984741210937
 21
33.199996948242187
 31
0.0
  0
LINE
  5
105
100
AcDbEntity
  8
0
  6
CONTINUOUS
 62
               7
100
AcDbLine
 10
51.999978189478384
 20
32.699982077578056
 30
0.0
 11
52.999977478883011
 21
32.432033135011807
 31
0.0
  0
LINE
  5
106
100
AcDbEntity
  8
0
  6
CONTINUOUS
 62
               7
100
AcDbLine
 10
44.999985694885254
 20
27.999984741210937
 30
0.0
 11
58.999981880187988
 21
27.999984741210937
 31
0.0
  0
LINE
  5
107
100
AcDbEntity
  8
0
  6
CONTINUOUS
 62
               7
100
AcDbLine
 10
60.99994309901922
 20
25.499993083769368
 30
0.0
 11
58.999998318905455
 21
27.999987079076163
 31
0.0
  0
LINE
  5
108
100
AcDbEntity
  8
0
  6
CONTINUOUS
 62
               7
100
AcDbLine
 10
43.000038358181882
 20
25.499976784274622
 30
0.0
 11
44.999991906933246
 21
27.999983076464559
 31
0.0
  0
LINE
  5
109
100
AcDbEntity
  8
0
  6
CONTINUOUS
 62
               4
100
AcDbLine
 10
46.999984741210937
 20
38.999984741210938
 30
0.0
 11
46.999984741210937
 21
62.999984741210938
 31
0.0
  0
LINE
  5
10A
100
AcDbEntity
  8
0
  6
CONTINUOUS
 62
               4
100
AcDbLine
 10
56.999984741210937
 20
38.999984741210938
 30
0.0
 11
56.999984741210937
 21
62.999984741210938
 31
0.0
  0
LINE
  5
10B
100
AcDbEntity
  8
0
  6
CONTINUOUS
 62
               7
100
AcDbLine
 10
60.999984741210937
 20
10.566024780273438
 30
0.0
 11
60.999984741210937
 21
25.499984741210937
 31
0.0
  0
LINE
  5
10C
100
AcDbEntity
  8
0
  6
CONTINUOUS
 62
               7
100
AcDbLine
 10
60.999984741210937
 20
-31.739028930664063
 30
0.0
 11
60.999984741210937
 21
7.4339447021484375
 31
0.0
  0
LINE
  5
10D
100
AcDbEntity
  8
0
  6
CONTINUOUS
 62
               7
100
AcDbLine
 10
42.999984741210937
 20
12.260955810546875
 30
0.0
 11
42.999984741210937
 21
25.499984741210937
 31
0.0
  0
LINE
  5
10E
100
AcDbEntity
  8
0
  6
CONTINUOUS
 62
               7
100
AcDbLine
 10
42.999984741210937
 20
-29.4339599609375
 30
0.0
 11
42.999984741210937
 21
9.739044189453125
 31
0.0
  0
LINE
  5
10F
100
AcDbEntity
  8
0
  6
CONTINUOUS
 62
               7
100
AcDbLine
 10
42.999984741210937
 20
-60.0
 30
0.0
 11
42.999984741210937
 21
-32.566009521484375
 31
0.0
  0
LINE
  5
110
100
AcDbEntity
  8
0
  6
CONTINUOUS
 62
               7
100
AcDbLine
 10
58.499984741210938
 20
11.999984741210938
 30
0.0
 11
60.999984741210937
 21
11.999984741210938
 31
0.0
  0
LINE
  5
111
100
AcDbEntity
  8
0
  6
CONTINUOUS
 62
               7
100
AcDbLine
 10
58.499984741210938
 20
5.9999847412109375
 30
0.0
 11
60.999984741210937
 21
5.9999847412109375
 31
0.0
  0
LINE
  5
112
100
AcDbEntity
  8
0
  6
CONTINUOUS
 62
               7
100
AcDbLine
 10
49.49998664855957
 20
-45.500015258789063
 30
0.0
 11
48.49998664855957
 21
-45.500015258789063
 31
0.0
  0
LINE
  5
113
100
AcDbEntity
  8
0
  6
CONTINUOUS
 62
               7
100
AcDbLine
 10
51.999992046675459
 20
-42.500000550260836
 30
0.0
 11
50.999992818978058
 21
-42.232051422572908
 31
0.0
  0
LINE
  5
114
100
AcDbEntity
  8
0
  6
CONTINUOUS
 62
               7
100
AcDbLine
 10
51.999993291679857
 20
-42.000015258789063
 30
0.0
 11
51.999993291679857
 21
-43.000015258789063
 31
0.0
  0
CIRCLE
  5
115
100
AcDbEntity
  8
0
  6
CONTINUOUS
 62
               7
100
AcDbCircle
 10
51.999984741210937
 20
35.699996948242187
 30
0.0
 40
2.0
  0
CIRCLE
  5
116
100
AcDbEntity
  8
0
  6
CONTINUOUS
 62
               7
100
AcDbCircle
 10
51.999984741210937
 20
35.699996948242187
 30
0.0
 40
1.9499998092651367
  0
ARC
  5
117
100
AcDbEntity
  8
0
  6
CONTINUOUS
 62
               4
100
AcDbCircle
 10
56.449981689453125
 20
71.499984741210938
 30
0.0
 40
0.5
100
AcDbArc
 50
359.99994535848583
 51
89.999982013910454
  0
ARC
  5
118
100
AcDbEntity
  8
0
  6
CONTINUOUS
 62
               4
100
AcDbCircle
 10
47.54998779296875
 20
71.499984741210938
 30
0.0
 40
0.5
100
AcDbArc
 50
89.999982013910454
 51
179.99996402782091
  0
CIRCLE
  5
119
100
AcDbEntity
  8
0
  6
CONTINUOUS
 62
               7
100
AcDbCircle
 10
45.499984741210938
 20
11.0
 30
0.0
 40
2.75
  0
ARC
  5
11A
100
AcDbEntity
  8
0
  6
CONTINUOUS
 62
               7
100
AcDbCircle
 10
58.499984741210938
 20
9.0
 30
0.0
 40
3.0
100
AcDbArc
 50
89.999982013910454
 51
269.99994604173139
  0
ARC
  5
11B
100
AcDbEntity
  8
0
  6
CONTINUOUS
 62
               7
100
AcDbCircle
 10
45.499984741210938
 20
-31.0
 30
0.0
 40
3.0
100
AcDbArc
 50
269.99996334457541
 51
89.999982013910454
  0
ARC
  5
11C
100
AcDbEntity
  8
0
  6
CONTINUOUS
 62
               7
100
AcDbCircle
 10
45.499984741210938
 20
11.0
 30
0.0
 40
3.0
100
AcDbArc
 50
270.00001798608872
 51
0.00001366037834
  0
ARC
  5
11D
100
AcDbEntity
  8
0
  6
CONTINUOUS
 62
               7
100
AcDbCircle
 10
58.499984741210938
 20
-33.0
 30
0.0
 40
3.0
100
AcDbArc
 50
89.999982013910454
 51
179.99996402782091
  0
CIRCLE
  5
11E
100
AcDbEntity
  8
0
  6
CONTINUOUS
 62
               7
100
AcDbCircle
 10
58.5
 20
9.0
 30
0.0
 40
2.75
  0
ARC
  5
11F
100
AcDbEntity
  8
0
  6
CONTINUOUS
 62
               7
100
AcDbCircle
 10
43.499984741210938
 20
-60.0
 30
0.0
 40
0.5
100
AcDbArc
 50
180.0000359721783
 51
269.99996334457541
  0
ARC
  5
120
100
AcDbEntity
  8
0
  6
CONTINUOUS
 62
               7
100
AcDbCircle
 10
60.499984741210937
 20
-60.000015258789063
 30
0.0
 40
0.5
100
AcDbArc
 50
270.00001798608872
 51
0.00001366037834
  0
CIRCLE
  5
121
100
AcDbEntity
  8
0
  6
CONTINUOUS
 62
               7
100
AcDbCircle
 10
58.499984741210938
 20
-33.0
 30
0.0
 40
2.75
  0
CIRCLE
  5
122
100
AcDbEntity
  8
0
  6
CONTINUOUS
 62
               7
100
AcDbCircle
 10
45.5
 20
-31.0
 30
0.0
 40
2.75
  0
CIRCLE
  5
123
100
AcDbEntity
  8
0
  6
CONTINUOUS
 62
               7
100
AcDbCircle
 10
51.999992370605469
 20
-45.500015258789063
 30
0.0
 40
2.0
  0
CIRCLE
  5
124
100
AcDbEntity
  8
0
  6
CONTINUOUS
 62
               7
100
AcDbCircle
 10
51.999992370605469
 20
-45.500015258789063
 30
0.0
 40
1.9499998092651367
  0
ARC
  5
125
100
AcDbEntity
  8
0
  6
CONTINUOUS
 62
               7
100
AcDbCircle
 10
52.099984705448151
 20
35.699996948242187
 30
0.0
 40
3.0
100
AcDbArc
 50
268.089805320533
 51
0.0
  0
ARC
  5
126
100
AcDbEntity
  8
0
  6
CONTINUOUS
 62
               7
100
AcDbCircle
 10
51.999984741210937
 20
35.699996948242187
 30
0.0
 40
3.0
100
AcDbArc
 50
266.17746163595609
 51
3.822566595416411
  0
ARC
  5
127
100
AcDbEntity
  8
0
  6
CONTINUOUS
 62
               7
100
AcDbCircle
 10
51.899984776973724
 20
35.699996948242187
 30
0.0
 40
3.0
100
AcDbArc
 50
271.91023065164455
 51
0.0
  0
ARC
  5
128
100
AcDbEntity
  8
0
  6
CONTINUOUS
 62
               7
100
AcDbCircle
 10
58.000030517578125
 20
28.500045776367188
 30
0.0
 40
2.5000734329223633
100
AcDbArc
 50
191.53802865027069
 51
319.45890333229545
  0
CIRCLE
  5
129
100
AcDbEntity
  8
0
  6
CONTINUOUS
 62
               7
100
AcDbCircle
 10
58.499984741210938
 20
8.9999847412109375
 30
0.0
 40
2.9499998092651367
  0
CIRCLE
  5
12A
100
AcDbEntity
  8
0
  6
CONTINUOUS
 62
               7
100
AcDbCircle
 10
45.5
 20
-30.999984741210938
 30
0.0
 40
2.9499998092651367
  0
ARC
  5
12B
100
AcDbEntity
  8
0
  6
CONTINUOUS
 62
               7
100
AcDbCircle
 10
51.899986267089844
 20
-45.500015258789063
 30
0.0
 40
3.0
100
AcDbArc
 50
88.08976934835465
 51
179.99996402782091
  0
ARC
  5
12C
100
AcDbEntity
  8
0
  6
CONTINUOUS
 62
               7
100
AcDbCircle
 10
51.999986240174621
 20
-45.500015258789063
 30
0.0
 40
3.0
100
AcDbArc
 50
86.177425663777811
 51
183.82257501946691
  0
ARC
  5
12D
100
AcDbEntity
  8
0
  6
CONTINUOUS
 62
               7
100
AcDbCircle
 10
52.09998619556427
 20
-45.500015258789063
 30
0.0
 40
3.0
100
AcDbArc
 50
91.910194679466258
 51
179.99996402782091
  0
LINE
  5
12E
100
AcDbEntity
  8
0
  6
CONTINUOUS
 62
             200
100
AcDbLine
 10
47.999987348672221
 20
85.41054331918167
 30
0.0
 11
55.999989033338352
 21
87.554137328002071
 31
0.0
  0
LINE
  5
12F
100
AcDbEntity
  8
0
  6
CONTINUOUS
 62
             200
100
AcDbLine
 10
47.999982655490385
 20
86.445818228678036
 30
0.0
 11
55.999984340156516
 21
88.589412237498436
 31
0.0
  0
ARC
  5
130
100
AcDbEntity
  8
0
  6
CONTINUOUS
 62
               4
100
AcDbCircle
 10
43.899984741210915
 20
-79.300022888183605
 30
0.0
 40
0.3
100
AcDbArc
 50
180.0000000000002
 51
270.00000000000023
  0
ARC
  5
131
100
AcDbEntity
  8
0
  6
CONTINUOUS
 62
               4
100
AcDbCircle
 10
58.499984741210938
 20
-77.900022888183599
 30
0.0
 40
0.5
100
AcDbArc
 50
180.0000000000002
 51
270.00000000000023
  0
ARC
  5
132
100
AcDbEntity
  8
0
  6
CONTINUOUS
 62
               4
100
AcDbCircle
 10
60.099984741210932
 20
-79.300022888183605
 30
0.0
 40
0.3
100
AcDbArc
 50
269.99999999999937
 51
0.0000000000002036
  0
ARC
  5
133
100
AcDbEntity
  8
0
  6
CONTINUOUS
 62
               4
100
AcDbCircle
 10
45.499984741210938
 20
-77.900022888183599
 30
0.0
 40
0.5
100
AcDbArc
 50
269.99999999999937
 51
0.0000000000002036
  0
LINE
  5
134
100
AcDbEntity
  8
0
  6
CONTINUOUS
 62
               4
100
AcDbLine
 10
43.599984741210932
 20
-79.300703888183591
 30
0.0
 11
43.599984741210932
 21
-78.400022888183599
 31
0.0
  0
LINE
  5
135
100
AcDbEntity
  8
0
  6
CONTINUOUS
 62
               4
100
AcDbLine
 10
60.099984741210932
 20
-79.600022888183588
 30
0.0
 11
43.899984741210915
 21
-79.600022888183588
 31
0.0
  0
LINE
  5
136
100
AcDbEntity
  8
0
  6
CONTINUOUS
 62
               4
100
AcDbLine
 10
43.599984741210932
 20
-78.400022888183599
 30
0.0
 11
60.399984741210943
 21
-78.400022888183599
 31
0.0
  0
LINE
  5
137
100
AcDbEntity
  8
0
  6
CONTINUOUS
 62
               4
100
AcDbLine
 10
60.399984741210943
 20
-79.300703888183591
 30
0.0
 11
60.399984741210943
 21
-78.400022888183599
 31
0.0
  0
LINE
  5
138
100
AcDbEntity
  8
0
  6
CONTINUOUS
 62
               4
100
AcDbLine
 10
57.999984741210938
 20
-77.900022888183599
 30
0.0
 11
57.999984741210938
 21
-77.500022888183594
 31
0.0
  0
LINE
  5
139
100
AcDbEntity
  8
0
  6
CONTINUOUS
 62
               4
100
AcDbLine
 10
44.899984741210915
 20
-77.400022888183599
 30
0.0
 11
44.899984741210915
 21
-76.400021888183602
 31
0.0
  0
LINE
  5
13A
100
AcDbEntity
  8
0
  6
CONTINUOUS
 62
               4
100
AcDbLine
 10
44.999984741210937
 20
-77.500022888183594
 30
0.0
 11
44.899984741210915
 21
-77.400022888183599
 31
0.0
  0
LINE
  5
13B
100
AcDbEntity
  8
0
  6
CONTINUOUS
 62
               4
100
AcDbLine
 10
58.999984741210938
 20
-77.500022888183594
 30
0.0
 11
59.099984741210932
 21
-77.400022888183599
 31
0.0
  0
LINE
  5
13C
100
AcDbEntity
  8
0
  6
CONTINUOUS
 62
               4
100
AcDbLine
 10
58.999984741210938
 20
-77.500022888183594
 30
0.0
 11
44.999984741210937
 21
-77.500022888183594
 31
0.0
  0
LINE
  5
13D
100
AcDbEntity
  8
0
  6
CONTINUOUS
 62
               4
100
AcDbLine
 10
59.099984741210932
 20
-77.400022888183599
 30
0.0
 11
59.099984741210932
 21
-76.400021888183602
 31
0.0
  0
LINE
  5
13E
100
AcDbEntity
  8
0
  6
CONTINUOUS
 62
               4
100
AcDbLine
 10
43.099984741210932
 20
-71.900022888183599
 30
0.0
 11
60.899984741210943
 21
-71.900022888183599
 31
0.0
  0
LINE
  5
13F
100
AcDbEntity
  8
0
  6
CONTINUOUS
 62
               4
100
AcDbLine
 10
59.899984741210943
 20
-76.400021888183602
 30
0.0
 11
44.099985541210913
 21
-76.400021888183602
 31
0.0
  0
LINE
  5
140
100
AcDbEntity
  8
0
  6
CONTINUOUS
 62
               4
100
AcDbLine
 10
60.799984741210949
 20
-72.800022888183605
 30
0.0
 11
60.999984741210937
 21
-73.000022888183594
 31
0.0
  0
LINE
  5
141
100
AcDbEntity
  8
0
  6
CONTINUOUS
 62
               4
100
AcDbLine
 10
60.999984741210937
 20
-75.364935888183595
 30
0.0
 11
60.24639434121093
 21
-75.800021888183608
 31
0.0
  0
LINE
  5
142
100
AcDbEntity
  8
0
  6
CONTINUOUS
 62
               4
100
AcDbLine
 10
42.999984741210937
 20
-75.364935888183595
 30
0.0
 11
43.753575141210945
 21
-75.800021888183608
 31
0.0
  0
LINE
  5
143
100
AcDbEntity
  8
0
  6
CONTINUOUS
 62
               4
100
AcDbLine
 10
43.753575141210945
 20
-75.800021888183608
 30
0.0
 11
44.099985541210913
 21
-76.400021888183602
 31
0.0
  0
LINE
  5
144
100
AcDbEntity
  8
0
  6
CONTINUOUS
 62
               4
100
AcDbLine
 10
60.24639434121093
 20
-75.800021888183608
 30
0.0
 11
59.899983941210934
 21
-76.400021888183602
 31
0.0
  0
LINE
  5
145
100
AcDbEntity
  8
0
  6
CONTINUOUS
 62
               4
100
AcDbLine
 10
43.199984741210926
 20
-72.800022888183605
 30
0.0
 11
60.799984741210949
 21
-72.800022888183605
 31
0.0
  0
LINE
  5
146
100
AcDbEntity
  8
0
  6
CONTINUOUS
 62
               4
100
AcDbLine
 10
42.999984741210937
 20
-75.364936888183593
 30
0.0
 11
42.999984741210937
 21
-73.000022888183594
 31
0.0
  0
LINE
  5
147
100
AcDbEntity
  8
0
  6
CONTINUOUS
 62
               4
100
AcDbLine
 10
43.199984741210926
 20
-72.800022888183605
 30
0.0
 11
42.999984741210937
 21
-73.000022888183594
 31
0.0
  0
LINE
  5
148
100
AcDbEntity
  8
0
  6
CONTINUOUS
 62
               4
100
AcDbLine
 10
60.999984741210937
 20
-75.364936888183593
 30
0.0
 11
60.999984741210937
 21
-73.000022888183594
 31
0.0
  0
LINE
  5
149
100
AcDbEntity
  8
0
  6
CONTINUOUS
 62
               4
100
AcDbLine
 10
43.199984741210926
 20
-66.900022288183607
 30
0.0
 11
42.999984741210937
 21
-67.100022488183583
 31
0.0
  0
LINE
  5
14A
100
AcDbEntity
  8
0
  6
CONTINUOUS
 62
               4
100
AcDbLine
 10
60.799984741210949
 20
-66.900022488183595
 30
0.0
 11
43.199984741210926
 21
-66.900022488183595
 31
0.0
  0
LINE
  5
14B
100
AcDbEntity
  8
0
  6
CONTINUOUS
 62
               4
100
AcDbLine
 10
42.999984741210937
 20
-71.800022888183605
 30
0.0
 11
42.999984741210937
 21
-67.100022488183583
 31
0.0
  0
LINE
  5
14C
100
AcDbEntity
  8
0
  6
CONTINUOUS
 62
               4
100
AcDbLine
 10
60.999984741210937
 20
-71.800022888183605
 30
0.0
 11
60.999984741210937
 21
-67.100022488183583
 31
0.0
  0
LINE
  5
14D
100
AcDbEntity
  8
0
  6
CONTINUOUS
 62
               4
100
AcDbLine
 10
60.799984741210949
 20
-66.900022288183607
 30
0.0
 11
60.999984741210937
 21
-67.100022488183583
 31
0.0
  0
LINE
  5
14E
100
AcDbEntity
  8
0
  6
CONTINUOUS
 62
               4
100
AcDbLine
 10
42.999984741210937
 20
-71.800022888183605
 30
0.0
 11
43.099984741210932
 21
-71.900022888183599
 31
0.0
  0
LINE
  5
14F
100
AcDbEntity
  8
0
  6
CONTINUOUS
 62
               4
100
AcDbLine
 10
60.999984741210937
 20
-71.800022888183605
 30
0.0
 11
60.899984741210943
 21
-71.900022888183599
 31
0.0
  0
LINE
  5
150
100
AcDbEntity
  8
0
  6
CONTINUOUS
 62
               4
100
AcDbLine
 10
60.799984741210949
 20
-66.900022888183599
 30
0.0
 11
60.999984741210937
 21
-66.700022688183594
 31
0.0
  0
LINE
  5
151
100
AcDbEntity
  8
0
  6
CONTINUOUS
 62
               4
100
AcDbLine
 10
43.699984741210926
 20
-72.800022888183605
 30
0.0
 11
43.699984741210926
 21
-71.900022888183599
 31
0.0
  0
LINE
  5
152
100
AcDbEntity
  8
0
  6
CONTINUOUS
 62
               4
100
AcDbLine
 10
60.299984741210949
 20
-72.800022888183605
 30
0.0
 11
60.299984741210949
 21
-71.900022888183599
 31
0.0
  0
LINE
  5
153
100
AcDbEntity
  8
0
  6
CONTINUOUS
 62
               4
100
AcDbLine
 10
43.199984741210926
 20
-66.900022888183599
 30
0.0
 11
42.999984741210937
 21
-66.700022688183594
 31
0.0
  0
LINE
  5
154
100
AcDbEntity
  8
0
  6
CONTINUOUS
 62
               4
100
AcDbLine
 10
60.999984741210937
 20
-67.100022488183583
 30
0.0
 11
42.999984741210937
 21
-67.100022488183583
 31
0.0
  0
LINE
  5
155
100
AcDbEntity
  8
0
  6
CONTINUOUS
 62
               4
100
AcDbLine
 10
45.999984741210938
 20
-77.900022888183599
 30
0.0
 11
45.999984741210938
 21
-77.500022888183594
 31
0.0
  0
LINE
  5
156
100
AcDbEntity
  8
0
  6
CONTINUOUS
 62
               4
100
AcDbLine
 10
59.099984741210932
 20
-77.400022888183599
 30
0.0
 11
44.899984741210915
 21
-77.400022888183599
 31
0.0
  0
LINE
  5
157
100
AcDbEntity
  8
0
  6
CONTINUOUS
 62
               4
100
AcDbLine
 10
60.24639434121093
 20
-75.800021888183608
 30
0.0
 11
43.753575141210945
 21
-75.800021888183608
 31
0.0
  0
LINE
  5
158
100
AcDbEntity
  8
0
  6
CONTINUOUS
 62
               4
100
AcDbLine
 10
60.999984741210937
 20
-75.364935888183595
 30
0.0
 11
42.999984741210937
 21
-75.364935888183595
 31
0.0
  0
LINE
  5
159
100
AcDbEntity
  8
0
  6
CONTINUOUS
 62
               4
100
AcDbLine
 10
60.999984741210937
 20
-73.000022888183594
 30
0.0
 11
42.999984741210937
 21
-73.000022888183594
 31
0.0
  0
LINE
  5
15A
100
AcDbEntity
  8
0
  6
CONTINUOUS
 62
               4
100
AcDbLine
 10
60.999984741210937
 20
-71.800022888183605
 30
0.0
 11
42.999984741210937
 21
-71.800022888183605
 31
0.0
  0
LINE
  5
15B
100
AcDbEntity
  8
0
  6
CONTINUOUS
 62
               4
100
AcDbLine
 10
42.999984741210937
 20
-66.700022688183594
 30
0.0
 11
60.999984741210937
 21
-66.700022688183594
 31
0.0
  0
LINE
  5
15C
100
AcDbEntity
  8
0
  6
CONTINUOUS
 62
               4
100
AcDbLine
 10
42.999984741210937
 20
-66.700022888183582
 30
0.0
 11
42.999984741210937
 21
-60.000007629394531
 31
0.0
  0
LINE
  5
15D
100
AcDbEntity
  8
0
  6
CONTINUOUS
 62
               4
100
AcDbLine
 10
60.999984741210937
 20
-66.700022688183594
 30
0.0
 11
60.999984741210937
 21
-60.000015258789063
 31
0.0
  0
ARC
  5
15E
100
AcDbEntity
  8
0
  6
CONTINUOUS
 62
               4
100
AcDbCircle
 10
24.899984741210929
 20
-79.300022888183605
 30
0.0
 40
0.3
100
AcDbArc
 50
180.0000000000002
 51
270.00000000000023
  0
ARC
  5
15F
100
AcDbEntity
  8
0
  6
CONTINUOUS
 62
               4
100
AcDbCircle
 10
39.499984741210938
 20
-77.900022888183599
 30
0.0
 40
0.5
100
AcDbArc
 50
180.0000000000002
 51
270.00000000000023
  0
ARC
  5
160
100
AcDbEntity
  8
0
  6
CONTINUOUS
 62
               4
100
AcDbCircle
 10
41.099984741210932
 20
-79.300022888183605
 30
0.0
 40
0.3
100
AcDbArc
 50
269.99999999999937
 51
0.0000000000002036
  0
ARC
  5
161
100
AcDbEntity
  8
0
  6
CONTINUOUS
 62
               4
100
AcDbCircle
 10
26.499984741210938
 20
-77.900022888183599
 30
0.0
 40
0.5
100
AcDbArc
 50
269.99999999999937
 51
0.0000000000002036
  0
LINE
  5
162
100
AcDbEntity
  8
0
  6
CONTINUOUS
 62
               4
100
AcDbLine
 10
24.599984741210932
 20
-79.300703888183591
 30
0.0
 11
24.599984741210932
 21
-78.400022888183599
 31
0.0
  0
LINE
  5
163
100
AcDbEntity
  8
0
  6
CONTINUOUS
 62
               4
100
AcDbLine
 10
41.099984741210932
 20
-79.600022888183588
 30
0.0
 11
24.899984741210929
 21
-79.600022888183588
 31
0.0
  0
LINE
  5
164
100
AcDbEntity
  8
0
  6
CONTINUOUS
 62
               4
100
AcDbLine
 10
24.599984741210932
 20
-78.400022888183599
 30
0.0
 11
41.399984741210943
 21
-78.400022888183599
 31
0.0
  0
LINE
  5
165
100
AcDbEntity
  8
0
  6
CONTINUOUS
 62
               4
100
AcDbLine
 10
41.399984741210943
 20
-79.300703888183591
 30
0.0
 11
41.399984741210943
 21
-78.400022888183599
 31
0.0
  0
LINE
  5
166
100
AcDbEntity
  8
0
  6
CONTINUOUS
 62
               4
100
AcDbLine
 10
38.999984741210938
 20
-77.900022888183599
 30
0.0
 11
38.999984741210938
 21
-77.500022888183594
 31
0.0
  0
LINE
  5
167
100
AcDbEntity
  8
0
  6
CONTINUOUS
 62
               4
100
AcDbLine
 10
25.899984741210929
 20
-77.400022888183599
 30
0.0
 11
25.899984741210929
 21
-76.400021888183602
 31
0.0
  0
LINE
  5
168
100
AcDbEntity
  8
0
  6
CONTINUOUS
 62
               4
100
AcDbLine
 10
25.999984741210937
 20
-77.500022888183594
 30
0.0
 11
25.899984741210929
 21
-77.400022888183599
 31
0.0
  0
LINE
  5
169
100
AcDbEntity
  8
0
  6
CONTINUOUS
 62
               4
100
AcDbLine
 10
39.999984741210937
 20
-77.500022888183594
 30
0.0
 11
40.099984741210932
 21
-77.400022888183599
 31
0.0
  0
LINE
  5
16A
100
AcDbEntity
  8
0
  6
CONTINUOUS
 62
               4
100
AcDbLine
 10
39.999984741210937
 20
-77.500022888183594
 30
0.0
 11
25.999984741210937
 21
-77.500022888183594
 31
0.0
  0
LINE
  5
16B
100
AcDbEntity
  8
0
  6
CONTINUOUS
 62
               4
100
AcDbLine
 10
40.099984741210932
 20
-77.400022888183599
 30
0.0
 11
40.099984741210932
 21
-76.400021888183602
 31
0.0
  0
LINE
  5
16C
100
AcDbEntity
  8
0
  6
CONTINUOUS
 62
               4
100
AcDbLine
 10
24.099984741210932
 20
-71.900022888183599
 30
0.0
 11
41.899984741210943
 21
-71.900022888183599
 31
0.0
  0
LINE
  5
16D
100
AcDbEntity
  8
0
  6
CONTINUOUS
 62
               4
100
AcDbLine
 10
40.899984741210943
 20
-76.400021888183602
 30
0.0
 11
25.099985541210927
 21
-76.400021888183602
 31
0.0
  0
LINE
  5
16E
100
AcDbEntity
  8
0
  6
CONTINUOUS
 62
               4
100
AcDbLine
 10
41.799984741210935
 20
-72.800022888183605
 30
0.0
 11
41.999984741210938
 21
-73.000022888183594
 31
0.0
  0
LINE
  5
16F
100
AcDbEntity
  8
0
  6
CONTINUOUS
 62
               4
100
AcDbLine
 10
41.999984741210938
 20
-75.364935888183595
 30
0.0
 11
41.246394341210944
 21
-75.800021888183608
 31
0.0
  0
LINE
  5
170
100
AcDbEntity
  8
0
  6
CONTINUOUS
 62
               4
100
AcDbLine
 10
23.999984741210937
 20
-75.364935888183595
 30
0.0
 11
24.753575141210931
 21
-75.800021888183608
 31
0.0
  0
LINE
  5
171
100
AcDbEntity
  8
0
  6
CONTINUOUS
 62
               4
100
AcDbLine
 10
24.753575141210931
 20
-75.800021888183608
 30
0.0
 11
25.099985541210927
 21
-76.400021888183602
 31
0.0
  0
LINE
  5
172
100
AcDbEntity
  8
0
  6
CONTINUOUS
 62
               4
100
AcDbLine
 10
41.246394341210944
 20
-75.800021888183608
 30
0.0
 11
40.899983941210934
 21
-76.400021888183602
 31
0.0
  0
LINE
  5
173
100
AcDbEntity
  8
0
  6
CONTINUOUS
 62
               4
100
AcDbLine
 10
24.199984741210926
 20
-72.800022888183605
 30
0.0
 11
41.799984741210935
 21
-72.800022888183605
 31
0.0
  0
LINE
  5
174
100
AcDbEntity
  8
0
  6
CONTINUOUS
 62
               4
100
AcDbLine
 10
23.999984741210937
 20
-75.364936888183593
 30
0.0
 11
23.999984741210937
 21
-73.000022888183594
 31
0.0
  0
LINE
  5
175
100
AcDbEntity
  8
0
  6
CONTINUOUS
 62
               4
100
AcDbLine
 10
24.199984741210926
 20
-72.800022888183605
 30
0.0
 11
23.999984741210937
 21
-73.000022888183594
 31
0.0
  0
LINE
  5
176
100
AcDbEntity
  8
0
  6
CONTINUOUS
 62
               4
100
AcDbLine
 10
41.999984741210938
 20
-75.364936888183593
 30
0.0
 11
41.999984741210938
 21
-73.000022888183594
 31
0.0
  0
LINE
  5
177
100
AcDbEntity
  8
0
  6
CONTINUOUS
 62
               4
100
AcDbLine
 10
24.199984741210926
 20
-66.900022288183607
 30
0.0
 11
23.999984741210937
 21
-67.100022488183583
 31
0.0
  0
LINE
  5
178
100
AcDbEntity
  8
0
  6
CONTINUOUS
 62
               4
100
AcDbLine
 10
41.799984741210935
 20
-66.900022488183595
 30
0.0
 11
24.199984741210926
 21
-66.900022488183595
 31
0.0
  0
LINE
  5
179
100
AcDbEntity
  8
0
  6
CONTINUOUS
 62
               4
100
AcDbLine
 10
23.999984741210937
 20
-71.800022888183605
 30
0.0
 11
23.999984741210937
 21
-67.100022488183583
 31
0.0
  0
LINE
  5
17A
100
AcDbEntity
  8
0
  6
CONTINUOUS
 62
               4
100
AcDbLine
 10
41.999984741210938
 20
-71.800022888183605
 30
0.0
 11
41.999984741210938
 21
-67.100022488183583
 31
0.0
  0
LINE
  5
17B
100
AcDbEntity
  8
0
  6
CONTINUOUS
 62
               4
100
AcDbLine
 10
41.799984741210935
 20
-66.900022288183607
 30
0.0
 11
41.999984741210938
 21
-67.100022488183583
 31
0.0
  0
LINE
  5
17C
100
AcDbEntity
  8
0
  6
CONTINUOUS
 62
               4
100
AcDbLine
 10
23.999984741210937
 20
-71.800022888183605
 30
0.0
 11
24.099984741210932
 21
-71.900022888183599
 31
0.0
  0
LINE
  5
17D
100
AcDbEntity
  8
0
  6
CONTINUOUS
 62
               4
100
AcDbLine
 10
41.999984741210938
 20
-71.800022888183605
 30
0.0
 11
41.899984741210943
 21
-71.900022888183599
 31
0.0
  0
LINE
  5
17E
100
AcDbEntity
  8
0
  6
CONTINUOUS
 62
               4
100
AcDbLine
 10
41.799984741210935
 20
-66.900022888183599
 30
0.0
 11
41.999984741210938
 21
-66.700022688183594
 31
0.0
  0
LINE
  5
17F
100
AcDbEntity
  8
0
  6
CONTINUOUS
 62
               4
100
AcDbLine
 10
24.699984741210926
 20
-72.800022888183605
 30
0.0
 11
24.699984741210926
 21
-71.900022888183599
 31
0.0
  0
LINE
  5
180
100
AcDbEntity
  8
0
  6
CONTINUOUS
 62
               4
100
AcDbLine
 10
41.299984741210935
 20
-72.800022888183605
 30
0.0
 11
41.299984741210935
 21
-71.900022888183599
 31
0.0
  0
LINE
  5
181
100
AcDbEntity
  8
0
  6
CONTINUOUS
 62
               4
100
AcDbLine
 10
24.199984741210926
 20
-66.900022888183599
 30
0.0
 11
23.999984741210937
 21
-66.700022688183594
 31
0.0
  0
LINE
  5
182
100
AcDbEntity
  8
0
  6
CONTINUOUS
 62
               4
100
AcDbLine
 10
41.999984741210938
 20
-67.100022488183583
 30
0.0
 11
23.999984741210937
 21
-67.100022488183583
 31
0.0
  0
LINE
  5
183
100
AcDbEntity
  8
0
  6
CONTINUOUS
 62
               4
100
AcDbLine
 10
26.999984741210938
 20
-77.900022888183599
 30
0.0
 11
26.999984741210938
 21
-77.500022888183594
 31
0.0
  0
LINE
  5
184
100
AcDbEntity
  8
0
  6
CONTINUOUS
 62
               4
100
AcDbLine
 10
40.099984741210932
 20
-77.400022888183599
 30
0.0
 11
25.899984741210929
 21
-77.400022888183599
 31
0.0
  0
LINE
  5
185
100
AcDbEntity
  8
0
  6
CONTINUOUS
 62
               4
100
AcDbLine
 10
41.246394341210944
 20
-75.800021888183608
 30
0.0
 11
24.753575141210931
 21
-75.800021888183608
 31
0.0
  0
LINE
  5
186
100
AcDbEntity
  8
0
  6
CONTINUOUS
 62
               4
100
AcDbLine
 10
41.999984741210938
 20
-75.364935888183595
 30
0.0
 11
23.999984741210937
 21
-75.364935888183595
 31
0.0
  0
LINE
  5
187
100
AcDbEntity
  8
0
  6
CONTINUOUS
 62
               4
100
AcDbLine
 10
41.999984741210938
 20
-73.000022888183594
 30
0.0
 11
23.999984741210937
 21
-73.000022888183594
 31
0.0
  0
LINE
  5
188
100
AcDbEntity
  8
0
  6
CONTINUOUS
 62
               4
100
AcDbLine
 10
41.999984741210938
 20
-71.800022888183605
 30
0.0
 11
23.999984741210937
 21
-71.800022888183605
 31
0.0
  0
LINE
  5
189
100
AcDbEntity
  8
0
  6
CONTINUOUS
 62
               4
100
AcDbLine
 10
23.999984741210937
 20
-66.700022688183594
 30
0.0
 11
41.999984741210938
 21
-66.700022688183594
 31
0.0
  0
LINE
  5
18A
100
AcDbEntity
  8
0
  6
CONTINUOUS
 62
               4
100
AcDbLine
 10
23.999984741210937
 20
-66.700022888183582
 30
0.0
 11
23.999984741210937
 21
-60.000007629394531
 31
0.0
  0
LINE
  5
18B
100
AcDbEntity
  8
0
  6
CONTINUOUS
 62
               4
100
AcDbLine
 10
41.999984741210938
 20
-66.700022688183594
 30
0.0
 11
41.999984741210938
 21
-60.000015258789063
 31
0.0
  0
LINE
  5
18C
100
AcDbEntity
  8
0
  6
CONTINUOUS
 62
               4
100
AcDbLine
 10
62.0
 20
-55.50330965878905
 30
0.0
 11
62.0
 21
-52.400007645289094
 31
0.0
  0
ARC
  5
18D
100
AcDbEntity
  8
0
  6
CONTINUOUS
 62
               4
100
AcDbCircle
 10
65.699999988079071
 20
-51.500007629394531
 30
0.0
 40
1.5
100
AcDbArc
 50
269.99998633962105
 51
0.0
  0
ARC
  5
18E
100
AcDbEntity
  8
0
  6
CONTINUOUS
 62
               4
100
AcDbCircle
 10
63.199999988079071
 20
-51.500007629394531
 30
0.0
 40
1.5
100
AcDbArc
 50
180.00001798608895
 51
269.99998633962105
  0
LINE
  5
18F
100
AcDbEntity
  8
0
  6
CONTINUOUS
 62
               4
100
AcDbLine
 10
67.5
 20
-53.214634258789062
 30
0.0
 11
67.5
 21
-51.000015258789063
 31
0.0
  0
SPLINE
  5
190
100
AcDbEntity
  8
0
  6
CONTINUOUS
 62
               4
100
AcDbSpline
210
0.0
220
0.0
230
1.0
 70
               0
 71
               3
 72
               0
 73
               0
 74
              41
 44
0.000001
 12
-0.9936236052884185
 22
-0.1127480865187748
 32
0.0
 13
0.7599872673059156
 23
-0.6499379612954507
 33
0.0
 11
77.5
 21
-52.905275258789061
 31
0.0
 11
77.316404991182637
 21
-52.928130897003562
 31
0.0
 11
77.133331319357538
 21
-52.954903047099172
 31
0.0
 11
76.950808936674264
 21
-52.985486993893588
 31
0.0
 11
76.768943176445305
 21
-53.0197661653024
 31
0.0
 11
76.55933737594134
 21
-53.064006610915222
 31
0.0
 11
76.350893121055904
 21
-53.113426717858026
 31
0.0
 11
76.143840508943953
 21
-53.168395608097264
 31
0.0
 11
75.938441986908629
 21
-53.229265920588716
 31
0.0
 11
75.764694049998042
 21
-53.286255336421306
 31
0.0
 11
75.592821473806438
 21
-53.348646166047061
 31
0.0
 11
75.423328250321191
 21
-53.417266282051848
 31
0.0
 11
75.256820751981422
 21
-53.492871723623949
 31
0.0
 11
75.115341476120946
 21
-53.564954388416965
 31
0.0
 11
74.977979920824566
 21
-53.644591971226298
 31
0.0
 11
74.846029145592652
 21
-53.73353246535418
 31
0.0
 11
74.721659739295575
 21
-53.832716242150283
 31
0.0
 11
74.653125707611736
 21
-53.896290735382692
 31
0.0
 11
74.589453927867822
 21
-53.964744566605297
 31
0.0
 11
74.532863048854267
 21
-54.038183678909355
 31
0.0
 11
74.485002130548395
 21
-54.117454351597928
 31
0.0
 11
74.450082170544093
 21
-54.196220929162884
 31
0.0
 11
74.424484319855338
 21
-54.278584474212828
 31
0.0
 11
74.40780168670382
 21
-54.363679420255345
 31
0.0
 11
74.400000000000006
 21
-54.450015258789065
 31
0.0
 11
74.404367017208372
 21
-54.581514823903639
 31
0.0
 11
74.426084964073368
 21
-54.711474894897414
 31
0.0
 11
74.462795291958059
 21
-54.838593607694293
 31
0.0
 11
74.511996617826185
 21
-54.961385242259055
 31
0.0
 11
74.569847186614822
 21
-55.076395116067118
 31
0.0
 11
74.636346474074827
 21
-55.186607940435067
 31
0.0
 11
74.710313537613317
 21
-55.291465304361189
 31
0.0
 11
74.790968704662703
 21
-55.391276654761214
 31
0.0
 11
74.875474390135764
 21
-55.484145344591411
 31
0.0
 11
74.964709561685751
 21
-55.572480826750756
 31
0.0
 11
75.058016012572836
 21
-55.656630057198228
 31
0.0
 11
75.154673841562754
 21
-55.736884183935359
 31
0.0
 11
75.238732522077939
 21
-55.802461595128648
 31
0.0
 11
75.323515774004946
 21
-55.867132331589069
 31
0.0
 11
75.407682980906927
 21
-55.932440775052726
 31
0.0
 11
75.490000000000009
 21
-56.000015258789063
 31
0.0
  0
SPLINE
  5
191
100
AcDbEntity
  8
0
  6
CONTINUOUS
 62
               4
100
AcDbSpline
210
0.0
220
0.0
230
1.0
 70
               0
 71
               3
 72
               0
 73
               0
 74
              37
 44
0.000001
 12
0.9881349170157096
 22
0.1535883647102109
 32
0.0
 13
0.2801395722747446
 23
0.9599592804102282
 33
0.0
 11
64.5
 21
-55.214634258789062
 31
0.0
 11
64.630239857734423
 21
-55.192766845728443
 31
0.0
 11
64.759917355823774
 21
-55.167734132247936
 31
0.0
 11
64.88896516602253
 21
-55.139536847894064
 31
0.0
 11
65.017277805232595
 21
-55.108181289159887
 31
0.0
 11
65.113941046020415
 21
-55.08233032129926
 31
0.0
 11
65.210106866670969
 21
-55.054689904579028
 31
0.0
 11
65.305743296018903
 21
-55.025283434832829
 31
0.0
 11
65.400827259321602
 21
-54.99413255191034
 31
0.0
 11
65.518053363665487
 21
-54.953052238565824
 31
0.0
 11
65.634297820893096
 21
-54.909268317914538
 31
0.0
 11
65.749473434850614
 21
-54.862729433667013
 31
0.0
 11
65.863476501407973
 21
-54.813390714188714
 31
0.0
 11
65.962624520774824
 21
-54.767671447932614
 31
0.0
 11
66.06069560632821
 21
-54.719686835634398
 31
0.0
 11
66.157582309301603
 21
-54.669377370992663
 31
0.0
 11
66.253188844326104
 21
-54.616677688154411
 31
0.0
 11
66.331968774777465
 21
-54.570789293091316
 31
0.0
 11
66.409694571619212
 21
-54.523139400422473
 31
0.0
 11
66.486284221429372
 21
-54.473672882260736
 31
0.0
 11
66.561640418867597
 21
-54.422345064695776
 31
0.0
 11
66.640896249164484
 21
-54.365227290967518
 31
0.0
 11
66.718462135782929
 21
-54.305834309167523
 31
0.0
 11
66.794161947774285
 21
-54.244089459021794
 31
0.0
 11
66.867815525272903
 21
-54.179919295913578
 31
0.0
 11
66.933445783207304
 21
-54.118838476440295
 31
0.0
 11
66.997026714421366
 21
-54.05562847622793
 31
0.0
 11
67.058395450086394
 21
-53.990256274956373
 31
0.0
 11
67.117367976960509
 21
-53.922713059194493
 31
0.0
 11
67.172861489249897
 21
-53.854109266726084
 31
0.0
 11
67.225550694168916
 21
-53.783329967426518
 31
0.0
 11
67.275119239846532
 21
-53.710325963076109
 31
0.0
 11
67.321226281708391
 21
-53.635090101116376
 31
0.0
 11
67.375452053566747
 21
-53.534244030466269
 31
0.0
 11
67.42330589670236
 21
-53.430188237888466
 31
0.0
 11
67.464805589275031
 21
-53.323509487346051
 31
0.0
 11
67.5
 21
-53.214634258789062
 31
0.0
  0
LINE
  5
192
100
AcDbEntity
  8
0
  6
CONTINUOUS
 62
               4
100
AcDbLine
 10
62.0
 20
-55.214634258789062
 30
0.0
 11
64.5
 21
-55.214634258789062
 31
0.0
  0
LINE
  5
193
100
AcDbEntity
  8
0
  6
CONTINUOUS
 62
               4
100
AcDbLine
 10
65.699999630451202
 20
-53.000007629394489
 30
0.0
 11
63.199999630451202
 21
-53.000007629394489
 31
0.0
  0
LINE
  5
194
100
AcDbEntity
  8
0
  6
CONTINUOUS
 62
               4
100
AcDbLine
 10
74.721160499999996
 20
-56.000015258789063
 30
0.0
 11
80.0
 21
-56.000015258789063
 31
0.0
  0
ARC
  5
195
100
AcDbEntity
  8
0
  6
CONTINUOUS
 62
               4
100
AcDbCircle
 10
71.0
 20
-69.690538391293046
 30
0.0
 40
14.187228732503996
100
AcDbArc
 50
74.794046190114202
 51
105.2059538098855
  0
LINE
  5
196
100
AcDbEntity
  8
0
  6
CONTINUOUS
 62
               4
100
AcDbLine
 10
62.0
 20
-56.000015258789063
 30
0.0
 11
67.278839500000004
 21
-56.000015258789063
 31
0.0
  0
ARC
  5
197
100
AcDbEntity
  8
0
  6
CONTINUOUS
 62
               4
100
AcDbCircle
 10
62.899999999999977
 20
-79.300015258789074
 30
0.0
 40
0.3
100
AcDbArc
 50
180.0000000000002
 51
270.00000000000023
  0
ARC
  5
198
100
AcDbEntity
  8
0
  6
CONTINUOUS
 62
               4
100
AcDbCircle
 10
77.5
 20
-77.900015258789068
 30
0.0
 40
0.5
100
AcDbArc
 50
180.0000000000002
 51
270.00000000000023
  0
ARC
  5
199
100
AcDbEntity
  8
0
  6
CONTINUOUS
 62
               4
100
AcDbCircle
 10
79.099999999999994
 20
-79.300015258789074
 30
0.0
 40
0.3
100
AcDbArc
 50
269.99999999999937
 51
0.0000000000002036
  0
ARC
  5
19A
100
AcDbEntity
  8
0
  6
CONTINUOUS
 62
               4
100
AcDbCircle
 10
64.5
 20
-77.900015258789068
 30
0.0
 40
0.5
100
AcDbArc
 50
269.99999999999937
 51
0.0000000000002036
  0
LINE
  5
19B
100
AcDbEntity
  8
0
  6
CONTINUOUS
 62
               4
100
AcDbLine
 10
62.599999999999994
 20
-79.30069625878906
 30
0.0
 11
62.599999999999994
 21
-78.400015258789068
 31
0.0
  0
LINE
  5
19C
100
AcDbEntity
  8
0
  6
CONTINUOUS
 62
               4
100
AcDbLine
 10
79.099999999999994
 20
-79.600015258789057
 30
0.0
 11
62.899999999999977
 21
-79.600015258789057
 31
0.0
  0
LINE
  5
19D
100
AcDbEntity
  8
0
  6
CONTINUOUS
 62
               4
100
AcDbLine
 10
62.599999999999994
 20
-78.400015258789068
 30
0.0
 11
79.400000000000006
 21
-78.400015258789068
 31
0.0
  0
LINE
  5
19E
100
AcDbEntity
  8
0
  6
CONTINUOUS
 62
               4
100
AcDbLine
 10
79.400000000000006
 20
-79.30069625878906
 30
0.0
 11
79.400000000000006
 21
-78.400015258789068
 31
0.0
  0
LINE
  5
19F
100
AcDbEntity
  8
0
  6
CONTINUOUS
 62
               4
100
AcDbLine
 10
77.0
 20
-77.900015258789068
 30
0.0
 11
77.0
 21
-77.500015258789063
 31
0.0
  0
LINE
  5
1A0
100
AcDbEntity
  8
0
  6
CONTINUOUS
 62
               4
100
AcDbLine
 10
63.899999999999977
 20
-77.400015258789068
 30
0.0
 11
63.899999999999977
 21
-76.400014258789071
 31
0.0
  0
LINE
  5
1A1
100
AcDbEntity
  8
0
  6
CONTINUOUS
 62
               4
100
AcDbLine
 10
64.0
 20
-77.500015258789063
 30
0.0
 11
63.899999999999977
 21
-77.400015258789068
 31
0.0
  0
LINE
  5
1A2
100
AcDbEntity
  8
0
  6
CONTINUOUS
 62
               4
100
AcDbLine
 10
78.0
 20
-77.500015258789063
 30
0.0
 11
78.099999999999994
 21
-77.400015258789068
 31
0.0
  0
LINE
  5
1A3
100
AcDbEntity
  8
0
  6
CONTINUOUS
 62
               4
100
AcDbLine
 10
78.0
 20
-77.500015258789063
 30
0.0
 11
64.0
 21
-77.500015258789063
 31
0.0
  0
LINE
  5
1A4
100
AcDbEntity
  8
0
  6
CONTINUOUS
 62
               4
100
AcDbLine
 10
78.099999999999994
 20
-77.400015258789068
 30
0.0
 11
78.099999999999994
 21
-76.400014258789071
 31
0.0
  0
LINE
  5
1A5
100
AcDbEntity
  8
0
  6
CONTINUOUS
 62
               4
100
AcDbLine
 10
62.099999999999994
 20
-71.900015258789068
 30
0.0
 11
79.900000000000006
 21
-71.900015258789068
 31
0.0
  0
LINE
  5
1A6
100
AcDbEntity
  8
0
  6
CONTINUOUS
 62
               4
100
AcDbLine
 10
78.900000000000006
 20
-76.400014258789071
 30
0.0
 11
63.100000799999975
 21
-76.400014258789071
 31
0.0
  0
LINE
  5
1A7
100
AcDbEntity
  8
0
  6
CONTINUOUS
 62
               4
100
AcDbLine
 10
79.800000000000011
 20
-72.800015258789074
 30
0.0
 11
80.0
 21
-73.000015258789063
 31
0.0
  0
LINE
  5
1A8
100
AcDbEntity
  8
0
  6
CONTINUOUS
 62
               4
100
AcDbLine
 10
80.0
 20
-75.364928258789064
 30
0.0
 11
79.246409599999993
 21
-75.800014258789076
 31
0.0
  0
LINE
  5
1A9
100
AcDbEntity
  8
0
  6
CONTINUOUS
 62
               4
100
AcDbLine
 10
62.0
 20
-75.364928258789064
 30
0.0
 11
62.753590400000007
 21
-75.800014258789076
 31
0.0
  0
LINE
  5
1AA
100
AcDbEntity
  8
0
  6
CONTINUOUS
 62
               4
100
AcDbLine
 10
62.753590400000007
 20
-75.800014258789076
 30
0.0
 11
63.100000799999975
 21
-76.400014258789071
 31
0.0
  0
LINE
  5
1AB
100
AcDbEntity
  8
0
  6
CONTINUOUS
 62
               4
100
AcDbLine
 10
79.246409599999993
 20
-75.800014258789076
 30
0.0
 11
78.899999199999996
 21
-76.400014258789071
 31
0.0
  0
LINE
  5
1AC
100
AcDbEntity
  8
0
  6
CONTINUOUS
 62
               4
100
AcDbLine
 10
62.199999999999989
 20
-72.800015258789074
 30
0.0
 11
79.800000000000011
 21
-72.800015258789074
 31
0.0
  0
LINE
  5
1AD
100
AcDbEntity
  8
0
  6
CONTINUOUS
 62
               4
100
AcDbLine
 10
62.0
 20
-75.364929258789061
 30
0.0
 11
62.0
 21
-73.000015258789063
 31
0.0
  0
LINE
  5
1AE
100
AcDbEntity
  8
0
  6
CONTINUOUS
 62
               4
100
AcDbLine
 10
62.199999999999989
 20
-72.800015258789074
 30
0.0
 11
62.0
 21
-73.000015258789063
 31
0.0
  0
LINE
  5
1AF
100
AcDbEntity
  8
0
  6
CONTINUOUS
 62
               4
100
AcDbLine
 10
80.0
 20
-75.364929258789061
 30
0.0
 11
80.0
 21
-73.000015258789063
 31
0.0
  0
LINE
  5
1B0
100
AcDbEntity
  8
0
  6
CONTINUOUS
 62
               4
100
AcDbLine
 10
62.199999999999989
 20
-66.900014658789075
 30
0.0
 11
62.0
 21
-67.100014858789052
 31
0.0
  0
LINE
  5
1B1
100
AcDbEntity
  8
0
  6
CONTINUOUS
 62
               4
100
AcDbLine
 10
79.800000000000011
 20
-66.900014858789064
 30
0.0
 11
62.199999999999989
 21
-66.900014858789064
 31
0.0
  0
LINE
  5
1B2
100
AcDbEntity
  8
0
  6
CONTINUOUS
 62
               4
100
AcDbLine
 10
62.0
 20
-71.800015258789074
 30
0.0
 11
62.0
 21
-67.100014858789052
 31
0.0
  0
LINE
  5
1B3
100
AcDbEntity
  8
0
  6
CONTINUOUS
 62
               4
100
AcDbLine
 10
80.0
 20
-71.800015258789074
 30
0.0
 11
80.0
 21
-67.100014858789052
 31
0.0
  0
LINE
  5
1B4
100
AcDbEntity
  8
0
  6
CONTINUOUS
 62
               4
100
AcDbLine
 10
79.800000000000011
 20
-66.900014658789075
 30
0.0
 11
80.0
 21
-67.100014858789052
 31
0.0
  0
LINE
  5
1B5
100
AcDbEntity
  8
0
  6
CONTINUOUS
 62
               4
100
AcDbLine
 10
62.0
 20
-71.800015258789074
 30
0.0
 11
62.099999999999994
 21
-71.900015258789068
 31
0.0
  0
LINE
  5
1B6
100
AcDbEntity
  8
0
  6
CONTINUOUS
 62
               4
100
AcDbLine
 10
80.0
 20
-71.800015258789074
 30
0.0
 11
79.900000000000006
 21
-71.900015258789068
 31
0.0
  0
LINE
  5
1B7
100
AcDbEntity
  8
0
  6
CONTINUOUS
 62
               4
100
AcDbLine
 10
79.800000000000011
 20
-66.900015258789068
 30
0.0
 11
80.0
 21
-66.700015058789063
 31
0.0
  0
LINE
  5
1B8
100
AcDbEntity
  8
0
  6
CONTINUOUS
 62
               4
100
AcDbLine
 10
62.699999999999989
 20
-72.800015258789074
 30
0.0
 11
62.699999999999989
 21
-71.900015258789068
 31
0.0
  0
LINE
  5
1B9
100
AcDbEntity
  8
0
  6
CONTINUOUS
 62
               4
100
AcDbLine
 10
79.300000000000011
 20
-72.800015258789074
 30
0.0
 11
79.300000000000011
 21
-71.900015258789068
 31
0.0
  0
LINE
  5
1BA
100
AcDbEntity
  8
0
  6
CONTINUOUS
 62
               4
100
AcDbLine
 10
62.199999999999989
 20
-66.900015258789068
 30
0.0
 11
62.0
 21
-66.700015058789063
 31
0.0
  0
LINE
  5
1BB
100
AcDbEntity
  8
0
  6
CONTINUOUS
 62
               4
100
AcDbLine
 10
80.0
 20
-67.100014858789052
 30
0.0
 11
62.0
 21
-67.100014858789052
 31
0.0
  0
LINE
  5
1BC
100
AcDbEntity
  8
0
  6
CONTINUOUS
 62
               4
100
AcDbLine
 10
65.0
 20
-77.900015258789068
 30
0.0
 11
65.0
 21
-77.500015258789063
 31
0.0
  0
LINE
  5
1BD
100
AcDbEntity
  8
0
  6
CONTINUOUS
 62
               4
100
AcDbLine
 10
78.099999999999994
 20
-77.400015258789068
 30
0.0
 11
63.899999999999977
 21
-77.400015258789068
 31
0.0
  0
LINE
  5
1BE
100
AcDbEntity
  8
0
  6
CONTINUOUS
 62
               4
100
AcDbLine
 10
79.246409599999993
 20
-75.800014258789076
 30
0.0
 11
62.753590400000007
 21
-75.800014258789076
 31
0.0
  0
LINE
  5
1BF
100
AcDbEntity
  8
0
  6
CONTINUOUS
 62
               4
100
AcDbLine
 10
80.0
 20
-75.364928258789064
 30
0.0
 11
62.0
 21
-75.364928258789064
 31
0.0
  0
LINE
  5
1C0
100
AcDbEntity
  8
0
  6
CONTINUOUS
 62
               4
100
AcDbLine
 10
80.0
 20
-73.000015258789063
 30
0.0
 11
62.0
 21
-73.000015258789063
 31
0.0
  0
LINE
  5
1C1
100
AcDbEntity
  8
0
  6
CONTINUOUS
 62
               4
100
AcDbLine
 10
80.0
 20
-71.800015258789074
 30
0.0
 11
62.0
 21
-71.800015258789074
 31
0.0
  0
LINE
  5
1C2
100
AcDbEntity
  8
0
  6
CONTINUOUS
 62
               4
100
AcDbLine
 10
62.0
 20
-66.700015258789051
 30
0.0
 11
62.0
 21
-55.50330965878905
 31
0.0
  0
LINE
  5
1C3
100
AcDbEntity
  8
0
  6
CONTINUOUS
 62
               4
100
AcDbLine
 10
62.0
 20
-66.700015058789063
 30
0.0
 11
80.0
 21
-66.700015058789063
 31
0.0
  0
LINE
  5
1C4
100
AcDbEntity
  8
0
  6
CONTINUOUS
 62
               4
100
AcDbLine
 10
80.0
 20
-52.905275258789061
 30
0.0
 11
77.5
 21
-52.905275258789061
 31
0.0
  0
LINE
  5
1C5
100
AcDbEntity
  8
0
  6
CONTINUOUS
 62
               4
100
AcDbLine
 10
61.699999988079071
 20
-51.500007629394531
 30
0.0
 11
61.699999988079071
 21
-51.000007629394531
 31
0.0
  0
LINE
  5
1C6
100
AcDbEntity
  8
0
  6
CONTINUOUS
 62
               4
100
AcDbLine
 10
67.199999272823334
 20
-51.500007629394531
 30
0.0
 11
67.199999272823334
 21
-51.000007629394531
 31
0.0
  0
LINE
  5
1C7
100
AcDbEntity
  8
0
  6
CONTINUOUS
 62
               4
100
AcDbLine
 10
62.0
 20
-51.000015258789063
 30
0.0
 11
62.0
 21
-48.000015258789063
 31
0.0
  0
LINE
  5
1C8
100
AcDbEntity
  8
0
  6
CONTINUOUS
 62
               4
100
AcDbLine
 10
80.0
 20
-66.700015058789063
 30
0.0
 11
80.0
 21
-48.000015258789063
 31
0.0
  0
LINE
  5
1C9
100
AcDbEntity
  8
0
  6
CONTINUOUS
 62
               4
100
AcDbLine
 10
5.0
 20
-66.70002650288086
 30
0.0
 11
23.0
 21
-66.70002650288086
 31
0.0
  0
LINE
  5
1CA
100
AcDbEntity
  8
0
  6
CONTINUOUS
 62
               4
100
AcDbLine
 10
23.0
 20
-71.800026702880871
 30
0.0
 11
5.0
 21
-71.800026702880871
 31
0.0
  0
LINE
  5
1CB
100
AcDbEntity
  8
0
  6
CONTINUOUS
 62
               4
100
AcDbLine
 10
23.0
 20
-73.000026702880859
 30
0.0
 11
5.0
 21
-73.000026702880859
 31
0.0
  0
LINE
  5
1CC
100
AcDbEntity
  8
0
  6
CONTINUOUS
 62
               4
100
AcDbLine
 10
23.0
 20
-75.364939702880861
 30
0.0
 11
5.0
 21
-75.364939702880861
 31
0.0
  0
LINE
  5
1CD
100
AcDbEntity
  8
0
  6
CONTINUOUS
 62
               4
100
AcDbLine
 10
22.246409600000007
 20
-75.800025702880873
 30
0.0
 11
5.7535903999999931
 21
-75.800025702880873
 31
0.0
  0
LINE
  5
1CE
100
AcDbEntity
  8
0
  6
CONTINUOUS
 62
               4
100
AcDbLine
 10
21.099999999999994
 20
-77.400026702880865
 30
0.0
 11
6.8999999999999915
 21
-77.400026702880865
 31
0.0
  0
LINE
  5
1CF
100
AcDbEntity
  8
0
  6
CONTINUOUS
 62
               4
100
AcDbLine
 10
8.0
 20
-77.900026702880865
 30
0.0
 11
8.0
 21
-77.500026702880859
 31
0.0
  0
LINE
  5
1D0
100
AcDbEntity
  8
0
  6
CONTINUOUS
 62
               4
100
AcDbLine
 10
23.0
 20
-67.100026302880849
 30
0.0
 11
5.0
 21
-67.100026302880849
 31
0.0
  0
LINE
  5
1D1
100
AcDbEntity
  8
0
  6
CONTINUOUS
 62
               4
100
AcDbLine
 10
5.1999999999999886
 20
-66.900026702880865
 30
0.0
 11
5.0
 21
-66.70002650288086
 31
0.0
  0
LINE
  5
1D2
100
AcDbEntity
  8
0
  6
CONTINUOUS
 62
               4
100
AcDbLine
 10
22.299999999999997
 20
-72.800026702880871
 30
0.0
 11
22.299999999999997
 21
-71.900026702880865
 31
0.0
  0
LINE
  5
1D3
100
AcDbEntity
  8
0
  6
CONTINUOUS
 62
               4
100
AcDbLine
 10
5.6999999999999886
 20
-72.800026702880871
 30
0.0
 11
5.6999999999999886
 21
-71.900026702880865
 31
0.0
  0
LINE
  5
1D4
100
AcDbEntity
  8
0
  6
CONTINUOUS
 62
               4
100
AcDbLine
 10
22.799999999999997
 20
-66.900026702880865
 30
0.0
 11
23.0
 21
-66.70002650288086
 31
0.0
  0
LINE
  5
1D5
100
AcDbEntity
  8
0
  6
CONTINUOUS
 62
               4
100
AcDbLine
 10
23.0
 20
-71.800026702880871
 30
0.0
 11
22.900000000000006
 21
-71.900026702880865
 31
0.0
  0
LINE
  5
1D6
100
AcDbEntity
  8
0
  6
CONTINUOUS
 62
               4
100
AcDbLine
 10
5.0
 20
-71.800026702880871
 30
0.0
 11
5.0999999999999943
 21
-71.900026702880865
 31
0.0
  0
LINE
  5
1D7
100
AcDbEntity
  8
0
  6
CONTINUOUS
 62
               4
100
AcDbLine
 10
22.799999999999997
 20
-66.900026102880872
 30
0.0
 11
23.0
 21
-67.100026302880849
 31
0.0
  0
LINE
  5
1D8
100
AcDbEntity
  8
0
  6
CONTINUOUS
 62
               4
100
AcDbLine
 10
23.0
 20
-71.800026702880871
 30
0.0
 11
23.0
 21
-67.100026302880849
 31
0.0
  0
LINE
  5
1D9
100
AcDbEntity
  8
0
  6
CONTINUOUS
 62
               4
100
AcDbLine
 10
5.0
 20
-71.800026702880871
 30
0.0
 11
5.0
 21
-67.100026302880849
 31
0.0
  0
LINE
  5
1DA
100
AcDbEntity
  8
0
  6
CONTINUOUS
 62
               4
100
AcDbLine
 10
22.799999999999997
 20
-66.90002630288086
 30
0.0
 11
5.1999999999999886
 21
-66.90002630288086
 31
0.0
  0
LINE
  5
1DB
100
AcDbEntity
  8
0
  6
CONTINUOUS
 62
               4
100
AcDbLine
 10
5.1999999999999886
 20
-66.900026102880872
 30
0.0
 11
5.0
 21
-67.100026302880849
 31
0.0
  0
LINE
  5
1DC
100
AcDbEntity
  8
0
  6
CONTINUOUS
 62
               4
100
AcDbLine
 10
23.0
 20
-75.364940702880858
 30
0.0
 11
23.0
 21
-73.000026702880859
 31
0.0
  0
LINE
  5
1DD
100
AcDbEntity
  8
0
  6
CONTINUOUS
 62
               4
100
AcDbLine
 10
5.1999999999999886
 20
-72.800026702880871
 30
0.0
 11
5.0
 21
-73.000026702880859
 31
0.0
  0
LINE
  5
1DE
100
AcDbEntity
  8
0
  6
CONTINUOUS
 62
               4
100
AcDbLine
 10
5.0
 20
-75.364940702880858
 30
0.0
 11
5.0
 21
-73.000026702880859
 31
0.0
  0
LINE
  5
1DF
100
AcDbEntity
  8
0
  6
CONTINUOUS
 62
               4
100
AcDbLine
 10
5.1999999999999886
 20
-72.800026702880871
 30
0.0
 11
22.799999999999997
 21
-72.800026702880871
 31
0.0
  0
LINE
  5
1E0
100
AcDbEntity
  8
0
  6
CONTINUOUS
 62
               4
100
AcDbLine
 10
22.246409600000007
 20
-75.800025702880873
 30
0.0
 11
21.899999199999996
 21
-76.400025702880868
 31
0.0
  0
LINE
  5
1E1
100
AcDbEntity
  8
0
  6
CONTINUOUS
 62
               4
100
AcDbLine
 10
5.7535903999999931
 20
-75.800025702880873
 30
0.0
 11
6.1000007999999895
 21
-76.400025702880868
 31
0.0
  0
LINE
  5
1E2
100
AcDbEntity
  8
0
  6
CONTINUOUS
 62
               4
100
AcDbLine
 10
5.0
 20
-75.364939702880861
 30
0.0
 11
5.7535903999999931
 21
-75.800025702880873
 31
0.0
  0
LINE
  5
1E3
100
AcDbEntity
  8
0
  6
CONTINUOUS
 62
               4
100
AcDbLine
 10
23.0
 20
-75.364939702880861
 30
0.0
 11
22.246409600000007
 21
-75.800025702880873
 31
0.0
  0
LINE
  5
1E4
100
AcDbEntity
  8
0
  6
CONTINUOUS
 62
               4
100
AcDbLine
 10
22.799999999999997
 20
-72.800026702880871
 30
0.0
 11
23.0
 21
-73.000026702880859
 31
0.0
  0
LINE
  5
1E5
100
AcDbEntity
  8
0
  6
CONTINUOUS
 62
               4
100
AcDbLine
 10
21.900000000000006
 20
-76.400025702880868
 30
0.0
 11
6.1000007999999895
 21
-76.400025702880868
 31
0.0
  0
LINE
  5
1E6
100
AcDbEntity
  8
0
  6
CONTINUOUS
 62
               4
100
AcDbLine
 10
5.0999999999999943
 20
-71.900026702880865
 30
0.0
 11
22.900000000000006
 21
-71.900026702880865
 31
0.0
  0
LINE
  5
1E7
100
AcDbEntity
  8
0
  6
CONTINUOUS
 62
               4
100
AcDbLine
 10
21.099999999999994
 20
-77.400026702880865
 30
0.0
 11
21.099999999999994
 21
-76.400025702880868
 31
0.0
  0
LINE
  5
1E8
100
AcDbEntity
  8
0
  6
CONTINUOUS
 62
               4
100
AcDbLine
 10
21.0
 20
-77.500026702880859
 30
0.0
 11
7.0
 21
-77.500026702880859
 31
0.0
  0
LINE
  5
1E9
100
AcDbEntity
  8
0
  6
CONTINUOUS
 62
               4
100
AcDbLine
 10
21.0
 20
-77.500026702880859
 30
0.0
 11
21.099999999999994
 21
-77.400026702880865
 31
0.0
  0
LINE
  5
1EA
100
AcDbEntity
  8
0
  6
CONTINUOUS
 62
               4
100
AcDbLine
 10
7.0
 20
-77.500026702880859
 30
0.0
 11
6.8999999999999915
 21
-77.400026702880865
 31
0.0
  0
LINE
  5
1EB
100
AcDbEntity
  8
0
  6
CONTINUOUS
 62
               4
100
AcDbLine
 10
6.8999999999999915
 20
-77.400026702880865
 30
0.0
 11
6.8999999999999915
 21
-76.400025702880868
 31
0.0
  0
LINE
  5
1EC
100
AcDbEntity
  8
0
  6
CONTINUOUS
 62
               4
100
AcDbLine
 10
20.0
 20
-77.900026702880865
 30
0.0
 11
20.0
 21
-77.500026702880859
 31
0.0
  0
LINE
  5
1ED
100
AcDbEntity
  8
0
  6
CONTINUOUS
 62
               4
100
AcDbLine
 10
22.400000000000006
 20
-79.300707702880857
 30
0.0
 11
22.400000000000006
 21
-78.400026702880865
 31
0.0
  0
LINE
  5
1EE
100
AcDbEntity
  8
0
  6
CONTINUOUS
 62
               4
100
AcDbLine
 10
5.5999999999999943
 20
-78.400026702880865
 30
0.0
 11
22.400000000000006
 21
-78.400026702880865
 31
0.0
  0
LINE
  5
1EF
100
AcDbEntity
  8
0
  6
CONTINUOUS
 62
               4
100
AcDbLine
 10
22.099999999999994
 20
-79.600026702880854
 30
0.0
 11
5.8999999999999915
 21
-79.600026702880854
 31
0.0
  0
LINE
  5
1F0
100
AcDbEntity
  8
0
  6
CONTINUOUS
 62
               4
100
AcDbLine
 10
5.5999999999999943
 20
-79.300707702880857
 30
0.0
 11
5.5999999999999943
 21
-78.400026702880865
 31
0.0
  0
ARC
  5
1F1
100
AcDbEntity
  8
0
  6
CONTINUOUS
 62
               4
100
AcDbCircle
 10
7.5
 20
-77.900026702880865
 30
0.0
 40
0.5
100
AcDbArc
 50
269.99999999999937
 51
0.0000000000002036
  0
ARC
  5
1F2
100
AcDbEntity
  8
0
  6
CONTINUOUS
 62
               4
100
AcDbCircle
 10
22.099999999999994
 20
-79.300026702880871
 30
0.0
 40
0.3
100
AcDbArc
 50
269.99999999999937
 51
0.0000000000002036
  0
ARC
  5
1F3
100
AcDbEntity
  8
0
  6
CONTINUOUS
 62
               4
100
AcDbCircle
 10
20.5
 20
-77.900026702880865
 30
0.0
 40
0.5
100
AcDbArc
 50
180.0000000000002
 51
270.00000000000023
  0
ARC
  5
1F4
100
AcDbEntity
  8
0
  6
CONTINUOUS
 62
               4
100
AcDbCircle
 10
5.8999999999999915
 20
-79.300026702880871
 30
0.0
 40
0.3
100
AcDbArc
 50
180.0000000000002
 51
270.00000000000023
  0
LINE
  5
1F5
100
AcDbEntity
  8
0
  6
CONTINUOUS
 62
               4
100
AcDbLine
 10
5.0
 20
-66.700026702880848
 30
0.0
 11
5.0
 21
-60.000011444091797
 31
0.0
  0
LINE
  5
1F6
100
AcDbEntity
  8
0
  6
CONTINUOUS
 62
               4
100
AcDbLine
 10
23.0
 20
-66.70002650288086
 30
0.0
 11
23.0
 21
-60.000019073486328
 31
0.0
  0
LINE
  5
1F7
100
AcDbEntity
  8
0
  6
CONTINUOUS
 62
             200
100
AcDbLine
 10
9.9999910258984528
 20
86.981720617780411
 30
0.0
 11
13.999999237660631
 21
88.053519596823207
 31
0.0
  0
LINE
  5
1F8
100
AcDbEntity
  8
0
  6
CONTINUOUS
 62
             200
100
AcDbLine
 10
9.9999957190802888
 20
85.946445708284045
 30
0.0
 11
14.000003930842468
 21
87.018244687326842
 31
0.0
  0
LINE
  5
1F9
100
AcDbEntity
  8
0
  6
CONTINUOUS
 62
               4
100
AcDbLine
 10
62.0
 20
27.000015258789063
 30
0.0
 11
80.0
 21
27.000015258789063
 31
0.0
  0
CIRCLE
  5
1FA
100
AcDbEntity
  8
0
  6
CONTINUOUS
 62
               7
100
AcDbCircle
 10
7.5
 20
-30.999984741210938
 30
0.0
 40
2.9499998092651367
  0
CIRCLE
  5
1FB
100
AcDbEntity
  8
0
  6
CONTINUOUS
 62
               7
100
AcDbCircle
 10
20.499984741210938
 20
9.0
 30
0.0
 40
2.9499998092651367
  0
ARC
  5
1FC
100
AcDbEntity
  8
0
  6
CONTINUOUS
 62
               7
100
AcDbCircle
 10
20.000030517578125
 20
28.50006103515625
 30
0.0
 40
2.5000734329223633
100
AcDbArc
 50
191.53802865027069
 51
319.45890333229545
  0
ARC
  5
1FD
100
AcDbEntity
  8
0
  6
CONTINUOUS
 62
               7
100
AcDbCircle
 10
13.899978637695313
 20
35.70001220703125
 30
0.0
 40
3.0
100
AcDbArc
 50
271.91023065164455
 51
0.0
  0
ARC
  5
1FE
100
AcDbEntity
  8
0
  6
CONTINUOUS
 62
               7
100
AcDbCircle
 10
13.999984741210938
 20
35.70001220703125
 30
0.0
 40
3.0
100
AcDbArc
 50
266.17746163595609
 51
3.822566595416411
  0
ARC
  5
1FF
100
AcDbEntity
  8
0
  6
CONTINUOUS
 62
               7
100
AcDbCircle
 10
14.0999755859375
 20
35.70001220703125
 30
0.0
 40
3.0
100
AcDbArc
 50
268.089805320533
 51
0.0
  0
CIRCLE
  5
200
100
AcDbEntity
  8
0
  6
CONTINUOUS
 62
               7
100
AcDbCircle
 10
7.5000152587890625
 20
-31.000015258789063
 30
0.0
 40
2.75
  0
CIRCLE
  5
201
100
AcDbEntity
  8
0
  6
CONTINUOUS
 62
               7
100
AcDbCircle
 10
20.5
 20
-33.000015258789063
 30
0.0
 40
2.75
  0
ARC
  5
202
100
AcDbEntity
  8
0
  6
CONTINUOUS
 62
               7
100
AcDbCircle
 10
22.5
 20
-60.000019073486328
 30
0.0
 40
0.5
100
AcDbArc
 50
270.00001798608872
 51
0.00001366037834
  0
ARC
  5
203
100
AcDbEntity
  8
0
  6
CONTINUOUS
 62
               7
100
AcDbCircle
 10
5.5
 20
-60.000011444091797
 30
0.0
 40
0.5
100
AcDbArc
 50
180.0000359721783
 51
269.99996334457541
  0
CIRCLE
  5
204
100
AcDbEntity
  8
0
  6
CONTINUOUS
 62
               7
100
AcDbCircle
 10
20.500015258789063
 20
9.0
 30
0.0
 40
2.75
  0
ARC
  5
205
100
AcDbEntity
  8
0
  6
CONTINUOUS
 62
               7
100
AcDbCircle
 10
20.5
 20
-33.000015258789063
 30
0.0
 40
3.0
100
AcDbArc
 50
89.999982013910454
 51
179.99996402782091
  0
ARC
  5
206
100
AcDbEntity
  8
0
  6
CONTINUOUS
 62
               7
100
AcDbCircle
 10
7.5
 20
11.0
 30
0.0
 40
3.0
100
AcDbArc
 50
270.00001798608872
 51
0.00001366037834
  0
ARC
  5
207
100
AcDbEntity
  8
0
  6
CONTINUOUS
 62
               7
100
AcDbCircle
 10
7.5
 20
-31.000015258789063
 30
0.0
 40
3.0
100
AcDbArc
 50
269.99996334457541
 51
89.999982013910454
  0
ARC
  5
208
100
AcDbEntity
  8
0
  6
CONTINUOUS
 62
               7
100
AcDbCircle
 10
20.5
 20
9.0
 30
0.0
 40
3.0
100
AcDbArc
 50
89.999982013910454
 51
269.99994604173139
  0
CIRCLE
  5
209
100
AcDbEntity
  8
0
  6
CONTINUOUS
 62
               7
100
AcDbCircle
 10
7.5
 20
11.0
 30
0.0
 40
2.75
  0
ARC
  5
20A
100
AcDbEntity
  8
0
  6
CONTINUOUS
 62
               4
100
AcDbCircle
 10
9.5500030517578125
 20
71.499984741210938
 30
0.0
 40
0.5
100
AcDbArc
 50
89.999982013910454
 51
179.99996402782091
  0
ARC
  5
20B
100
AcDbEntity
  8
0
  6
CONTINUOUS
 62
               4
100
AcDbCircle
 10
18.449996948242188
 20
71.499984741210938
 30
0.0
 40
0.5
100
AcDbArc
 50
359.99994535848583
 51
89.999982013910454
  0
CIRCLE
  5
20C
100
AcDbEntity
  8
0
  6
CONTINUOUS
 62
               7
100
AcDbCircle
 10
14.0
 20
35.699996948242187
 30
0.0
 40
1.9499998092651367
  0
CIRCLE
  5
20D
100
AcDbEntity
  8
0
  6
CONTINUOUS
 62
               7
100
AcDbCircle
 10
14.0
 20
35.699996948242187
 30
0.0
 40
2.0
  0
CIRCLE
  5
20E
100
AcDbEntity
  8
0
  6
CONTINUOUS
 62
               7
100
AcDbCircle
 10
85.0
 20
-23.000015258789063
 30
0.0
 40
2.25
  0
CIRCLE
  5
20F
100
AcDbEntity
  8
0
  6
CONTINUOUS
 62
               7
100
AcDbCircle
 10
85.0
 20
0.0
 30
0.0
 40
2.25
  0
CIRCLE
  5
210
100
AcDbEntity
  8
0
  6
CONTINUOUS
 62
               7
100
AcDbCircle
 10
0.0
 20
-23.000015258789063
 30
0.0
 40
2.25
  0
CIRCLE
  5
211
100
AcDbEntity
  8
0
  6
CONTINUOUS
 62
               7
100
AcDbCircle
 10
0.0
 20
0.0
 30
0.0
 40
2.25
  0
CIRCLE
  5
212
100
AcDbEntity
  8
0
  6
CONTINUOUS
 62
               4
100
AcDbCircle
 10
77.5
 20
9.0
 30
0.0
 40
2.7999992370605469
  0
CIRCLE
  5
213
100
AcDbEntity
  8
0
  6
CONTINUOUS
 62
               4
100
AcDbCircle
 10
64.500015258789063
 20
-30.999984741210938
 30
0.0
 40
2.7999992370605469
  0
LINE
  5
214
100
AcDbEntity
  8
0
  6
CONTINUOUS
 62
               7
100
AcDbLine
 10
20.499984741210938
 20
6.0
 30
0.0
 11
22.999984741210937
 21
6.0
 31
0.0
  0
LINE
  5
215
100
AcDbEntity
  8
0
  6
CONTINUOUS
 62
               7
100
AcDbLine
 10
20.499984741210938
 20
12.0
 30
0.0
 11
22.999984741210937
 21
12.0
 31
0.0
  0
LINE
  5
216
100
AcDbEntity
  8
0
  6
CONTINUOUS
 62
               7
100
AcDbLine
 10
4.9999847412109375
 20
-60.0
 30
0.0
 11
4.9999847412109375
 21
-32.566009521484375
 31
0.0
  0
LINE
  5
217
100
AcDbEntity
  8
0
  6
CONTINUOUS
 62
               7
100
AcDbLine
 10
4.9999847412109375
 20
-29.433975219726562
 30
0.0
 11
4.9999847412109375
 21
9.7390594482421875
 31
0.0
  0
LINE
  5
218
100
AcDbEntity
  8
0
  6
CONTINUOUS
 62
               7
100
AcDbLine
 10
4.9999847412109375
 20
12.260971069335938
 30
0.0
 11
4.9999847412109375
 21
25.5
 31
0.0
  0
LINE
  5
219
100
AcDbEntity
  8
0
  6
CONTINUOUS
 62
               7
100
AcDbLine
 10
22.999984741210937
 20
-31.739028930664063
 30
0.0
 11
22.999984741210937
 21
7.4339447021484375
 31
0.0
  0
LINE
  5
21A
100
AcDbEntity
  8
0
  6
CONTINUOUS
 62
               7
100
AcDbLine
 10
22.999984741210937
 20
10.5660400390625
 30
0.0
 11
22.999984741210937
 21
25.5
 31
0.0
  0
LINE
  5
21B
100
AcDbEntity
  8
0
  6
CONTINUOUS
 62
               4
100
AcDbLine
 10
18.999984741210937
 20
38.999984741210938
 30
0.0
 11
18.999984741210937
 21
63.0
 31
0.0
  0
LINE
  5
21C
100
AcDbEntity
  8
0
  6
CONTINUOUS
 62
               4
100
AcDbLine
 10
8.9999847412109375
 20
38.999984741210938
 30
0.0
 11
8.9999847412109375
 21
63.0
 31
0.0
  0
LINE
  5
21D
100
AcDbEntity
  8
0
  6
CONTINUOUS
 62
               7
100
AcDbLine
 10
5.0000318693046211
 20
25.49999101410117
 30
0.0
 11
6.9999854180559851
 21
27.999997306291107
 31
0.0
  0
LINE
  5
21E
100
AcDbEntity
  8
0
  6
CONTINUOUS
 62
               7
100
AcDbLine
 10
22.999956055790562
 20
25.500017264140752
 30
0.0
 11
21.000006509704917
 21
28.000017217062577
 31
0.0
  0
LINE
  5
21F
100
AcDbEntity
  8
0
  6
CONTINUOUS
 62
               7
100
AcDbLine
 10
6.9999847412109375
 20
28.0
 30
0.0
 11
20.999984741210937
 21
28.0
 31
0.0
  0
LINE
  5
220
100
AcDbEntity
  8
0
  6
CONTINUOUS
 62
               7
100
AcDbLine
 10
13.999960929073495
 20
32.699989919672589
 30
0.0
 11
14.99996298201404
 21
32.432040236619287
 31
0.0
  0
LINE
  5
221
100
AcDbEntity
  8
0
  6
CONTINUOUS
 62
               7
100
AcDbLine
 10
13.999984741210938
 20
32.20001220703125
 30
0.0
 11
13.999984741210938
 21
33.20001220703125
 31
0.0
  0
LINE
  5
222
100
AcDbEntity
  8
0
  6
CONTINUOUS
 62
               7
100
AcDbLine
 10
16.499984741210937
 20
35.70001220703125
 30
0.0
 11
17.499984741210937
 21
35.70001220703125
 31
0.0
  0
LINE
  5
223
100
AcDbEntity
  8
0
  6
CONTINUOUS
 62
               7
100
AcDbLine
 10
38.0
 20
29.0
 30
0.0
 11
47.0
 21
29.0
 31
0.0
  0
LINE
  5
224
100
AcDbEntity
  8
0
  6
CONTINUOUS
 62
               7
100
AcDbLine
 10
-5.0
 20
29.0
 30
0.0
 11
9.0
 21
29.0
 31
0.0
  0
LINE
  5
225
100
AcDbEntity
  8
0
  6
CONTINUOUS
 62
               7
100
AcDbLine
 10
8.5606744250781048
 20
-32.060673078184664
 30
0.0
 11
6.4393562635905255
 21
-29.939350446348726
 31
0.0
  0
LINE
  5
226
100
AcDbEntity
  8
0
  6
CONTINUOUS
 62
               7
100
AcDbLine
 10
6.4393526566209403
 20
-32.060651805185444
 30
0.0
 11
8.5606658113183585
 21
-29.939324345373279
 31
0.0
  0
LINE
  5
227
100
AcDbEntity
  8
0
  6
CONTINUOUS
 62
               7
100
AcDbLine
 10
21.560640588267233
 20
-34.060674744117023
 30
0.0
 11
19.439321353896048
 21
-31.939353363978626
 31
0.0
  0
LINE
  5
228
100
AcDbEntity
  8
0
  6
CONTINUOUS
 62
               7
100
AcDbLine
 10
19.439360516540546
 20
-34.060681584595841
 30
0.0
 11
21.560676532260914
 21
-31.939356806992691
 31
0.0
  0
LINE
  5
229
100
AcDbEntity
  8
0
  6
CONTINUOUS
 62
               7
100
AcDbLine
 10
21.5
 20
-46.500030517578125
 30
0.0
 11
23.0
 21
-46.500030517578125
 31
0.0
  0
LINE
  5
22A
100
AcDbEntity
  8
0
  6
CONTINUOUS
 62
               7
100
AcDbLine
 10
20.5
 20
-49.500045776367188
 30
0.0
 11
20.5
 21
-48.500030517578125
 31
0.0
  0
LINE
  5
22B
100
AcDbEntity
  8
0
  6
CONTINUOUS
 62
               7
100
AcDbLine
 10
21.5
 20
-40.500030517578125
 30
0.0
 11
23.0
 21
-40.500030517578125
 31
0.0
  0
LINE
  5
22C
100
AcDbEntity
  8
0
  6
CONTINUOUS
 62
               7
100
AcDbLine
 10
20.5
 20
-38.500030517578125
 30
0.0
 11
20.5
 21
-37.500030517578125
 31
0.0
  0
LINE
  5
22D
100
AcDbEntity
  8
0
  6
CONTINUOUS
 62
               7
100
AcDbLine
 10
5.0
 20
-40.500030517578125
 30
0.0
 11
6.5
 21
-40.500030517578125
 31
0.0
  0
LINE
  5
22E
100
AcDbEntity
  8
0
  6
CONTINUOUS
 62
               7
100
AcDbLine
 10
7.5
 20
-38.500030517578125
 30
0.0
 11
7.5
 21
-37.500030517578125
 31
0.0
  0
LINE
  5
22F
100
AcDbEntity
  8
0
  6
CONTINUOUS
 62
               7
100
AcDbLine
 10
5.0
 20
-46.500030517578125
 30
0.0
 11
6.5
 21
-46.500030517578125
 31
0.0
  0
LINE
  5
230
100
AcDbEntity
  8
0
  6
CONTINUOUS
 62
               7
100
AcDbLine
 10
7.5
 20
-49.500030517578125
 30
0.0
 11
7.5
 21
-48.500030517578125
 31
0.0
  0
LINE
  5
231
100
AcDbEntity
  8
0
  6
CONTINUOUS
 62
               7
100
AcDbLine
 10
7.4999829364314792
 20
-47.499993621457179
 30
0.0
 11
6.4999761428643978
 21
-48.499988951069099
 31
0.0
  0
LINE
  5
232
100
AcDbEntity
  8
0
  6
CONTINUOUS
 62
               7
100
AcDbLine
 10
6.5000091832262115
 20
-38.500005099167538
 30
0.0
 11
7.5000083060585894
 21
-39.500008099514162
 31
0.0
  0
LINE
  5
233
100
AcDbEntity
  8
0
  6
CONTINUOUS
 62
               7
100
AcDbLine
 10
20.499959834509355
 20
-39.499994633688402
 30
0.0
 11
21.4999598845734
 21
-38.499992644867234
 31
0.0
  0
LINE
  5
234
100
AcDbEntity
  8
0
  6
CONTINUOUS
 62
               7
100
AcDbLine
 10
21.499973856161887
 20
-48.50001980340312
 30
0.0
 11
20.499972794572386
 21
-47.500018741813619
 31
0.0
  0
LINE
  5
235
100
AcDbEntity
  8
0
  6
CONTINUOUS
 62
               7
100
AcDbLine
 10
7.5
 20
-47.500030517578125
 30
0.0
 11
7.5
 21
-39.500030517578125
 31
0.0
  0
LINE
  5
236
100
AcDbEntity
  8
0
  6
CONTINUOUS
 62
               7
100
AcDbLine
 10
20.5
 20
-47.500030517578125
 30
0.0
 11
20.5
 21
-39.500030517578125
 31
0.0
  0
LINE
  5
237
100
AcDbEntity
  8
0
  6
CONTINUOUS
 62
               7
100
AcDbLine
 10
7.5
 20
-39.500030517578125
 30
0.0
 11
20.5
 21
-39.500030517578125
 31
0.0
  0
LINE
  5
238
100
AcDbEntity
  8
0
  6
CONTINUOUS
 62
               7
100
AcDbLine
 10
20.5
 20
-47.500030517578125
 30
0.0
 11
7.5
 21
-47.500030517578125
 31
0.0
  0
LINE
  5
239
100
AcDbEntity
  8
0
  6
CONTINUOUS
 62
               7
100
AcDbLine
 10
6.5
 20
-38.500030517578125
 30
0.0
 11
21.5
 21
-38.500030517578125
 31
0.0
  0
LINE
  5
23A
100
AcDbEntity
  8
0
  6
CONTINUOUS
 62
               7
100
AcDbLine
 10
6.5
 20
-48.500030517578125
 30
0.0
 11
6.5
 21
-38.500030517578125
 31
0.0
  0
LINE
  5
23B
100
AcDbEntity
  8
0
  6
CONTINUOUS
 62
               7
100
AcDbLine
 10
21.5
 20
-48.500030517578125
 30
0.0
 11
21.5
 21
-38.500030517578125
 31
0.0
  0
LINE
  5
23C
100
AcDbEntity
  8
0
  6
CONTINUOUS
 62
               7
100
AcDbLine
 10
21.5
 20
-48.500030517578125
 30
0.0
 11
6.5
 21
-48.500030517578125
 31
0.0
  0
LINE
  5
23D
100
AcDbEntity
  8
0
  6
CONTINUOUS
 62
               7
100
AcDbLine
 10
5.5
 20
-60.500019073486328
 30
0.0
 11
22.5
 21
-60.500019073486328
 31
0.0
  0
LINE
  5
23E
100
AcDbEntity
  8
0
  6
CONTINUOUS
 62
               7
100
AcDbLine
 10
19.439353058870438
 20
7.9393544465601735
 30
0.0
 11
21.560682306821946
 21
10.060665991932183
 31
0.0
  0
LINE
  5
23F
100
AcDbEntity
  8
0
  6
CONTINUOUS
 62
               7
100
AcDbLine
 10
6.4393397457349693
 20
9.9393193743619577
 30
0.0
 11
8.5606621987569724
 21
12.060637535849537
 31
0.0
  0
LINE
  5
240
100
AcDbEntity
  8
0
  6
CONTINUOUS
 62
               7
100
AcDbLine
 10
8.5607096341296938
 20
9.9393749755860199
 30
0.0
 11
6.439396162712967
 21
12.060703825005987
 31
0.0
  0
LINE
  5
241
100
AcDbEntity
  8
0
  6
CONTINUOUS
 62
               7
100
AcDbLine
 10
21.560680491686981
 20
7.9393475742654118
 30
0.0
 11
19.439355714083831
 21
10.060663589985779
 31
0.0
  0
LINE
  5
242
100
AcDbEntity
  8
0
  6
CONTINUOUS
 62
               7
100
AcDbLine
 10
10.5
 20
13.299972534179687
 30
0.0
 11
23.0
 21
13.299972534179687
 31
0.0
  0
LINE
  5
243
100
AcDbEntity
  8
0
  6
CONTINUOUS
 62
               7
100
AcDbLine
 10
5.0
 20
-35.300033569335938
 30
0.0
 11
17.5
 21
-35.300033569335938
 31
0.0
  0
LINE
  5
244
100
AcDbEntity
  8
0
  6
CONTINUOUS
 62
               7
100
AcDbLine
 10
20.5
 20
-30.000015258789063
 30
0.0
 11
23.0
 21
-30.000015258789063
 31
0.0
  0
LINE
  5
245
100
AcDbEntity
  8
0
  6
CONTINUOUS
 62
               7
100
AcDbLine
 10
7.5
 20
7.9999847412109375
 30
0.0
 11
5.0
 21
7.9999847412109375
 31
0.0
  0
LINE
  5
246
100
AcDbEntity
  8
0
  6
CONTINUOUS
 62
               7
100
AcDbLine
 10
10.5
 20
11.0
 30
0.0
 11
10.5
 21
15.29998779296875
 31
0.0
  0
LINE
  5
247
100
AcDbEntity
  8
0
  6
CONTINUOUS
 62
               7
100
AcDbLine
 10
17.5
 20
-33.000015258789063
 30
0.0
 11
17.5
 21
-37.300033569335938
 31
0.0
  0
LINE
  5
248
100
AcDbEntity
  8
0
  6
CONTINUOUS
 62
               7
100
AcDbLine
 10
5.0
 20
-28.000030517578125
 30
0.0
 11
7.5
 21
-28.000030517578125
 31
0.0
  0
LINE
  5
249
100
AcDbEntity
  8
0
  6
CONTINUOUS
 62
               7
100
AcDbLine
 10
5.0
 20
-34.000030517578125
 30
0.0
 11
7.5
 21
-34.000030517578125
 31
0.0
  0
LINE
  5
24A
100
AcDbEntity
  8
0
  6
CONTINUOUS
 62
               7
100
AcDbLine
 10
5.0
 20
-37.300033569335938
 30
0.0
 11
23.0
 21
-37.300033569335938
 31
0.0
  0
LINE
  5
24B
100
AcDbEntity
  8
0
  6
CONTINUOUS
 62
               7
100
AcDbLine
 10
5.0
 20
15.299972534179688
 30
0.0
 11
23.0
 21
15.299972534179688
 31
0.0
  0
LINE
  5
24C
100
AcDbEntity
  8
0
  6
CONTINUOUS
 62
               7
100
AcDbLine
 10
5.0
 20
-49.500030517578125
 30
0.0
 11
23.0
 21
-49.500030517578125
 31
0.0
  0
LINE
  5
24D
100
AcDbEntity
  8
0
  6
CONTINUOUS
 62
               7
100
AcDbLine
 10
5.0
 20
-37.500030517578125
 30
0.0
 11
23.0
 21
-37.500030517578125
 31
0.0
  0
LINE
  5
24E
100
AcDbEntity
  8
0
  6
CONTINUOUS
 62
               7
100
AcDbLine
 10
5.0
 20
25.499984741210937
 30
0.0
 11
23.0
 21
25.499984741210937
 31
0.0
  0
LINE
  5
24F
100
AcDbEntity
  8
0
  6
CONTINUOUS
 62
               7
100
AcDbLine
 10
23.0
 20
-60.000026702880859
 30
0.0
 11
23.0
 21
-34.145660400390625
 31
0.0
  0
LINE
  5
250
100
AcDbEntity
  8
0
  6
CONTINUOUS
 62
               7
100
AcDbLine
 10
5.0
 20
15.499984741210938
 30
0.0
 11
23.0
 21
15.499984741210938
 31
0.0
  0
LINE
  5
251
100
AcDbEntity
  8
0
  6
CONTINUOUS
 62
               4
100
AcDbLine
 10
18.0
 20
76.499984741210937
 30
0.0
 11
18.0
 21
82.999984741210938
 31
0.0
  0
LINE
  5
252
100
AcDbEntity
  8
0
  6
CONTINUOUS
 62
               4
100
AcDbLine
 10
10.0
 20
76.499984741210937
 30
0.0
 11
10.0
 21
82.999984741210938
 31
0.0
  0
LINE
  5
253
100
AcDbEntity
  8
0
  6
CONTINUOUS
 62
               4
100
AcDbLine
 10
9.100006103515625
 20
76.499984741210937
 30
0.0
 11
9.100006103515625
 21
82.999984741210938
 31
0.0
  0
LINE
  5
254
100
AcDbEntity
  8
0
  6
CONTINUOUS
 62
               4
100
AcDbLine
 10
18.900009155273438
 20
76.499984741210937
 30
0.0
 11
18.900009155273438
 21
82.999984741210938
 31
0.0
  0
LINE
  5
255
100
AcDbEntity
  8
0
  6
CONTINUOUS
 62
               4
100
AcDbLine
 10
11.284988403320313
 20
82.999984741210938
 30
0.0
 11
11.284988403320313
 21
86.290756225585937
 31
0.0
  0
LINE
  5
256
100
AcDbEntity
  8
0
  6
CONTINUOUS
 62
               4
100
AcDbLine
 10
12.715011596679687
 20
82.999984741210938
 30
0.0
 11
12.715011596679687
 21
86.673934936523438
 31
0.0
  0
LINE
  5
257
100
AcDbEntity
  8
0
  6
CONTINUOUS
 62
               4
100
AcDbLine
 10
11.599990844726563
 20
95.999984741210938
 30
0.0
 11
12.399993896484375
 21
95.999984741210938
 31
0.0
  0
LINE
  5
258
100
AcDbEntity
  8
0
  6
CONTINUOUS
 62
               4
100
AcDbLine
 10
11.599990844726563
 20
90.999984741210938
 30
0.0
 11
11.599990844726563
 21
95.999984741210938
 31
0.0
  0
LINE
  5
259
100
AcDbEntity
  8
0
  6
CONTINUOUS
 62
               4
100
AcDbLine
 10
12.400009155273438
 20
90.999984741210938
 30
0.0
 11
12.400009155273438
 21
95.999984741210938
 31
0.0
  0
LINE
  5
25A
100
AcDbEntity
  8
0
  6
CONTINUOUS
 62
               4
100
AcDbLine
 10
11.284988403320313
 20
90.999984741210938
 30
0.0
 11
12.714996337890625
 21
90.999984741210938
 31
0.0
  0
LINE
  5
25B
100
AcDbEntity
  8
0
  6
CONTINUOUS
 62
               4
100
AcDbLine
 10
11.284988403320313
 20
87.326034545898438
 30
0.0
 11
11.284988403320313
 21
90.999984741210938
 31
0.0
  0
LINE
  5
25C
100
AcDbEntity
  8
0
  6
CONTINUOUS
 62
               4
100
AcDbLine
 10
12.715011596679687
 20
87.709213256835938
 30
0.0
 11
12.715011596679687
 21
90.999984741210938
 31
0.0
  0
LINE
  5
25D
100
AcDbEntity
  8
0
  6
CONTINUOUS
 62
               4
100
AcDbLine
 10
18.050003051757813
 20
75.499984741210938
 30
0.0
 11
18.050003051757813
 21
76.499984741210937
 31
0.0
  0
LINE
  5
25E
100
AcDbEntity
  8
0
  6
CONTINUOUS
 62
               4
100
AcDbLine
 10
9.9499969482421875
 20
75.499984741210938
 30
0.0
 11
9.9499969482421875
 21
76.499984741210937
 31
0.0
  0
LINE
  5
25F
100
AcDbEntity
  8
0
  6
CONTINUOUS
 62
               4
100
AcDbLine
 10
9.9499969482421875
 20
74.499984741210938
 30
0.0
 11
10.500015258789062
 21
74.499984741210938
 31
0.0
  0
LINE
  5
260
100
AcDbEntity
  8
0
  6
CONTINUOUS
 62
               4
100
AcDbLine
 10
9.9499969482421875
 20
75.499984741210938
 30
0.0
 11
10.500015258789062
 21
75.499984741210938
 31
0.0
  0
LINE
  5
261
100
AcDbEntity
  8
0
  6
CONTINUOUS
 62
               4
100
AcDbLine
 10
17.500015258789063
 20
74.499984741210938
 30
0.0
 11
18.050003051757813
 21
74.499984741210938
 31
0.0
  0
LINE
  5
262
100
AcDbEntity
  8
0
  6
CONTINUOUS
 62
               4
100
AcDbLine
 10
17.500015258789063
 20
75.499984741210938
 30
0.0
 11
18.050003051757813
 21
75.499984741210938
 31
0.0
  0
LINE
  5
263
100
AcDbEntity
  8
0
  6
CONTINUOUS
 62
               4
100
AcDbLine
 10
17.500015258789063
 20
76.499984741210937
 30
0.0
 11
18.949996948242188
 21
76.499984741210937
 31
0.0
  0
LINE
  5
264
100
AcDbEntity
  8
0
  6
CONTINUOUS
 62
               4
100
AcDbLine
 10
9.100006103515625
 20
82.999984741210938
 30
0.0
 11
18.900009155273438
 21
82.999984741210938
 31
0.0
  0
LINE
  5
265
100
AcDbEntity
  8
0
  6
CONTINUOUS
 62
               4
100
AcDbLine
 10
10.500015258789062
 20
81.499984741210937
 30
0.0
 11
17.500015258789063
 21
81.499984741210937
 31
0.0
  0
LINE
  5
266
100
AcDbEntity
  8
0
  6
CONTINUOUS
 62
               4
100
AcDbLine
 10
10.500015258789062
 20
76.056137084960937
 30
0.0
 11
17.500015258789063
 21
76.056137084960937
 31
0.0
  0
LINE
  5
267
100
AcDbEntity
  8
0
  6
CONTINUOUS
 62
               4
100
AcDbLine
 10
10.500015258789062
 20
72.498458862304688
 30
0.0
 11
17.500015258789063
 21
72.498458862304688
 31
0.0
  0
LINE
  5
268
100
AcDbEntity
  8
0
  6
CONTINUOUS
 62
               4
100
AcDbLine
 10
10.5
 20
72.498458862304688
 30
0.0
 11
10.5
 21
82.999984741210938
 31
0.0
  0
LINE
  5
269
100
AcDbEntity
  8
0
  6
CONTINUOUS
 62
               4
100
AcDbLine
 10
17.5
 20
72.498458862304688
 30
0.0
 11
17.5
 21
82.999984741210938
 31
0.0
  0
LINE
  5
26A
100
AcDbEntity
  8
0
  6
CONTINUOUS
 62
               4
100
AcDbLine
 10
18.050003051757813
 20
71.999984741210937
 30
0.0
 11
18.050003051757813
 21
74.499984741210938
 31
0.0
  0
LINE
  5
26B
100
AcDbEntity
  8
0
  6
CONTINUOUS
 62
               4
100
AcDbLine
 10
9.9499969482421875
 20
71.999984741210937
 30
0.0
 11
9.9499969482421875
 21
74.499984741210938
 31
0.0
  0
LINE
  5
26C
100
AcDbEntity
  8
0
  6
CONTINUOUS
 62
               4
100
AcDbLine
 10
9.0500030517578125
 20
76.499984741210937
 30
0.0
 11
10.500015258789062
 21
76.499984741210937
 31
0.0
  0
LINE
  5
26D
100
AcDbEntity
  8
0
  6
CONTINUOUS
 62
               4
100
AcDbLine
 10
18.949996948242188
 20
62.999984741210938
 30
0.0
 11
18.949996948242188
 21
76.499984741210937
 31
0.0
  0
LINE
  5
26E
100
AcDbEntity
  8
0
  6
CONTINUOUS
 62
               2
100
AcDbLine
 10
18.949996948242188
 20
67.499984741210938
 30
0.0
 11
9.0500030517578125
 21
67.499984741210938
 31
0.0
  0
LINE
  5
26F
100
AcDbEntity
  8
0
  6
CONTINUOUS
 62
               4
100
AcDbLine
 10
18.500015258789063
 20
71.999984741210937
 30
0.0
 11
9.5000152587890625
 21
71.999984741210937
 31
0.0
  0
LINE
  5
270
100
AcDbEntity
  8
0
  6
CONTINUOUS
 62
               4
100
AcDbLine
 10
9.0500030517578125
 20
62.999984741210938
 30
0.0
 11
9.0500030517578125
 21
76.499984741210937
 31
0.0
  0
LINE
  5
271
100
AcDbEntity
  8
0
  6
CONTINUOUS
 62
               7
100
AcDbLine
 10
12.073211669921875
 20
35.999984741210937
 30
0.0
 11
15.926788330078125
 21
35.999984741210937
 31
0.0
  0
LINE
  5
272
100
AcDbEntity
  8
0
  6
CONTINUOUS
 62
               7
100
AcDbLine
 10
12.073211669921875
 20
35.399978637695312
 30
0.0
 11
15.926788330078125
 21
35.399978637695312
 31
0.0
  0
LINE
  5
273
100
AcDbEntity
  8
0
  6
CONTINUOUS
 62
               7
100
AcDbLine
 10
9.0
 20
38.999984741210938
 30
0.0
 11
19.0
 21
38.999984741210938
 31
0.0
  0
LINE
  5
274
100
AcDbEntity
  8
0
  6
CONTINUOUS
 62
               4
100
AcDbLine
 10
9.0000152587890625
 20
62.999984741210938
 30
0.0
 11
19.000015258789063
 21
62.999984741210938
 31
0.0
  0
LINE
  5
275
100
AcDbEntity
  8
0
  6
CONTINUOUS
 62
             200
100
AcDbLine
 10
14.0
 20
-80.970632553100586
 30
0.0
 11
14.0
 21
-60.500019073486328
 31
0.0
  0
LINE
  5
276
100
AcDbEntity
  8
0
  6
CONTINUOUS
 62
               2
100
AcDbLine
 10
11.5
 20
35.699981689453125
 30
0.0
 11
16.5
 21
35.699981689453125
 31
0.0
  0
LINE
  5
277
100
AcDbEntity
  8
0
  6
CONTINUOUS
 62
               7
100
AcDbLine
 10
9.0
 20
29.499984741210938
 30
0.0
 11
19.0
 21
29.499984741210938
 31
0.0
  0
LINE
  5
278
100
AcDbEntity
  8
0
  6
CONTINUOUS
 62
               2
100
AcDbLine
 10
85.0
 20
-3.25
 30
0.0
 11
85.0
 21
3.25
 31
0.0
  0
LINE
  5
279
100
AcDbEntity
  8
0
  6
CONTINUOUS
 62
               2
100
AcDbLine
 10
0.0
 20
-3.25
 30
0.0
 11
0.0
 21
3.25
 31
0.0
  0
LINE
  5
27A
100
AcDbEntity
  8
0
  6
CONTINUOUS
 62
               2
100
AcDbLine
 10
81.749984741210938
 20
-23.000015258789063
 30
0.0
 11
88.25
 21
-23.000015258789063
 31
0.0
  0
LINE
  5
27B
100
AcDbEntity
  8
0
  6
CONTINUOUS
 62
               2
100
AcDbLine
 10
81.75
 20
-0.0000152587890625
 30
0.0
 11
88.249984741210937
 21
-0.0000152587890625
 31
0.0
  0
LINE
  5
27C
100
AcDbEntity
  8
0
  6
CONTINUOUS
 62
               2
100
AcDbLine
 10
-3.25
 20
0.0
 30
0.0
 11
3.25
 21
0.0
 31
0.0
  0
LINE
  5
27D
100
AcDbEntity
  8
0
  6
CONTINUOUS
 62
               2
100
AcDbLine
 10
-3.25
 20
-23.000015258789063
 30
0.0
 11
3.25
 21
-23.000015258789063
 31
0.0
  0
LINE
  5
27E
100
AcDbEntity
  8
0
  6
CONTINUOUS
 62
               2
100
AcDbLine
 10
85.0
 20
-26.250015258789063
 30
0.0
 11
85.0
 21
-19.750015258789063
 31
0.0
  0
LINE
  5
27F
100
AcDbEntity
  8
0
  6
CONTINUOUS
 62
               2
100
AcDbLine
 10
0.0
 20
-26.250015258789063
 30
0.0
 11
0.0
 21
-19.750015258789063
 31
0.0
  0
LINE
  5
280
100
AcDbEntity
  8
0
  6
CONTINUOUS
 62
               7
100
AcDbLine
 10
61.0
 20
-48.000015258789063
 30
0.0
 11
90.0
 21
-48.000015258789063
 31
0.0
  0
LINE
  5
281
100
AcDbEntity
  8
0
  6
CONTINUOUS
 62
               7
100
AcDbLine
 10
42.0
 20
-48.000015258789063
 30
0.0
 11
43.0
 21
-48.000015258789063
 31
0.0
  0
LINE
  5
282
100
AcDbEntity
  8
0
  6
CONTINUOUS
 62
               7
100
AcDbLine
 10
23.0
 20
-48.000015258789063
 30
0.0
 11
24.0
 21
-48.000015258789063
 31
0.0
  0
LINE
  5
283
100
AcDbEntity
  8
0
  6
CONTINUOUS
 62
               7
100
AcDbLine
 10
57.0
 20
29.0
 30
0.0
 11
90.0
 21
29.0
 31
0.0
  0
LINE
  5
284
100
AcDbEntity
  8
0
  6
CONTINUOUS
 62
               7
100
AcDbLine
 10
19.0
 20
29.0
 30
0.0
 11
28.0
 21
29.0
 31
0.0
  0
LINE
  5
285
100
AcDbEntity
  8
0
  6
CONTINUOUS
 62
               7
100
AcDbLine
 10
-5.0
 20
-48.000015258789063
 30
0.0
 11
5.0
 21
-48.000015258789063
 31
0.0
  0
LINE
  5
286
100
AcDbEntity
  8
0
  6
CONTINUOUS
 62
               7
100
AcDbLine
 10
90.0
 20
-48.000015258789063
 30
0.0
 11
90.0
 21
29.0
 31
0.0
  0
LINE
  5
287
100
AcDbEntity
  8
0
  6
CONTINUOUS
 62
               7
100
AcDbLine
 10
-5.0
 20
-48.000015258789063
 30
0.0
 11
-5.0
 21
29.0
 31
0.0
  0
LINE
  5
288
100
AcDbEntity
  8
0
  6
CONTINUOUS
 62
               4
100
AcDbLine
 10
79.762191772460938
 20
7.350006103515625
 30
0.0
 11
80.0
 21
7.350006103515625
 31
0.0
  0
LINE
  5
289
100
AcDbEntity
  8
0
  6
CONTINUOUS
 62
               4
100
AcDbLine
 10
79.762176513671875
 20
10.650009155273438
 30
0.0
 11
80.0
 21
10.650009155273438
 31
0.0
  0
LINE
  5
28A
100
AcDbEntity
  8
0
  6
CONTINUOUS
 62
               4
100
AcDbLine
 10
62.0
 20
-32.649993896484375
 30
0.0
 11
62.237823486328125
 21
-32.649993896484375
 31
0.0
  0
LINE
  5
28B
100
AcDbEntity
  8
0
  6
CONTINUOUS
 62
               4
100
AcDbLine
 10
62.0
 20
-29.349990844726563
 30
0.0
 11
62.237823486328125
 21
-29.349990844726563
 31
0.0
  0
LINE
  5
28C
100
AcDbEntity
  8
0
  6
CONTINUOUS
 62
               4
100
AcDbLine
 10
62.0
 20
-37.999984741210937
 30
0.0
 11
80.0
 21
-37.999984741210937
 31
0.0
  0
LINE
  5
28D
100
AcDbEntity
  8
0
  6
CONTINUOUS
 62
               4
100
AcDbLine
 10
80.0
 20
-37.999984741210937
 30
0.0
 11
80.0
 21
7.350006103515625
 31
0.0
  0
LINE
  5
28E
100
AcDbEntity
  8
0
  6
CONTINUOUS
 62
               4
100
AcDbLine
 10
80.0
 20
10.650009155273438
 30
0.0
 11
80.0
 21
27.000015258789063
 31
0.0
  0
LINE
  5
28F
100
AcDbEntity
  8
0
  6
CONTINUOUS
 62
               4
100
AcDbLine
 10
62.0
 20
-29.349990844726563
 30
0.0
 11
62.0
 21
27.000015258789063
 31
0.0
  0
LINE
  5
290
100
AcDbEntity
  8
0
  6
CONTINUOUS
 62
               4
100
AcDbLine
 10
76.439426551607539
 20
10.060687151097227
 30
0.0
 11
78.560736069269296
 21
7.9393774546224449
 31
0.0
  0
LINE
  5
291
100
AcDbEntity
  8
0
  6
CONTINUOUS
 62
               4
100
AcDbLine
 10
76.439372514231763
 20
7.9393343856572756
 30
0.0
 11
78.560693000300489
 21
10.060654692912067
 31
0.0
  0
LINE
  5
292
100
AcDbEntity
  8
0
  6
CONTINUOUS
 62
               4
100
AcDbLine
 10
63.439399727569253
 20
-29.939259344107086
 30
0.0
 11
65.560720034824044
 21
-32.060579830175811
 31
0.0
  0
LINE
  5
293
100
AcDbEntity
  8
0
  6
CONTINUOUS
 62
               4
100
AcDbLine
 10
63.43937805897167
 20
-32.060666057515846
 30
0.0
 11
65.560687755446452
 21
-29.939356539854089
 31
0.0
  0
LINE
  5
294
100
AcDbEntity
  8
0
  6
CONTINUOUS
 62
               4
100
AcDbLine
 10
62.0
 20
-37.999984741210937
 30
0.0
 11
62.0
 21
-32.649993896484375
 31
0.0
  0
LINE
  5
295
100
AcDbEntity
  8
0
  6
CONTINUOUS
 62
             200
100
AcDbLine
 10
71.0
 20
-80.342189788818359
 30
0.0
 11
71.0
 21
-48.000015258789063
 31
0.0
  0
ENDBLK
  5
296
100
AcDbEntity
  8
0
100
AcDbBlockEnd
  0
BLOCK
  5
297
100
AcDbEntity
  8
0
100
AcDbBlockBegin
  2
F18MA-2
 70
               0
 10
0.0
 20
0.0
 30
0.0
  3
F18MA-2
  1

  0
LINE
  5
298
100
AcDbEntity
  8
0
  6
CONTINUOUS
 62
               4
100
AcDbLine
 10
60.700006103515619
 20
90.999984741210938
 30
0.0
 11
60.700006103515619
 21
95.999969482421875
 31
0.0
  0
LINE
  5
299
100
AcDbEntity
  8
0
  6
CONTINUOUS
 62
               4
100
AcDbLine
 10
61.500009155273432
 20
90.999984741210938
 30
0.0
 11
61.500009155273432
 21
95.999984741210938
 31
0.0
  0
LINE
  5
29A
100
AcDbEntity
  8
0
  6
CONTINUOUS
 62
               4
100
AcDbLine
 10
64.000009155273432
 20
90.999984741210938
 30
0.0
 11
64.000009155273432
 21
95.999984741210938
 31
0.0
  0
LINE
  5
29B
100
AcDbEntity
  8
0
  6
CONTINUOUS
 62
               4
100
AcDbLine
 10
63.200006103515619
 20
90.999984741210938
 30
0.0
 11
63.200006103515619
 21
95.999984741210938
 31
0.0
  0
LINE
  5
29C
100
AcDbEntity
  8
0
  6
CONTINUOUS
 62
             200
100
AcDbLine
 10
17.250007629394531
 20
-81.973528707085507
 30
0.0
 11
17.250007629394531
 21
-56.0000148881836
 31
0.0
  0
LINE
  5
29D
100
AcDbEntity
  8
0
  6
CONTINUOUS
 62
             200
100
AcDbLine
 10
36.000007629394531
 20
-81.973528707085507
 30
0.0
 11
36.000007629394531
 21
-56.000014888183593
 31
0.0
  0
LINE
  5
29E
100
AcDbEntity
  8
0
  6
CONTINUOUS
 62
               2
100
AcDbLine
 10
-3.0
 20
-23.000015258789063
 30
0.0
 11
3.0
 21
-23.000015258789063
 31
0.0
  0
LINE
  5
29F
100
AcDbEntity
  8
0
  6
CONTINUOUS
 62
               2
100
AcDbLine
 10
-3.0
 20
0.0
 30
0.0
 11
3.0
 21
0.0
 31
0.0
  0
LINE
  5
2A0
100
AcDbEntity
  8
0
  6
CONTINUOUS
 62
               7
100
AcDbLine
 10
53.499997999305805
 20
15.49996948242179
 30
0.0
 11
52.999997999305805
 21
15.499969444672843
 31
0.0
  0
LINE
  5
2A1
100
AcDbEntity
  8
0
  6
CONTINUOUS
 62
               7
100
AcDbLine
 10
53.500002000694195
 20
-37.500030517578047
 30
0.0
 11
53.000002000694195
 21
-37.500030555326994
 31
0.0
  0
LINE
  5
2A2
100
AcDbEntity
  8
0
  6
CONTINUOUS
 62
               7
100
AcDbLine
 10
53.499997527443966
 20
21.74996948242179
 30
0.0
 11
52.999997527443966
 21
21.749969444672843
 31
0.0
  0
LINE
  5
2A3
100
AcDbEntity
  8
0
  6
CONTINUOUS
 62
               7
100
AcDbLine
 10
53.499997791686596
 20
18.24996948242179
 30
0.0
 11
52.999997791686596
 21
18.249969444672843
 31
0.0
  0
LINE
  5
2A4
100
AcDbEntity
  8
0
  6
CONTINUOUS
 62
               4
100
AcDbLine
 10
49.335919228755799
 20
-53.000007258789019
 30
0.0
 11
44.139753591550111
 21
-56.000014888183593
 31
0.0
  0
LINE
  5
2A5
100
AcDbEntity
  8
0
  6
CONTINUOUS
 62
               4
100
AcDbLine
 10
0.2000076293945199
 20
-51.0000148881836
 30
0.0
 11
8.8602616672389445
 21
-56.0000148881836
 31
0.0
  0
LINE
  5
2A6
100
AcDbEntity
  8
0
  6
CONTINUOUS
 62
               4
100
AcDbLine
 10
26.000007629394524
 20
-71.800014888183611
 30
0.0
 11
8.0000076293945313
 21
-71.800014888183611
 31
0.0
  0
LINE
  5
2A7
100
AcDbEntity
  8
0
  6
CONTINUOUS
 62
               4
100
AcDbLine
 10
26.000007629394524
 20
-73.0000148881836
 30
0.0
 11
8.0000076293945313
 21
-73.0000148881836
 31
0.0
  0
LINE
  5
2A8
100
AcDbEntity
  8
0
  6
CONTINUOUS
 62
               4
100
AcDbLine
 10
26.000007629394524
 20
-75.364927888183601
 30
0.0
 11
8.0000076293945313
 21
-75.364927888183601
 31
0.0
  0
LINE
  5
2A9
100
AcDbEntity
  8
0
  6
CONTINUOUS
 62
               4
100
AcDbLine
 10
25.246417229394524
 20
-75.800013888183614
 30
0.0
 11
8.7535980293945244
 21
-75.800013888183614
 31
0.0
  0
LINE
  5
2AA
100
AcDbEntity
  8
0
  6
CONTINUOUS
 62
               4
100
AcDbLine
 10
24.100007629394526
 20
-77.400014888183605
 30
0.0
 11
9.9000076293945227
 21
-77.400014888183605
 31
0.0
  0
LINE
  5
2AB
100
AcDbEntity
  8
0
  6
CONTINUOUS
 62
               4
100
AcDbLine
 10
11.000007629394531
 20
-77.900014888183605
 30
0.0
 11
11.000007629394531
 21
-77.5000148881836
 31
0.0
  0
LINE
  5
2AC
100
AcDbEntity
  8
0
  6
CONTINUOUS
 62
               4
100
AcDbLine
 10
26.000007629394524
 20
-67.100014488183589
 30
0.0
 11
8.0000076293945313
 21
-67.100014488183589
 31
0.0
  0
LINE
  5
2AD
100
AcDbEntity
  8
0
  6
CONTINUOUS
 62
               4
100
AcDbLine
 10
8.2000076293945199
 20
-66.900014888183605
 30
0.0
 11
8.0000076293945313
 21
-66.7000146881836
 31
0.0
  0
LINE
  5
2AE
100
AcDbEntity
  8
0
  6
CONTINUOUS
 62
               4
100
AcDbLine
 10
25.300007629394514
 20
-72.800014888183611
 30
0.0
 11
25.300007629394514
 21
-71.900014888183605
 31
0.0
  0
LINE
  5
2AF
100
AcDbEntity
  8
0
  6
CONTINUOUS
 62
               4
100
AcDbLine
 10
8.7000076293945199
 20
-72.800014888183611
 30
0.0
 11
8.7000076293945199
 21
-71.900014888183605
 31
0.0
  0
LINE
  5
2B0
100
AcDbEntity
  8
0
  6
CONTINUOUS
 62
               4
100
AcDbLine
 10
8.0000076293945313
 20
-66.700014888183588
 30
0.0
 11
8.0000076293945313
 21
-55.503309288183587
 31
0.0
  0
LINE
  5
2B1
100
AcDbEntity
  8
0
  6
CONTINUOUS
 62
               4
100
AcDbLine
 10
25.800007629394521
 20
-66.900014888183605
 30
0.0
 11
26.000007629394524
 21
-66.7000146881836
 31
0.0
  0
LINE
  5
2B2
100
AcDbEntity
  8
0
  6
CONTINUOUS
 62
               4
100
AcDbLine
 10
26.000007629394524
 20
-71.800014888183611
 30
0.0
 11
25.90000762939453
 21
-71.900014888183605
 31
0.0
  0
LINE
  5
2B3
100
AcDbEntity
  8
0
  6
CONTINUOUS
 62
               4
100
AcDbLine
 10
8.0000076293945313
 20
-71.800014888183611
 30
0.0
 11
8.1000076293945256
 21
-71.900014888183605
 31
0.0
  0
LINE
  5
2B4
100
AcDbEntity
  8
0
  6
CONTINUOUS
 62
               4
100
AcDbLine
 10
25.800007629394521
 20
-66.900014288183613
 30
0.0
 11
26.000007629394524
 21
-67.100014488183589
 31
0.0
  0
LINE
  5
2B5
100
AcDbEntity
  8
0
  6
CONTINUOUS
 62
               4
100
AcDbLine
 10
26.000007629394524
 20
-71.800014888183611
 30
0.0
 11
26.000007629394524
 21
-67.100014488183589
 31
0.0
  0
LINE
  5
2B6
100
AcDbEntity
  8
0
  6
CONTINUOUS
 62
               4
100
AcDbLine
 10
8.0000076293945313
 20
-71.800014888183611
 30
0.0
 11
8.0000076293945313
 21
-67.100014488183589
 31
0.0
  0
LINE
  5
2B7
100
AcDbEntity
  8
0
  6
CONTINUOUS
 62
               4
100
AcDbLine
 10
25.800007629394521
 20
-66.900014488183601
 30
0.0
 11
8.2000076293945199
 21
-66.900014488183601
 31
0.0
  0
LINE
  5
2B8
100
AcDbEntity
  8
0
  6
CONTINUOUS
 62
               4
100
AcDbLine
 10
8.2000076293945199
 20
-66.900014288183613
 30
0.0
 11
8.0000076293945313
 21
-67.100014488183589
 31
0.0
  0
LINE
  5
2B9
100
AcDbEntity
  8
0
  6
CONTINUOUS
 62
               4
100
AcDbLine
 10
26.000007629394524
 20
-75.364928888183599
 30
0.0
 11
26.000007629394524
 21
-73.0000148881836
 31
0.0
  0
LINE
  5
2BA
100
AcDbEntity
  8
0
  6
CONTINUOUS
 62
               4
100
AcDbLine
 10
8.2000076293945199
 20
-72.800014888183611
 30
0.0
 11
8.0000076293945313
 21
-73.0000148881836
 31
0.0
  0
LINE
  5
2BB
100
AcDbEntity
  8
0
  6
CONTINUOUS
 62
               4
100
AcDbLine
 10
8.0000076293945313
 20
-75.364928888183599
 30
0.0
 11
8.0000076293945313
 21
-73.0000148881836
 31
0.0
  0
LINE
  5
2BC
100
AcDbEntity
  8
0
  6
CONTINUOUS
 62
               4
100
AcDbLine
 10
8.2000076293945199
 20
-72.800014888183611
 30
0.0
 11
25.800007629394521
 21
-72.800014888183611
 31
0.0
  0
LINE
  5
2BD
100
AcDbEntity
  8
0
  6
CONTINUOUS
 62
               4
100
AcDbLine
 10
25.246417229394524
 20
-75.800013888183614
 30
0.0
 11
24.900006829394528
 21
-76.400013888183608
 31
0.0
  0
LINE
  5
2BE
100
AcDbEntity
  8
0
  6
CONTINUOUS
 62
               4
100
AcDbLine
 10
8.7535980293945244
 20
-75.800013888183614
 30
0.0
 11
9.1000084293945207
 21
-76.400013888183608
 31
0.0
  0
LINE
  5
2BF
100
AcDbEntity
  8
0
  6
CONTINUOUS
 62
               4
100
AcDbLine
 10
8.0000076293945313
 20
-75.364927888183601
 30
0.0
 11
8.7535980293945244
 21
-75.800013888183614
 31
0.0
  0
LINE
  5
2C0
100
AcDbEntity
  8
0
  6
CONTINUOUS
 62
               4
100
AcDbLine
 10
26.000007629394524
 20
-75.364927888183601
 30
0.0
 11
25.246417229394524
 21
-75.800013888183614
 31
0.0
  0
LINE
  5
2C1
100
AcDbEntity
  8
0
  6
CONTINUOUS
 62
               4
100
AcDbLine
 10
25.800007629394521
 20
-72.800014888183611
 30
0.0
 11
26.000007629394524
 21
-73.0000148881836
 31
0.0
  0
LINE
  5
2C2
100
AcDbEntity
  8
0
  6
CONTINUOUS
 62
               4
100
AcDbLine
 10
24.900007629394537
 20
-76.400013888183608
 30
0.0
 11
9.1000084293945207
 21
-76.400013888183608
 31
0.0
  0
LINE
  5
2C3
100
AcDbEntity
  8
0
  6
CONTINUOUS
 62
               4
100
AcDbLine
 10
8.1000076293945256
 20
-71.900014888183605
 30
0.0
 11
25.90000762939453
 21
-71.900014888183605
 31
0.0
  0
LINE
  5
2C4
100
AcDbEntity
  8
0
  6
CONTINUOUS
 62
               4
100
AcDbLine
 10
24.100007629394526
 20
-77.400014888183605
 30
0.0
 11
24.100007629394526
 21
-76.400013888183608
 31
0.0
  0
LINE
  5
2C5
100
AcDbEntity
  8
0
  6
CONTINUOUS
 62
               4
100
AcDbLine
 10
24.000007629394531
 20
-77.5000148881836
 30
0.0
 11
10.000007629394531
 21
-77.5000148881836
 31
0.0
  0
LINE
  5
2C6
100
AcDbEntity
  8
0
  6
CONTINUOUS
 62
               4
100
AcDbLine
 10
24.000007629394531
 20
-77.5000148881836
 30
0.0
 11
24.100007629394526
 21
-77.400014888183605
 31
0.0
  0
LINE
  5
2C7
100
AcDbEntity
  8
0
  6
CONTINUOUS
 62
               4
100
AcDbLine
 10
10.000007629394531
 20
-77.5000148881836
 30
0.0
 11
9.9000076293945227
 21
-77.400014888183605
 31
0.0
  0
LINE
  5
2C8
100
AcDbEntity
  8
0
  6
CONTINUOUS
 62
               4
100
AcDbLine
 10
9.9000076293945227
 20
-77.400014888183605
 30
0.0
 11
9.9000076293945227
 21
-76.400013888183608
 31
0.0
  0
LINE
  5
2C9
100
AcDbEntity
  8
0
  6
CONTINUOUS
 62
               4
100
AcDbLine
 10
23.000007629394531
 20
-77.900014888183605
 30
0.0
 11
23.000007629394531
 21
-77.5000148881836
 31
0.0
  0
LINE
  5
2CA
100
AcDbEntity
  8
0
  6
CONTINUOUS
 62
               4
100
AcDbLine
 10
25.400007629394537
 20
-79.300695888183597
 30
0.0
 11
25.400007629394537
 21
-78.400014888183605
 31
0.0
  0
LINE
  5
2CB
100
AcDbEntity
  8
0
  6
CONTINUOUS
 62
               4
100
AcDbLine
 10
8.6000076293945256
 20
-78.400014888183605
 30
0.0
 11
25.400007629394537
 21
-78.400014888183605
 31
0.0
  0
LINE
  5
2CC
100
AcDbEntity
  8
0
  6
CONTINUOUS
 62
               4
100
AcDbLine
 10
25.100007629394526
 20
-79.600014888183594
 30
0.0
 11
8.9000076293945227
 21
-79.600014888183594
 31
0.0
  0
LINE
  5
2CD
100
AcDbEntity
  8
0
  6
CONTINUOUS
 62
               4
100
AcDbLine
 10
8.6000076293945256
 20
-79.300695888183597
 30
0.0
 11
8.6000076293945256
 21
-78.400014888183605
 31
0.0
  0
ARC
  5
2CE
100
AcDbEntity
  8
0
  6
CONTINUOUS
 62
               4
100
AcDbCircle
 10
10.500007629394531
 20
-77.900014888183605
 30
0.0
 40
0.5
100
AcDbArc
 50
269.99999999999937
 51
0.0000000000002036
  0
ARC
  5
2CF
100
AcDbEntity
  8
0
  6
CONTINUOUS
 62
               4
100
AcDbCircle
 10
25.100007629394526
 20
-79.300014888183611
 30
0.0
 40
0.3
100
AcDbArc
 50
269.99999999999937
 51
0.0000000000002036
  0
ARC
  5
2D0
100
AcDbEntity
  8
0
  6
CONTINUOUS
 62
               4
100
AcDbCircle
 10
23.500007629394531
 20
-77.900014888183605
 30
0.0
 40
0.5
100
AcDbArc
 50
180.0000000000002
 51
270.00000000000023
  0
ARC
  5
2D1
100
AcDbEntity
  8
0
  6
CONTINUOUS
 62
               4
100
AcDbCircle
 10
8.9000076293945227
 20
-79.300014888183611
 30
0.0
 40
0.3
100
AcDbArc
 50
180.0000000000002
 51
270.00000000000023
  0
LINE
  5
2D2
100
AcDbEntity
  8
0
  6
CONTINUOUS
 62
               4
100
AcDbLine
 10
8.8602616672389303
 20
-56.0000148881836
 30
0.0
 11
26.500007629394524
 21
-56.0000148881836
 31
0.0
  0
LINE
  5
2D3
100
AcDbEntity
  8
0
  6
CONTINUOUS
 62
               4
100
AcDbLine
 10
8.0000076293945313
 20
-66.7000146881836
 30
0.0
 11
26.500007629394524
 21
-66.7000146881836
 31
0.0
  0
LINE
  5
2D4
100
AcDbEntity
  8
0
  6
CONTINUOUS
 62
               4
100
AcDbLine
 10
44.139753591550118
 20
-56.000014888183593
 30
0.0
 11
26.500007629394524
 21
-56.0000148881836
 31
0.0
  0
LINE
  5
2D5
100
AcDbEntity
  8
0
  6
CONTINUOUS
 62
               4
100
AcDbLine
 10
52.800007629394528
 20
-51.000014888183593
 30
0.0
 11
45.500007617473599
 21
-51.000014888183593
 31
0.0
  0
LINE
  5
2D6
100
AcDbEntity
  8
0
  6
CONTINUOUS
 62
               4
100
AcDbLine
 10
45.500007629394524
 20
-55.214671853267852
 30
0.0
 11
45.500007629394524
 21
-51.000014888183593
 31
0.0
  0
ARC
  5
2D7
100
AcDbEntity
  8
0
  6
CONTINUOUS
 62
               4
100
AcDbCircle
 10
44.100007629394526
 20
-79.300014888183611
 30
0.0
 40
0.3
100
AcDbArc
 50
269.99999999999858
 51
359.99999999999858
  0
ARC
  5
2D8
100
AcDbEntity
  8
0
  6
CONTINUOUS
 62
               4
100
AcDbCircle
 10
29.500007629394531
 20
-77.900014888183605
 30
0.0
 40
0.5
100
AcDbArc
 50
269.99999999999858
 51
359.99999999999858
  0
ARC
  5
2D9
100
AcDbEntity
  8
0
  6
CONTINUOUS
 62
               4
100
AcDbCircle
 10
27.900007629394537
 20
-79.300014888183611
 30
0.0
 40
0.3
100
AcDbArc
 50
179.9999999999994
 51
269.99999999999937
  0
ARC
  5
2DA
100
AcDbEntity
  8
0
  6
CONTINUOUS
 62
               4
100
AcDbCircle
 10
42.500007629394524
 20
-77.900014888183605
 30
0.0
 40
0.5
100
AcDbArc
 50
179.9999999999994
 51
269.99999999999937
  0
LINE
  5
2DB
100
AcDbEntity
  8
0
  6
CONTINUOUS
 62
               4
100
AcDbLine
 10
44.400007629394523
 20
-79.300695888183597
 30
0.0
 11
44.400007629394523
 21
-78.400014888183605
 31
0.0
  0
LINE
  5
2DC
100
AcDbEntity
  8
0
  6
CONTINUOUS
 62
               4
100
AcDbLine
 10
27.900007629394537
 20
-79.600014888183594
 30
0.0
 11
44.100007629394526
 21
-79.600014888183594
 31
0.0
  0
LINE
  5
2DD
100
AcDbEntity
  8
0
  6
CONTINUOUS
 62
               4
100
AcDbLine
 10
44.400007629394523
 20
-78.400014888183605
 30
0.0
 11
27.600007629394526
 21
-78.400014888183605
 31
0.0
  0
LINE
  5
2DE
100
AcDbEntity
  8
0
  6
CONTINUOUS
 62
               4
100
AcDbLine
 10
27.600007629394526
 20
-79.300695888183597
 30
0.0
 11
27.600007629394526
 21
-78.400014888183605
 31
0.0
  0
LINE
  5
2DF
100
AcDbEntity
  8
0
  6
CONTINUOUS
 62
               4
100
AcDbLine
 10
30.000007629394531
 20
-77.900014888183605
 30
0.0
 11
30.000007629394531
 21
-77.5000148881836
 31
0.0
  0
LINE
  5
2E0
100
AcDbEntity
  8
0
  6
CONTINUOUS
 62
               4
100
AcDbLine
 10
43.100007629394526
 20
-77.400014888183605
 30
0.0
 11
43.100007629394526
 21
-76.400013888183608
 31
0.0
  0
LINE
  5
2E1
100
AcDbEntity
  8
0
  6
CONTINUOUS
 62
               4
100
AcDbLine
 10
43.000007629394524
 20
-77.5000148881836
 30
0.0
 11
43.100007629394526
 21
-77.400014888183605
 31
0.0
  0
LINE
  5
2E2
100
AcDbEntity
  8
0
  6
CONTINUOUS
 62
               4
100
AcDbLine
 10
29.000007629394531
 20
-77.5000148881836
 30
0.0
 11
28.900007629394537
 21
-77.400014888183605
 31
0.0
  0
LINE
  5
2E3
100
AcDbEntity
  8
0
  6
CONTINUOUS
 62
               4
100
AcDbLine
 10
29.000007629394531
 20
-77.5000148881836
 30
0.0
 11
43.000007629394524
 21
-77.5000148881836
 31
0.0
  0
LINE
  5
2E4
100
AcDbEntity
  8
0
  6
CONTINUOUS
 62
               4
100
AcDbLine
 10
28.900007629394537
 20
-77.400014888183605
 30
0.0
 11
28.90000762939453
 21
-76.400013888183608
 31
0.0
  0
LINE
  5
2E5
100
AcDbEntity
  8
0
  6
CONTINUOUS
 62
               4
100
AcDbLine
 10
44.900007629394523
 20
-71.900014888183605
 30
0.0
 11
27.100007629394518
 21
-71.900014888183605
 31
0.0
  0
LINE
  5
2E6
100
AcDbEntity
  8
0
  6
CONTINUOUS
 62
               4
100
AcDbLine
 10
28.100007629394518
 20
-76.400013888183608
 30
0.0
 11
43.900006829394528
 21
-76.400013888183608
 31
0.0
  0
LINE
  5
2E7
100
AcDbEntity
  8
0
  6
CONTINUOUS
 62
               4
100
AcDbLine
 10
27.200007629394527
 20
-72.800014888183611
 30
0.0
 11
27.000007629394524
 21
-73.0000148881836
 31
0.0
  0
LINE
  5
2E8
100
AcDbEntity
  8
0
  6
CONTINUOUS
 62
               4
100
AcDbLine
 10
27.000007629394524
 20
-75.364927888183601
 30
0.0
 11
27.753598029394517
 21
-75.800013888183614
 31
0.0
  0
LINE
  5
2E9
100
AcDbEntity
  8
0
  6
CONTINUOUS
 62
               4
100
AcDbLine
 10
45.000007629394524
 20
-75.364927888183601
 30
0.0
 11
44.246417229394524
 21
-75.800013888183614
 31
0.0
  0
LINE
  5
2EA
100
AcDbEntity
  8
0
  6
CONTINUOUS
 62
               4
100
AcDbLine
 10
44.246417229394524
 20
-75.800013888183614
 30
0.0
 11
43.900006829394528
 21
-76.400013888183608
 31
0.0
  0
LINE
  5
2EB
100
AcDbEntity
  8
0
  6
CONTINUOUS
 62
               4
100
AcDbLine
 10
27.753598029394517
 20
-75.800013888183614
 30
0.0
 11
28.100008429394528
 21
-76.400013888183608
 31
0.0
  0
LINE
  5
2EC
100
AcDbEntity
  8
0
  6
CONTINUOUS
 62
               4
100
AcDbLine
 10
44.800007629394521
 20
-72.800014888183611
 30
0.0
 11
27.200007629394527
 21
-72.800014888183611
 31
0.0
  0
LINE
  5
2ED
100
AcDbEntity
  8
0
  6
CONTINUOUS
 62
               4
100
AcDbLine
 10
45.000007629394524
 20
-75.364928888183599
 30
0.0
 11
45.000007629394524
 21
-73.0000148881836
 31
0.0
  0
LINE
  5
2EE
100
AcDbEntity
  8
0
  6
CONTINUOUS
 62
               4
100
AcDbLine
 10
44.800007629394521
 20
-72.800014888183611
 30
0.0
 11
45.000007629394524
 21
-73.0000148881836
 31
0.0
  0
LINE
  5
2EF
100
AcDbEntity
  8
0
  6
CONTINUOUS
 62
               4
100
AcDbLine
 10
27.000007629394524
 20
-75.364928888183599
 30
0.0
 11
27.000007629394524
 21
-73.0000148881836
 31
0.0
  0
LINE
  5
2F0
100
AcDbEntity
  8
0
  6
CONTINUOUS
 62
               4
100
AcDbLine
 10
44.800007629394521
 20
-66.900014288183613
 30
0.0
 11
45.000007629394524
 21
-67.100014488183589
 31
0.0
  0
LINE
  5
2F1
100
AcDbEntity
  8
0
  6
CONTINUOUS
 62
               4
100
AcDbLine
 10
27.200007629394527
 20
-66.900014488183601
 30
0.0
 11
44.800007629394521
 21
-66.900014488183601
 31
0.0
  0
LINE
  5
2F2
100
AcDbEntity
  8
0
  6
CONTINUOUS
 62
               4
100
AcDbLine
 10
45.000007629394524
 20
-71.800014888183611
 30
0.0
 11
45.000007629394524
 21
-67.100014488183589
 31
0.0
  0
LINE
  5
2F3
100
AcDbEntity
  8
0
  6
CONTINUOUS
 62
               4
100
AcDbLine
 10
27.000007629394524
 20
-71.800014888183611
 30
0.0
 11
27.000007629394524
 21
-67.100014488183589
 31
0.0
  0
LINE
  5
2F4
100
AcDbEntity
  8
0
  6
CONTINUOUS
 62
               4
100
AcDbLine
 10
27.200007629394527
 20
-66.900014288183613
 30
0.0
 11
27.000007629394524
 21
-67.100014488183589
 31
0.0
  0
LINE
  5
2F5
100
AcDbEntity
  8
0
  6
CONTINUOUS
 62
               4
100
AcDbLine
 10
45.000007629394524
 20
-71.800014888183611
 30
0.0
 11
44.900007629394523
 21
-71.900014888183605
 31
0.0
  0
LINE
  5
2F6
100
AcDbEntity
  8
0
  6
CONTINUOUS
 62
               4
100
AcDbLine
 10
27.000007629394524
 20
-71.800014888183611
 30
0.0
 11
27.100007629394518
 21
-71.900014888183605
 31
0.0
  0
LINE
  5
2F7
100
AcDbEntity
  8
0
  6
CONTINUOUS
 62
               4
100
AcDbLine
 10
27.200007629394527
 20
-66.900014888183605
 30
0.0
 11
27.000007629394524
 21
-66.7000146881836
 31
0.0
  0
LINE
  5
2F8
100
AcDbEntity
  8
0
  6
CONTINUOUS
 62
               4
100
AcDbLine
 10
45.000007629394524
 20
-66.700014888183588
 30
0.0
 11
45.000007629394524
 21
-55.50330928818358
 31
0.0
  0
LINE
  5
2F9
100
AcDbEntity
  8
0
  6
CONTINUOUS
 62
               4
100
AcDbLine
 10
44.300007629394521
 20
-72.800014888183611
 30
0.0
 11
44.300007629394521
 21
-71.900014888183605
 31
0.0
  0
LINE
  5
2FA
100
AcDbEntity
  8
0
  6
CONTINUOUS
 62
               4
100
AcDbLine
 10
27.700007629394527
 20
-72.800014888183611
 30
0.0
 11
27.700007629394527
 21
-71.900014888183605
 31
0.0
  0
LINE
  5
2FB
100
AcDbEntity
  8
0
  6
CONTINUOUS
 62
               4
100
AcDbLine
 10
45.000007629394524
 20
-66.7000146881836
 30
0.0
 11
26.500007629394524
 21
-66.7000146881836
 31
0.0
  0
LINE
  5
2FC
100
AcDbEntity
  8
0
  6
CONTINUOUS
 62
               4
100
AcDbLine
 10
44.800007629394521
 20
-66.900014888183605
 30
0.0
 11
45.000007629394524
 21
-66.7000146881836
 31
0.0
  0
LINE
  5
2FD
100
AcDbEntity
  8
0
  6
CONTINUOUS
 62
               4
100
AcDbLine
 10
27.000007629394524
 20
-67.100014488183589
 30
0.0
 11
45.000007629394524
 21
-67.100014488183589
 31
0.0
  0
LINE
  5
2FE
100
AcDbEntity
  8
0
  6
CONTINUOUS
 62
               4
100
AcDbLine
 10
42.000007629394524
 20
-77.900014888183605
 30
0.0
 11
42.000007629394524
 21
-77.5000148881836
 31
0.0
  0
LINE
  5
2FF
100
AcDbEntity
  8
0
  6
CONTINUOUS
 62
               4
100
AcDbLine
 10
28.900007629394537
 20
-77.400014888183605
 30
0.0
 11
43.100007629394526
 21
-77.400014888183605
 31
0.0
  0
LINE
  5
300
100
AcDbEntity
  8
0
  6
CONTINUOUS
 62
               4
100
AcDbLine
 10
27.753598029394517
 20
-75.800013888183614
 30
0.0
 11
44.246417229394524
 21
-75.800013888183614
 31
0.0
  0
LINE
  5
301
100
AcDbEntity
  8
0
  6
CONTINUOUS
 62
               4
100
AcDbLine
 10
27.000007629394524
 20
-75.364927888183601
 30
0.0
 11
45.000007629394524
 21
-75.364927888183601
 31
0.0
  0
LINE
  5
302
100
AcDbEntity
  8
0
  6
CONTINUOUS
 62
               4
100
AcDbLine
 10
27.000007629394524
 20
-73.0000148881836
 30
0.0
 11
45.000007629394524
 21
-73.0000148881836
 31
0.0
  0
LINE
  5
303
100
AcDbEntity
  8
0
  6
CONTINUOUS
 62
               4
100
AcDbLine
 10
27.000007629394524
 20
-71.800014888183611
 30
0.0
 11
45.000007629394524
 21
-71.800014888183611
 31
0.0
  0
LINE
  5
304
100
AcDbEntity
  8
0
  6
CONTINUOUS
 62
               4
100
AcDbLine
 10
52.800007629394528
 20
-51.000014888183593
 30
0.0
 11
51.186591771826357
 21
-51.931520967865382
 31
0.0
  0
LINE
  5
305
100
AcDbEntity
  8
0
  6
CONTINUOUS
 62
               4
100
AcDbLine
 10
49.749999642372131
 20
-53.000007258789019
 30
0.0
 11
47.249999642372131
 21
-53.000007258789019
 31
0.0
  0
ARC
  5
306
100
AcDbEntity
  8
0
  6
CONTINUOUS
 62
               4
100
AcDbCircle
 10
47.25
 20
-51.500007258789061
 30
0.0
 40
1.5
100
AcDbArc
 50
180.00001798608895
 51
269.99998633962105
  0
ARC
  5
307
100
AcDbEntity
  8
0
  6
CONTINUOUS
 62
               4
100
AcDbCircle
 10
49.75
 20
-51.500007258789061
 30
0.0
 40
1.5
100
AcDbArc
 50
269.99998633962105
 51
359.99992737239648
  0
LINE
  5
308
100
AcDbEntity
  8
0
  6
CONTINUOUS
 62
               4
100
AcDbLine
 10
45.75
 20
-51.500007258789061
 30
0.0
 11
45.75
 21
-51.000007258789061
 31
0.0
  0
LINE
  5
309
100
AcDbEntity
  8
0
  6
CONTINUOUS
 62
               4
100
AcDbLine
 10
51.25
 20
-51.500007258789061
 30
0.0
 11
51.25
 21
-51.000007258789061
 31
0.0
  0
LINE
  5
30A
100
AcDbEntity
  8
0
  6
CONTINUOUS
 62
               4
100
AcDbLine
 10
27.000007629394524
 20
-66.7000146881836
 30
0.0
 11
27.000007629394524
 21
-56.0000148881836
 31
0.0
  0
LINE
  5
30B
100
AcDbEntity
  8
0
  6
CONTINUOUS
 62
               4
100
AcDbLine
 10
26.000007629394524
 20
-66.7000146881836
 30
0.0
 11
26.000007629394524
 21
-56.0000148881836
 31
0.0
  0
LINE
  5
30C
100
AcDbEntity
  8
0
  6
CONTINUOUS
 62
               4
100
AcDbLine
 10
0.2000076293945199
 20
-51.0000148881836
 30
0.0
 11
0.2000076293945199
 21
-48.000015258789063
 31
0.0
  0
LINE
  5
30D
100
AcDbEntity
  8
0
  6
CONTINUOUS
 62
               4
100
AcDbLine
 10
52.800007629394528
 20
-51.000014888183593
 30
0.0
 11
52.800007629394528
 21
-48.000015258789063
 31
0.0
  0
LINE
  5
30E
100
AcDbEntity
  8
0
  6
CONTINUOUS
 62
               4
100
AcDbLine
 10
3.5000152587890625
 20
-52.905275181342347
 30
0.0
 11
3.5000152587890625
 21
-48.000015258789063
 31
0.0
  0
LINE
  5
30F
100
AcDbEntity
  8
0
  6
CONTINUOUS
 62
               4
100
AcDbLine
 10
9.5000152587890625
 20
-56.0000148881836
 30
0.0
 11
9.5000152587890625
 21
-48.000015258789063
 31
0.0
  0
LINE
  5
310
100
AcDbEntity
  8
0
  6
CONTINUOUS
 62
               4
100
AcDbLine
 10
56.0
 20
55.999984741210937
 30
0.0
 11
57.600000000000001
 21
55.999984741210937
 31
0.0
  0
LINE
  5
311
100
AcDbEntity
  8
0
  6
CONTINUOUS
 62
               4
100
AcDbLine
 10
56.700000000000003
 20
55.999984741210937
 30
0.0
 11
56.700000000000003
 21
62.999984741210938
 31
0.0
  0
LINE
  5
312
100
AcDbEntity
  8
0
  6
CONTINUOUS
 62
               4
100
AcDbLine
 10
57.600000000000001
 20
55.999984741210937
 30
0.0
 11
57.600000000000001
 21
62.999984741210938
 31
0.0
  0
LINE
  5
313
100
AcDbEntity
  8
0
  6
CONTINUOUS
 62
               4
100
AcDbLine
 10
56.0
 20
62.999984741210938
 30
0.0
 11
82.999992370605469
 21
62.999984741210938
 31
0.0
  0
LINE
  5
314
100
AcDbEntity
  8
0
  6
CONTINUOUS
 62
               4
100
AcDbLine
 10
67.099999999999994
 20
76.499984741210937
 30
0.0
 11
67.099999999999994
 21
71.999984741210937
 31
0.0
  0
LINE
  5
315
100
AcDbEntity
  8
0
  6
CONTINUOUS
 62
               4
100
AcDbLine
 10
58.149987792968744
 20
82.999984741210938
 30
0.0
 11
67.149987792968744
 21
82.999984741210938
 31
0.0
  0
LINE
  5
316
100
AcDbEntity
  8
0
  6
CONTINUOUS
 62
               4
100
AcDbLine
 10
58.5
 20
76.499984741210937
 30
0.0
 11
67.150003051757807
 21
76.499984741210937
 31
0.0
  0
LINE
  5
317
100
AcDbEntity
  8
0
  6
CONTINUOUS
 62
               4
100
AcDbLine
 10
67.727349853515619
 20
82.999984741210938
 30
0.0
 11
69.149995422363276
 21
82.999984741210938
 31
0.0
  0
LINE
  5
318
100
AcDbEntity
  8
0
  6
CONTINUOUS
 62
               4
100
AcDbLine
 10
67.099999999999994
 20
73.998443603515625
 30
0.0
 11
67.150003051757807
 21
73.998443603515625
 31
0.0
  0
LINE
  5
319
100
AcDbEntity
  8
0
  6
CONTINUOUS
 62
               4
100
AcDbLine
 10
67.150003051757807
 20
72.498443603515625
 30
0.0
 11
68.149995422363276
 21
72.498443603515625
 31
0.0
  0
LINE
  5
31A
100
AcDbEntity
  8
0
  6
CONTINUOUS
 62
               4
100
AcDbLine
 10
67.150003051757807
 20
73.998443603515625
 30
0.0
 11
67.150003051757807
 21
76.499984741210937
 31
0.0
  0
LINE
  5
31B
100
AcDbEntity
  8
0
  6
CONTINUOUS
 62
               4
100
AcDbLine
 10
68.649995422363276
 20
81.499984741210937
 30
0.0
 11
69.149995422363276
 21
81.499984741210937
 31
0.0
  0
LINE
  5
31C
100
AcDbEntity
  8
0
  6
CONTINUOUS
 62
               4
100
AcDbLine
 10
67.150000209407693
 20
72.498458893081079
 30
0.0
 11
67.099979656101453
 21
72.548479446387319
 31
0.0
  0
LINE
  5
31D
100
AcDbEntity
  8
0
  6
CONTINUOUS
 62
               4
100
AcDbLine
 10
58.650003051757807
 20
76.499984741210937
 30
0.0
 11
58.650003051757807
 21
81.999984741210937
 31
0.0
  0
LINE
  5
31E
100
AcDbEntity
  8
0
  6
CONTINUOUS
 62
               4
100
AcDbLine
 10
58.150003051757807
 20
81.999984741210937
 30
0.0
 11
58.150003051757807
 21
82.999984741210938
 31
0.0
  0
LINE
  5
31F
100
AcDbEntity
  8
0
  6
CONTINUOUS
 62
               4
100
AcDbLine
 10
58.149987792968744
 20
81.999984741210937
 30
0.0
 11
58.649987792968744
 21
81.999984741210937
 31
0.0
  0
LINE
  5
320
100
AcDbEntity
  8
0
  6
CONTINUOUS
 62
               4
100
AcDbLine
 10
68.650003051757807
 20
76.056137084960937
 30
0.0
 11
68.650003051757807
 21
81.499984741210937
 31
0.0
  0
LINE
  5
321
100
AcDbEntity
  8
0
  6
CONTINUOUS
 62
               4
100
AcDbLine
 10
68.150001302236518
 20
72.498435482970308
 30
0.0
 11
68.650000411113609
 21
76.056123566659153
 31
0.0
  0
LINE
  5
322
100
AcDbEntity
  8
0
  6
CONTINUOUS
 62
               4
100
AcDbLine
 10
67.150003051757807
 20
76.499984741210937
 30
0.0
 11
67.150003051757807
 21
82.999984741210938
 31
0.0
  0
LINE
  5
323
100
AcDbEntity
  8
0
  6
CONTINUOUS
 62
               4
100
AcDbLine
 10
67.150044511604023
 20
81.999943684112623
 30
0.0
 11
67.727396327367927
 21
82.999952389067403
 31
0.0
  0
LINE
  5
324
100
AcDbEntity
  8
0
  6
CONTINUOUS
 62
               4
100
AcDbLine
 10
69.150003051757807
 20
81.499984741210937
 30
0.0
 11
69.150003051757807
 21
82.999984741210938
 31
0.0
  0
LINE
  5
325
100
AcDbEntity
  8
0
  6
CONTINUOUS
 62
               4
100
AcDbLine
 10
64.315011596679682
 20
82.999984741210938
 30
0.0
 11
64.315011596679682
 21
87.598388671875
 31
0.0
  0
LINE
  5
326
100
AcDbEntity
  8
0
  6
CONTINUOUS
 62
               4
100
AcDbLine
 10
62.885003662109369
 20
82.999984741210938
 30
0.0
 11
62.885003662109369
 21
86.772781372070313
 31
0.0
  0
LINE
  5
327
100
AcDbEntity
  8
0
  6
CONTINUOUS
 62
               4
100
AcDbLine
 10
64.315011596679682
 20
90.999984741210938
 30
0.0
 11
62.885003662109369
 21
90.999984741210938
 31
0.0
  0
LINE
  5
328
100
AcDbEntity
  8
0
  6
CONTINUOUS
 62
               4
100
AcDbLine
 10
62.885003662109369
 20
87.927474975585937
 30
0.0
 11
62.885003662109369
 21
90.999984741210938
 31
0.0
  0
LINE
  5
329
100
AcDbEntity
  8
0
  6
CONTINUOUS
 62
               4
100
AcDbLine
 10
64.315011596679682
 20
88.753097534179688
 30
0.0
 11
64.315011596679682
 21
90.999984741210938
 31
0.0
  0
LINE
  5
32A
100
AcDbEntity
  8
0
  6
CONTINUOUS
 62
               7
100
AcDbLine
 10
56.0
 20
38.999984741210938
 30
0.0
 11
83.0
 21
38.999984741210938
 31
0.0
  0
LINE
  5
32B
100
AcDbEntity
  8
0
  6
CONTINUOUS
 62
               4
100
AcDbLine
 10
61.815011596679682
 20
87.309722900390625
 30
0.0
 11
61.815011596679682
 21
90.999984741210938
 31
0.0
  0
LINE
  5
32C
100
AcDbEntity
  8
0
  6
CONTINUOUS
 62
               4
100
AcDbLine
 10
60.385003662109369
 20
86.484100341796875
 30
0.0
 11
60.385003662109369
 21
90.999984741210938
 31
0.0
  0
LINE
  5
32D
100
AcDbEntity
  8
0
  6
CONTINUOUS
 62
               4
100
AcDbLine
 10
60.385003662109369
 20
90.999984741210938
 30
0.0
 11
61.815011596679682
 21
90.999984741210938
 31
0.0
  0
LINE
  5
32E
100
AcDbEntity
  8
0
  6
CONTINUOUS
 62
               4
100
AcDbLine
 10
61.815011596679682
 20
82.999984741210938
 30
0.0
 11
61.815011596679682
 21
86.155014038085938
 31
0.0
  0
LINE
  5
32F
100
AcDbEntity
  8
0
  6
CONTINUOUS
 62
               4
100
AcDbLine
 10
60.385003662109369
 20
82.999984741210938
 30
0.0
 11
60.385003662109369
 21
85.32940673828125
 31
0.0
  0
LINE
  5
330
100
AcDbEntity
  8
0
  6
CONTINUOUS
 62
             200
100
AcDbLine
 10
65.815018891472022
 20
89.619090551145746
 30
0.0
 11
58.884989799908539
 21
85.61804198736445
 31
0.0
  0
LINE
  5
331
100
AcDbEntity
  8
0
  6
CONTINUOUS
 62
             200
100
AcDbLine
 10
65.814994343097709
 20
88.464449556289765
 30
0.0
 11
58.884984189578603
 21
84.463397651774358
 31
0.0
  0
LINE
  5
332
100
AcDbEntity
  8
0
  6
CONTINUOUS
 62
               4
100
AcDbLine
 10
68.25
 20
63.499984741210938
 30
0.0
 11
70.75
 21
63.499984741210938
 31
0.0
  0
LINE
  5
333
100
AcDbEntity
  8
0
  6
CONTINUOUS
 62
               4
100
AcDbLine
 10
68.25
 20
63.499984741210938
 30
0.0
 11
68.25
 21
62.999984741210938
 31
0.0
  0
LINE
  5
334
100
AcDbEntity
  8
0
  6
CONTINUOUS
 62
               4
100
AcDbLine
 10
70.75
 20
63.499984741210938
 30
0.0
 11
70.75
 21
62.999984741210938
 31
0.0
  0
ARC
  5
335
100
AcDbEntity
  8
0
  6
CONTINUOUS
 62
               4
100
AcDbCircle
 10
56.5
 20
71.499984741210938
 30
0.0
 40
0.5
100
AcDbArc
 50
89.999999999999815
 51
179.99999999999963
  0
LINE
  5
336
100
AcDbEntity
  8
0
  6
CONTINUOUS
 62
               4
100
AcDbLine
 10
58.5
 20
71.999984741210937
 30
0.0
 11
56.5
 21
71.999984741210937
 31
0.0
  0
LINE
  5
337
100
AcDbEntity
  8
0
  6
CONTINUOUS
 62
               4
100
AcDbLine
 10
58.5
 20
76.499984741210937
 30
0.0
 11
58.5
 21
71.999984741210937
 31
0.0
  0
LINE
  5
338
100
AcDbEntity
  8
0
  6
CONTINUOUS
 62
               4
100
AcDbLine
 10
78.099999999999994
 20
64.449984741210955
 30
0.0
 11
76.0
 21
64.449984741210955
 31
0.0
  0
LINE
  5
339
100
AcDbEntity
  8
0
  6
CONTINUOUS
 62
               4
100
AcDbLine
 10
63.099999999999994
 20
64.449984741210955
 30
0.0
 11
61.0
 21
64.449984741210955
 31
0.0
  0
LINE
  5
33A
100
AcDbEntity
  8
0
  6
CONTINUOUS
 62
               4
100
AcDbLine
 10
61.0
 20
65.399984741210943
 30
0.0
 11
61.0
 21
64.449984741210955
 31
0.0
  0
LINE
  5
33B
100
AcDbEntity
  8
0
  6
CONTINUOUS
 62
               4
100
AcDbLine
 10
78.099999999999994
 20
65.399984741210943
 30
0.0
 11
78.099999999999994
 21
64.449984741210955
 31
0.0
  0
ARC
  5
33C
100
AcDbEntity
  8
0
  6
CONTINUOUS
 62
               4
100
AcDbCircle
 10
81.502020395360574
 20
67.179595645140239
 30
0.0
 40
1.4979796551727449
100
AcDbArc
 50
0.0148824203654679
 51
24.046309772710686
  0
ARC
  5
33D
100
AcDbEntity
  8
0
  6
CONTINUOUS
 62
               4
100
AcDbCircle
 10
80.674020838564047
 20
71.500084678657203
 30
0.0
 40
0.4999010215015999
100
AcDbArc
 50
24.197376208904771
 51
89.887774076864815
  0
LINE
  5
33E
100
AcDbEntity
  8
0
  6
CONTINUOUS
 62
               4
100
AcDbLine
 10
81.129999999999995
 20
71.70498474121095
 30
0.0
 11
82.870000000000005
 21
67.78998474121093
 31
0.0
  0
LINE
  5
33F
100
AcDbEntity
  8
0
  6
CONTINUOUS
 62
               4
100
AcDbLine
 10
83.0
 20
67.179984741210944
 30
0.0
 11
83.0
 21
62.999984741210938
 31
0.0
  0
LINE
  5
340
100
AcDbEntity
  8
0
  6
CONTINUOUS
 62
               4
100
AcDbLine
 10
63.099999999999994
 20
65.399984741210943
 30
0.0
 11
61.0
 21
65.399984741210943
 31
0.0
  0
LINE
  5
341
100
AcDbEntity
  8
0
  6
CONTINUOUS
 62
               4
100
AcDbLine
 10
78.099999999999994
 20
65.399984741210943
 30
0.0
 11
76.0
 21
65.399984741210943
 31
0.0
  0
LINE
  5
342
100
AcDbEntity
  8
0
  6
CONTINUOUS
 62
               4
100
AcDbLine
 10
63.099999999999994
 20
65.399984741210943
 30
0.0
 11
63.099999999999994
 21
64.449984741210955
 31
0.0
  0
LINE
  5
343
100
AcDbEntity
  8
0
  6
CONTINUOUS
 62
               4
100
AcDbLine
 10
76.0
 20
65.399984741210943
 30
0.0
 11
76.0
 21
64.449984741210955
 31
0.0
  0
LINE
  5
344
100
AcDbEntity
  8
0
  6
CONTINUOUS
 62
               4
100
AcDbLine
 10
56.0
 20
71.499984741210938
 30
0.0
 11
56.0
 21
62.999984741210938
 31
0.0
  0
LINE
  5
345
100
AcDbEntity
  8
0
  6
CONTINUOUS
 62
               4
100
AcDbLine
 10
56.0
 20
38.999984741210938
 30
0.0
 11
56.0
 21
62.999984741210938
 31
0.0
  0
LINE
  5
346
100
AcDbEntity
  8
0
  6
CONTINUOUS
 62
               4
100
AcDbLine
 10
83.0
 20
38.999984741210938
 30
0.0
 11
83.0
 21
62.999984741210938
 31
0.0
  0
LINE
  5
347
100
AcDbEntity
  8
0
  6
CONTINUOUS
 62
               4
100
AcDbLine
 10
67.099999999999994
 20
71.999984741210937
 30
0.0
 11
80.674999999999983
 21
71.999984741210937
 31
0.0
  0
LINE
  5
348
100
AcDbEntity
  8
0
  6
CONTINUOUS
 62
               7
100
AcDbLine
 10
85.500003716490937
 20
25.499989443961567
 30
0.0
 11
83.499999617180038
 21
27.999994568100192
 31
0.0
  0
LINE
  5
349
100
AcDbEntity
  8
0
  6
CONTINUOUS
 62
               7
100
AcDbLine
 10
53.499997703080226
 20
25.499998976051756
 30
0.0
 11
55.500001802391125
 21
28.000004100190381
 31
0.0
  0
LINE
  5
34A
100
AcDbEntity
  8
0
  6
CONTINUOUS
 62
               7
100
AcDbLine
 10
83.5
 20
27.999984741210937
 30
0.0
 11
55.5
 21
27.999984741210937
 31
0.0
  0
ARC
  5
34B
100
AcDbEntity
  8
0
  6
CONTINUOUS
 62
               7
100
AcDbCircle
 10
86.700000762939453
 20
-29.750030517578125
 30
0.0
 40
1.5
100
AcDbArc
 50
0.0
 51
89.999982013910454
  0
ARC
  5
34C
100
AcDbEntity
  8
0
  6
CONTINUOUS
 62
               7
100
AcDbCircle
 10
86.700000762939453
 20
-32.250030517578125
 30
0.0
 40
1.5
100
AcDbArc
 50
270.00001798608872
 51
0.0
  0
CIRCLE
  5
34D
100
AcDbEntity
  8
0
  6
CONTINUOUS
 62
               2
100
AcDbCircle
 10
40.0
 20
23.0
 30
0.0
 40
2.5
  0
CIRCLE
  5
34E
100
AcDbEntity
  8
0
  6
CONTINUOUS
 62
               7
100
AcDbCircle
 10
40.0
 20
23.0
 30
0.0
 40
2.0
  0
CIRCLE
  5
34F
100
AcDbEntity
  8
0
  6
CONTINUOUS
 62
               7
100
AcDbCircle
 10
25.0
 20
-11.500015258789063
 30
0.0
 40
7.4749994277954102
  0
CIRCLE
  5
350
100
AcDbEntity
  8
0
  6
CONTINUOUS
 62
               2
100
AcDbCircle
 10
25.0
 20
-11.500015258789063
 30
0.0
 40
8.3310003280639648
  0
CIRCLE
  5
351
100
AcDbEntity
  8
0
  6
CONTINUOUS
 62
               7
100
AcDbCircle
 10
25.0
 20
13.0
 30
0.0
 40
7.4749994277954102
  0
CIRCLE
  5
352
100
AcDbEntity
  8
0
  6
CONTINUOUS
 62
               2
100
AcDbCircle
 10
25.0
 20
13.0
 30
0.0
 40
8.3310003280639648
  0
ARC
  5
353
100
AcDbEntity
  8
0
  6
CONTINUOUS
 62
               7
100
AcDbCircle
 10
89.0
 20
9.7499542236328125
 30
0.0
 40
1.5
100
AcDbArc
 50
270.00001798608872
 51
0.0
  0
ARC
  5
354
100
AcDbEntity
  8
0
  6
CONTINUOUS
 62
               7
100
AcDbCircle
 10
89.0
 20
12.249954223632813
 30
0.0
 40
1.5
100
AcDbArc
 50
0.0
 51
89.999982013910454
  0
ARC
  5
355
100
AcDbEntity
  8
0
  6
CONTINUOUS
 62
               7
100
AcDbCircle
 10
83.75
 20
-58.500019073486328
 30
0.0
 40
1.5
100
AcDbArc
 50
270.00001798608872
 51
0.0
  0
ARC
  5
356
100
AcDbEntity
  8
0
  6
CONTINUOUS
 62
               7
100
AcDbCircle
 10
81.25
 20
-58.500019073486328
 30
0.0
 40
1.5
100
AcDbArc
 50
179.99998133066492
 51
270.00001798608872
  0
ARC
  5
357
100
AcDbEntity
  8
0
  6
CONTINUOUS
 62
               7
100
AcDbCircle
 10
56.499969482421875
 20
28.500045776367188
 30
0.0
 40
2.5000734329223633
100
AcDbArc
 50
220.54021397943868
 51
348.46195609548801
  0
ARC
  5
358
100
AcDbEntity
  8
0
  6
CONTINUOUS
 62
               7
100
AcDbCircle
 10
87.0
 20
-60.000019073486328
 30
0.0
 40
0.5
100
AcDbArc
 50
270.00007262760209
 51
0.0000409811350201
  0
ARC
  5
359
100
AcDbEntity
  8
0
  6
CONTINUOUS
 62
               7
100
AcDbCircle
 10
54.0
 20
-60.000019073486328
 30
0.0
 40
0.5
100
AcDbArc
 50
180.0000359721783
 51
270.00007262760209
  0
CIRCLE
  5
35A
100
AcDbEntity
  8
0
  6
CONTINUOUS
 62
               7
100
AcDbCircle
 10
25.0
 20
-36.000015258789062
 30
0.0
 40
7.4749994277954102
  0
CIRCLE
  5
35B
100
AcDbEntity
  8
0
  6
CONTINUOUS
 62
               2
100
AcDbCircle
 10
25.0
 20
-36.000015258789062
 30
0.0
 40
8.3310003280639648
  0
LINE
  5
35C
100
AcDbEntity
  8
0
  6
CONTINUOUS
 62
               7
100
AcDbLine
 10
85.500003684112926
 20
-30.707142964402919
 30
0.0
 11
86.200002158589086
 21
-30.302998725471298
 31
0.0
  0
LINE
  5
35D
100
AcDbEntity
  8
0
  6
CONTINUOUS
 62
               7
100
AcDbLine
 10
85.500003248125722
 20
-31.697067728323532
 30
0.0
 11
86.200000070789429
 21
-31.292924443066113
 31
0.0
  0
LINE
  5
35E
100
AcDbEntity
  8
0
  6
CONTINUOUS
 62
               7
100
AcDbLine
 10
86.700000762939453
 20
-28.250030517578125
 30
0.0
 11
86.200000762939453
 21
-28.250030517578125
 31
0.0
  0
LINE
  5
35F
100
AcDbEntity
  8
0
  6
CONTINUOUS
 62
               7
100
AcDbLine
 10
86.200000762939453
 20
-33.950027465820313
 30
0.0
 11
85.5
 21
-33.950027465820313
 31
0.0
  0
LINE
  5
360
100
AcDbEntity
  8
0
  6
CONTINUOUS
 62
               7
100
AcDbLine
 10
86.200000762939453
 20
-28.050033569335938
 30
0.0
 11
85.5
 21
-28.050033569335938
 31
0.0
  0
LINE
  5
361
100
AcDbEntity
  8
0
  6
CONTINUOUS
 62
               7
100
AcDbLine
 10
86.200000762939453
 20
-33.950027465820313
 30
0.0
 11
86.200000762939453
 21
-28.050033569335938
 31
0.0
  0
LINE
  5
362
100
AcDbEntity
  8
0
  6
CONTINUOUS
 62
               7
100
AcDbLine
 10
88.200000762939453
 20
-32.250030517578125
 30
0.0
 11
88.200000762939453
 21
-29.750030517578125
 31
0.0
  0
LINE
  5
363
100
AcDbEntity
  8
0
  6
CONTINUOUS
 62
               7
100
AcDbLine
 10
86.700000762939453
 20
-33.750030517578125
 30
0.0
 11
86.200000762939453
 21
-33.750030517578125
 31
0.0
  0
LINE
  5
364
100
AcDbEntity
  8
0
  6
CONTINUOUS
 62
               2
100
AcDbLine
 10
36.5
 20
23.0
 30
0.0
 11
43.5
 21
23.0
 31
0.0
  0
LINE
  5
365
100
AcDbEntity
  8
0
  6
CONTINUOUS
 62
               2
100
AcDbLine
 10
40.0
 20
19.5
 30
0.0
 11
40.0
 21
26.5
 31
0.0
  0
LINE
  5
366
100
AcDbEntity
  8
0
  6
CONTINUOUS
 62
               2
100
AcDbLine
 10
25.0
 20
-22.331008911132812
 30
0.0
 11
25.0
 21
-2.16900634765625
 31
0.0
  0
LINE
  5
367
100
AcDbEntity
  8
0
  6
CONTINUOUS
 62
               2
100
AcDbLine
 10
15.66900634765625
 20
-11.500015258789063
 30
0.0
 11
34.331008911132812
 21
-11.500015258789063
 31
0.0
  0
LINE
  5
368
100
AcDbEntity
  8
0
  6
CONTINUOUS
 62
               2
100
AcDbLine
 10
25.0
 20
3.6689910888671875
 30
0.0
 11
25.0
 21
22.33099365234375
 31
0.0
  0
LINE
  5
369
100
AcDbEntity
  8
0
  6
CONTINUOUS
 62
               2
100
AcDbLine
 10
15.66900634765625
 20
13.0
 30
0.0
 11
34.331008911132812
 21
13.0
 31
0.0
  0
LINE
  5
36A
100
AcDbEntity
  8
0
  6
CONTINUOUS
 62
               7
100
AcDbLine
 10
0.0
 20
29.0
 30
0.0
 11
53.0
 21
29.0
 31
0.0
  0
LINE
  5
36B
100
AcDbEntity
  8
0
  6
CONTINUOUS
 62
               7
100
AcDbLine
 10
0.0
 20
-48.000015258789063
 30
0.0
 11
53.0
 21
-48.000015258789063
 31
0.0
  0
LINE
  5
36C
100
AcDbEntity
  8
0
  6
CONTINUOUS
 62
               7
100
AcDbLine
 10
0.0
 20
-48.000015258789063
 30
0.0
 11
0.0
 21
29.0
 31
0.0
  0
LINE
  5
36D
100
AcDbEntity
  8
0
  6
CONTINUOUS
 62
               7
100
AcDbLine
 10
83.0
 20
29.499984741210938
 30
0.0
 11
81.699996948242188
 21
29.499984741210938
 31
0.0
  0
LINE
  5
36E
100
AcDbEntity
  8
0
  6
CONTINUOUS
 62
               7
100
AcDbLine
 10
81.699996948242188
 20
27.999984741210937
 30
0.0
 11
81.699996948242188
 21
29.499984741210938
 31
0.0
  0
LINE
  5
36F
100
AcDbEntity
  8
0
  6
CONTINUOUS
 62
               7
100
AcDbLine
 10
78.699996948242188
 20
27.999984741210937
 30
0.0
 11
78.699996948242188
 21
29.499984741210938
 31
0.0
  0
LINE
  5
370
100
AcDbEntity
  8
0
  6
CONTINUOUS
 62
               7
100
AcDbLine
 10
59.5
 20
27.999984741210937
 30
0.0
 11
59.5
 21
29.499984741210938
 31
0.0
  0
LINE
  5
371
100
AcDbEntity
  8
0
  6
CONTINUOUS
 62
               7
100
AcDbLine
 10
78.699996948242188
 20
29.499984741210938
 30
0.0
 11
59.5
 21
29.499984741210938
 31
0.0
  0
LINE
  5
372
100
AcDbEntity
  8
0
  6
CONTINUOUS
 62
               7
100
AcDbLine
 10
57.0
 20
27.999984741210937
 30
0.0
 11
57.0
 21
29.499984741210938
 31
0.0
  0
LINE
  5
373
100
AcDbEntity
  8
0
  6
CONTINUOUS
 62
               7
100
AcDbLine
 10
57.0
 20
29.499984741210938
 30
0.0
 11
56.0
 21
29.499984741210938
 31
0.0
  0
LINE
  5
374
100
AcDbEntity
  8
0
  6
CONTINUOUS
 62
               7
100
AcDbLine
 10
89.0
 20
13.749954223632813
 30
0.0
 11
88.5
 21
13.749954223632813
 31
0.0
  0
LINE
  5
375
100
AcDbEntity
  8
0
  6
CONTINUOUS
 62
               7
100
AcDbLine
 10
89.0
 20
8.2499542236328125
 30
0.0
 11
88.5
 21
8.2499542236328125
 31
0.0
  0
LINE
  5
376
100
AcDbEntity
  8
0
  6
CONTINUOUS
 62
               7
100
AcDbLine
 10
88.5
 20
7.999969482421875
 30
0.0
 11
88.5
 21
15.299972534179688
 31
0.0
  0
LINE
  5
377
100
AcDbEntity
  8
0
  6
CONTINUOUS
 62
               7
100
AcDbLine
 10
79.75
 20
-58.500019073486328
 30
0.0
 11
79.75
 21
-58.000019073486328
 31
0.0
  0
LINE
  5
378
100
AcDbEntity
  8
0
  6
CONTINUOUS
 62
               7
100
AcDbLine
 10
85.25
 20
-58.500019073486328
 30
0.0
 11
85.25
 21
-58.000019073486328
 31
0.0
  0
LINE
  5
379
100
AcDbEntity
  8
0
  6
CONTINUOUS
 62
               7
100
AcDbLine
 10
83.75
 20
-60.000019073486328
 30
0.0
 11
81.25
 21
-60.000019073486328
 31
0.0
  0
LINE
  5
37A
100
AcDbEntity
  8
0
  6
CONTINUOUS
 62
               7
100
AcDbLine
 10
85.699996948242188
 20
-58.000019073486328
 30
0.0
 11
79.300003051757813
 21
-58.000019073486328
 31
0.0
  0
LINE
  5
37B
100
AcDbEntity
  8
0
  6
CONTINUOUS
 62
               7
100
AcDbLine
 10
79.300003051757813
 20
-60.500019073486328
 30
0.0
 11
79.300003051757813
 21
-58.000019073486328
 31
0.0
  0
LINE
  5
37C
100
AcDbEntity
  8
0
  6
CONTINUOUS
 62
               7
100
AcDbLine
 10
85.699996948242188
 20
-60.500019073486328
 30
0.0
 11
85.699996948242188
 21
-58.000019073486328
 31
0.0
  0
LINE
  5
37D
100
AcDbEntity
  8
0
  6
CONTINUOUS
 62
               7
100
AcDbLine
 10
85.5
 20
25.499984741210937
 30
0.0
 11
53.5
 21
25.499984741210937
 31
0.0
  0
LINE
  5
37E
100
AcDbEntity
  8
0
  6
CONTINUOUS
 62
               7
100
AcDbLine
 10
53.0
 20
-48.000015258789063
 30
0.0
 11
53.0
 21
29.0
 31
0.0
  0
LINE
  5
37F
100
AcDbEntity
  8
0
  6
CONTINUOUS
 62
               7
100
AcDbLine
 10
90.5
 20
-34.000030517578125
 30
0.0
 11
85.5
 21
-34.000030517578125
 31
0.0
  0
LINE
  5
380
100
AcDbEntity
  8
0
  6
CONTINUOUS
 62
               7
100
AcDbLine
 10
90.5
 20
-28.000030517578125
 30
0.0
 11
85.5
 21
-28.000030517578125
 31
0.0
  0
LINE
  5
381
100
AcDbEntity
  8
0
  6
CONTINUOUS
 62
               7
100
AcDbLine
 10
90.5
 20
7.999969482421875
 30
0.0
 11
88.5
 21
7.999969482421875
 31
0.0
  0
LINE
  5
382
100
AcDbEntity
  8
0
  6
CONTINUOUS
 62
               7
100
AcDbLine
 10
86.5
 20
-38.500030517578125
 30
0.0
 11
86.5
 21
-37.500030517578125
 31
0.0
  0
LINE
  5
383
100
AcDbEntity
  8
0
  6
CONTINUOUS
 62
               7
100
AcDbLine
 10
86.5
 20
-46.600021362304688
 30
0.0
 11
86.5
 21
-46.500030517578125
 31
0.0
  0
LINE
  5
384
100
AcDbEntity
  8
0
  6
CONTINUOUS
 62
               7
100
AcDbLine
 10
87.5
 20
-38.500030517578125
 30
0.0
 11
87.5
 21
-37.500030517578125
 31
0.0
  0
LINE
  5
385
100
AcDbEntity
  8
0
  6
CONTINUOUS
 62
               7
100
AcDbLine
 10
88.5
 20
-38.500030517578125
 30
0.0
 11
85.600006103515625
 21
-38.500030517578125
 31
0.0
  0
LINE
  5
386
100
AcDbEntity
  8
0
  6
CONTINUOUS
 62
               7
100
AcDbLine
 10
88.5
 20
-48.500030517578125
 30
0.0
 11
85.600006103515625
 21
-48.500030517578125
 31
0.0
  0
LINE
  5
387
100
AcDbEntity
  8
0
  6
CONTINUOUS
 62
               7
100
AcDbLine
 10
85.599998474121094
 20
-40.4000244140625
 30
0.0
 11
85.599998474121094
 21
-38.500030517578125
 31
0.0
  0
LINE
  5
388
100
AcDbEntity
  8
0
  6
CONTINUOUS
 62
               7
100
AcDbLine
 10
88.300003051757813
 20
-46.600021362304688
 30
0.0
 11
85.600006103515625
 21
-46.600021362304688
 31
0.0
  0
LINE
  5
389
100
AcDbEntity
  8
0
  6
CONTINUOUS
 62
               7
100
AcDbLine
 10
88.300003051757813
 20
-40.4000244140625
 30
0.0
 11
85.600006103515625
 21
-40.4000244140625
 31
0.0
  0
LINE
  5
38A
100
AcDbEntity
  8
0
  6
CONTINUOUS
 62
               7
100
AcDbLine
 10
85.599998474121094
 20
-48.500030517578125
 30
0.0
 11
85.599998474121094
 21
-46.600021362304688
 31
0.0
  0
LINE
  5
38B
100
AcDbEntity
  8
0
  6
CONTINUOUS
 62
               7
100
AcDbLine
 10
86.5
 20
-40.500030517578125
 30
0.0
 11
86.5
 21
-40.4000244140625
 31
0.0
  0
LINE
  5
38C
100
AcDbEntity
  8
0
  6
CONTINUOUS
 62
               7
100
AcDbLine
 10
85.5
 20
-49.500030517578125
 30
0.0
 11
85.5
 21
-46.500030517578125
 31
0.0
  0
LINE
  5
38D
100
AcDbEntity
  8
0
  6
CONTINUOUS
 62
               7
100
AcDbLine
 10
86.5
 20
-49.500030517578125
 30
0.0
 11
86.5
 21
-48.500030517578125
 31
0.0
  0
LINE
  5
38E
100
AcDbEntity
  8
0
  6
CONTINUOUS
 62
               7
100
AcDbLine
 10
87.5
 20
-40.500030517578125
 30
0.0
 11
85.5
 21
-40.500030517578125
 31
0.0
  0
LINE
  5
38F
100
AcDbEntity
  8
0
  6
CONTINUOUS
 62
               7
100
AcDbLine
 10
87.5
 20
-46.500030517578125
 30
0.0
 11
85.5
 21
-46.500030517578125
 31
0.0
  0
LINE
  5
390
100
AcDbEntity
  8
0
  6
CONTINUOUS
 62
               7
100
AcDbLine
 10
88.5
 20
-48.500030517578125
 30
0.0
 11
88.5
 21
-38.500030517578125
 31
0.0
  0
LINE
  5
391
100
AcDbEntity
  8
0
  6
CONTINUOUS
 62
               7
100
AcDbLine
 10
88.300003051757813
 20
-46.600021362304688
 30
0.0
 11
88.300003051757813
 21
-40.4000244140625
 31
0.0
  0
LINE
  5
392
100
AcDbEntity
  8
0
  6
CONTINUOUS
 62
               7
100
AcDbLine
 10
88.500075266929343
 20
-48.500086351418645
 30
0.0
 11
89.500051124829952
 21
-47.500095236609923
 31
0.0
  0
LINE
  5
393
100
AcDbEntity
  8
0
  6
CONTINUOUS
 62
               7
100
AcDbLine
 10
88.499959784086968
 20
-38.500052893752581
 30
0.0
 11
89.499973574047544
 21
-39.500062890451773
 31
0.0
  0
LINE
  5
394
100
AcDbEntity
  8
0
  6
CONTINUOUS
 62
               7
100
AcDbLine
 10
89.5
 20
-47.500030517578125
 30
0.0
 11
89.5
 21
-39.500030517578125
 31
0.0
  0
LINE
  5
395
100
AcDbEntity
  8
0
  6
CONTINUOUS
 62
               7
100
AcDbLine
 10
87.5
 20
-46.600021362304688
 30
0.0
 11
87.5
 21
-40.4000244140625
 31
0.0
  0
LINE
  5
396
100
AcDbEntity
  8
0
  6
CONTINUOUS
 62
               7
100
AcDbLine
 10
56.0
 20
27.999984741210937
 30
0.0
 11
56.0
 21
38.999984741210938
 31
0.0
  0
LINE
  5
397
100
AcDbEntity
  8
0
  6
CONTINUOUS
 62
               7
100
AcDbLine
 10
83.0
 20
27.999984741210937
 30
0.0
 11
83.0
 21
38.999984741210938
 31
0.0
  0
LINE
  5
398
100
AcDbEntity
  8
0
  6
CONTINUOUS
 62
               7
100
AcDbLine
 10
84.0
 20
35.999984741210937
 30
0.0
 11
84.0
 21
37.649978637695312
 31
0.0
  0
LINE
  5
399
100
AcDbEntity
  8
0
  6
CONTINUOUS
 62
               7
100
AcDbLine
 10
84.0
 20
35.999984741210937
 30
0.0
 11
83.399993896484375
 21
35.999984741210937
 31
0.0
  0
LINE
  5
39A
100
AcDbEntity
  8
0
  6
CONTINUOUS
 62
               7
100
AcDbLine
 10
84.0
 20
35.399978637695312
 30
0.0
 11
83.399993896484375
 21
35.399978637695312
 31
0.0
  0
LINE
  5
39B
100
AcDbEntity
  8
0
  6
CONTINUOUS
 62
               7
100
AcDbLine
 10
83.399993896484375
 20
35.399978637695312
 30
0.0
 11
83.399993896484375
 21
35.999984741210937
 31
0.0
  0
LINE
  5
39C
100
AcDbEntity
  8
0
  6
CONTINUOUS
 62
               7
100
AcDbLine
 10
84.0
 20
37.649978637695312
 30
0.0
 11
83.0
 21
37.649978637695312
 31
0.0
  0
LINE
  5
39D
100
AcDbEntity
  8
0
  6
CONTINUOUS
 62
               7
100
AcDbLine
 10
84.0
 20
33.749984741210937
 30
0.0
 11
83.0
 21
33.749984741210937
 31
0.0
  0
LINE
  5
39E
100
AcDbEntity
  8
0
  6
CONTINUOUS
 62
               7
100
AcDbLine
 10
84.0
 20
33.749984741210937
 30
0.0
 11
84.0
 21
35.399978637695312
 31
0.0
  0
LINE
  5
39F
100
AcDbEntity
  8
0
  6
CONTINUOUS
 62
               2
100
AcDbLine
 10
85.0
 20
35.699981689453125
 30
0.0
 11
82.299995422363281
 21
35.699981689453125
 31
0.0
  0
LINE
  5
3A0
100
AcDbEntity
  8
0
  6
CONTINUOUS
 62
               7
100
AcDbLine
 10
87.0
 20
-60.500019073486328
 30
0.0
 11
54.0
 21
-60.500019073486328
 31
0.0
  0
LINE
  5
3A1
100
AcDbEntity
  8
0
  6
CONTINUOUS
 62
               7
100
AcDbLine
 10
90.500015357762095
 20
-35.300022834504489
 30
0.0
 11
88.499998567454895
 21
-37.30003186974136
 31
0.0
  0
LINE
  5
3A2
100
AcDbEntity
  8
0
  6
CONTINUOUS
 62
               7
100
AcDbLine
 10
90.499992918772477
 20
13.299985921357802
 30
0.0
 11
88.500007485719834
 21
15.29998332406376
 31
0.0
  0
LINE
  5
3A3
100
AcDbEntity
  8
0
  6
CONTINUOUS
 62
               7
100
AcDbLine
 10
88.5
 20
15.299972534179688
 30
0.0
 11
85.5
 21
15.299972534179688
 31
0.0
  0
LINE
  5
3A4
100
AcDbEntity
  8
0
  6
CONTINUOUS
 62
               7
100
AcDbLine
 10
88.5
 20
-37.300033569335938
 30
0.0
 11
85.5
 21
-37.300033569335938
 31
0.0
  0
LINE
  5
3A5
100
AcDbEntity
  8
0
  6
CONTINUOUS
 62
               7
100
AcDbLine
 10
90.5
 20
-35.300033569335938
 30
0.0
 11
90.5
 21
13.299972534179687
 31
0.0
  0
LINE
  5
3A6
100
AcDbEntity
  8
0
  6
CONTINUOUS
 62
               7
100
AcDbLine
 10
87.5
 20
-60.000026702880859
 30
0.0
 11
87.5
 21
-48.500030517578125
 31
0.0
  0
LINE
  5
3A7
100
AcDbEntity
  8
0
  6
CONTINUOUS
 62
               7
100
AcDbLine
 10
87.5
 20
-49.500030517578125
 30
0.0
 11
53.5
 21
-49.500030517578125
 31
0.0
  0
LINE
  5
3A8
100
AcDbEntity
  8
0
  6
CONTINUOUS
 62
               7
100
AcDbLine
 10
87.5
 20
-37.500030517578125
 30
0.0
 11
53.5
 21
-37.500030517578125
 31
0.0
  0
LINE
  5
3A9
100
AcDbEntity
  8
0
  6
CONTINUOUS
 62
               7
100
AcDbLine
 10
85.5
 20
-40.500030517578125
 30
0.0
 11
85.5
 21
25.499984741210937
 31
0.0
  0
LINE
  5
3AA
100
AcDbEntity
  8
0
  6
CONTINUOUS
 62
               7
100
AcDbLine
 10
53.5
 20
-60.000026702880859
 30
0.0
 11
53.5
 21
25.499984741210937
 31
0.0
  0
LINE
  5
3AB
100
AcDbEntity
  8
0
  6
CONTINUOUS
 62
               7
100
AcDbLine
 10
85.5
 20
15.499984741210938
 30
0.0
 11
53.5
 21
15.499984741210938
 31
0.0
  0
LINE
  5
3AC
100
AcDbEntity
  8
0
  6
CONTINUOUS
 62
               2
100
AcDbLine
 10
25.0
 20
-45.331008911132812
 30
0.0
 11
25.0
 21
-26.669021606445313
 31
0.0
  0
LINE
  5
3AD
100
AcDbEntity
  8
0
  6
CONTINUOUS
 62
               2
100
AcDbLine
 10
15.66900634765625
 20
-36.000015258789062
 30
0.0
 11
34.331008911132812
 21
-36.000015258789062
 31
0.0
  0
ENDBLK
  5
3AE
100
AcDbEntity
  8
0
100
AcDbBlockEnd
  0
BLOCK
  5
3AF
100
AcDbEntity
  8
0
100
AcDbBlockBegin
  2
F18MA-3
 70
               0
 10
0.0
 20
0.0
 30
0.0
  3
F18MA-3
  1

  0
LINE
  5
3B0
100
AcDbEntity
  8
0
  6
CONTINUOUS
 62
               2
100
AcDbLine
 10
71.000030517578125
 20
-1.38555908203125
 30
0.0
 11
71.000030517578125
 21
52.799999237060547
 31
0.0
  0
LINE
  5
3B1
100
AcDbEntity
  8
0
  6
CONTINUOUS
 62
               2
100
AcDbLine
 10
0.0
 20
-3.5000011920928955
 30
0.0
 11
0.0
 21
3.6999969482421875
 31
0.0
  0
LINE
  5
3B2
100
AcDbEntity
  8
0
  6
CONTINUOUS
 62
               2
100
AcDbLine
 10
85.0
 20
-3.5000011920928955
 30
0.0
 11
85.0
 21
3.6999969482421875
 31
0.0
  0
LINE
  5
3B3
100
AcDbEntity
  8
0
  6
CONTINUOUS
 62
               2
100
AcDbLine
 10
13.999969482421875
 20
-1.1855583190917969
 30
0.0
 11
13.999969482421875
 21
93.81121826171875
 31
0.0
  0
LINE
  5
3B4
100
AcDbEntity
  8
0
  6
CONTINUOUS
 62
               2
100
AcDbLine
 10
52.0
 20
93.81121826171875
 30
0.0
 11
52.0
 21
-1.1855583190894947
 31
0.0
  0
LINE
  5
3B5
100
AcDbEntity
  8
0
  6
CONTINUOUS
 62
               2
100
AcDbLine
 10
33.0
 20
93.81121826171875
 30
0.0
 11
33.000030517578125
 21
-1.1855583190917969
 31
0.0
  0
LINE
  5
3B6
100
AcDbEntity
  8
0
  6
CONTINUOUS
 62
             200
100
AcDbLine
 10
71.000030517578125
 20
52.799999237060547
 30
0.0
 11
71.000030517578125
 21
60.539327482159891
 31
0.0
  0
LINE
  5
3B7
100
AcDbEntity
  8
0
  6
CONTINUOUS
 62
               7
100
AcDbLine
 10
61.000030555354812
 20
53.499999320019086
 30
0.0
 11
43.000030555354869
 21
53.500000679980914
 31
0.0
  0
LINE
  5
3B8
100
AcDbEntity
  8
0
  6
CONTINUOUS
 62
               7
100
AcDbLine
 10
42.000030555354812
 20
53.499999320019086
 30
0.0
 11
24.000030555354869
 21
53.500000679980914
 31
0.0
  0
LINE
  5
3B9
100
AcDbEntity
  8
0
  6
CONTINUOUS
 62
               7
100
AcDbLine
 10
80.000030555327044
 20
53.499999320518953
 30
0.0
 11
62.000030555327101
 21
53.500000679481047
 31
0.0
  0
LINE
  5
3BA
100
AcDbEntity
  8
0
  6
CONTINUOUS
 62
               7
100
AcDbLine
 10
62.000030555327101
 20
53.500000679481047
 30
0.0
 11
62.000030517578153
 21
53.000000679481047
 31
0.0
  0
LINE
  5
3BB
100
AcDbEntity
  8
0
  6
CONTINUOUS
 62
               7
100
AcDbLine
 10
80.000030555327044
 20
53.499999320518953
 30
0.0
 11
80.000030517578097
 21
52.999999320518953
 31
0.0
  0
LINE
  5
3BC
100
AcDbEntity
  8
0
  6
CONTINUOUS
 62
               7
100
AcDbLine
 10
23.000000037776687
 20
53.499999320019086
 30
0.0
 11
5.0000000377767435
 21
53.500000679980914
 31
0.0
  0
LINE
  5
3BD
100
AcDbEntity
  8
0
  6
CONTINUOUS
 62
               7
100
AcDbLine
 10
27.000030517578125
 20
79.500015258789063
 30
0.0
 11
24.000030517578125
 21
79.500015258789063
 31
0.0
  0
LINE
  5
3BE
100
AcDbEntity
  8
0
  6
CONTINUOUS
 62
               7
100
AcDbLine
 10
42.000015258789063
 20
90.000015258789063
 30
0.0
 11
42.000015258789063
 21
89.829177856445312
 31
0.0
  0
LINE
  5
3BF
100
AcDbEntity
  8
0
  6
CONTINUOUS
 62
               7
100
AcDbLine
 10
24.000015258789063
 20
90.000015258789063
 30
0.0
 11
24.000015258789063
 21
53.0
 31
0.0
  0
LINE
  5
3C0
100
AcDbEntity
  8
0
  6
CONTINUOUS
 62
               7
100
AcDbLine
 10
41.500030517578125
 20
87.5
 30
0.0
 11
24.500030517578125
 21
87.5
 31
0.0
  0
LINE
  5
3C1
100
AcDbEntity
  8
0
  6
CONTINUOUS
 62
               7
100
AcDbLine
 10
28.060697278404405
 20
81.439342283068981
 30
0.0
 11
25.939377865219285
 21
83.560663663207379
 31
0.0
  0
LINE
  5
3C2
100
AcDbEntity
  8
0
  6
CONTINUOUS
 62
               7
100
AcDbLine
 10
25.939482080237894
 20
81.439254252350565
 30
0.0
 11
28.060795368177423
 21
83.56056557334432
 31
0.0
  0
LINE
  5
3C3
100
AcDbEntity
  8
0
  6
CONTINUOUS
 62
               7
100
AcDbLine
 10
39.000045776367188
 20
59.5
 30
0.0
 11
42.000045776367188
 21
59.5
 31
0.0
  0
LINE
  5
3C4
100
AcDbEntity
  8
0
  6
CONTINUOUS
 62
               7
100
AcDbLine
 10
36.000030517578125
 20
56.5
 30
0.0
 11
36.000030517578125
 21
53.5
 31
0.0
  0
LINE
  5
3C5
100
AcDbEntity
  8
0
  6
CONTINUOUS
 62
               7
100
AcDbLine
 10
40.060834228072508
 20
57.560504854819158
 30
0.0
 11
37.939507810763644
 21
55.439179689211016
 31
0.0
  0
LINE
  5
3C6
100
AcDbEntity
  8
0
  6
CONTINUOUS
 62
               7
100
AcDbLine
 10
37.939362819280973
 20
57.560614683199702
 30
0.0
 11
40.060682547947124
 21
55.439293702836039
 31
0.0
  0
LINE
  5
3C7
100
AcDbEntity
  8
0
  6
CONTINUOUS
 62
               7
100
AcDbLine
 10
27.000045776367188
 20
85.5
 30
0.0
 11
24.000045776367188
 21
85.5
 31
0.0
  0
LINE
  5
3C8
100
AcDbEntity
  8
0
  6
CONTINUOUS
 62
               7
100
AcDbLine
 10
24.500030517578125
 20
90.5
 30
0.0
 11
41.500030517578125
 21
90.5
 31
0.0
  0
LINE
  5
3C9
100
AcDbEntity
  8
0
  6
CONTINUOUS
 62
               7
100
AcDbLine
 10
24.000015258789063
 20
88.5
 30
0.0
 11
42.250030517578125
 21
88.5
 31
0.0
  0
LINE
  5
3CA
100
AcDbEntity
  8
0
  6
CONTINUOUS
 62
               7
100
AcDbLine
 10
36.500030517578125
 20
90.5
 30
0.0
 11
36.500030517578125
 21
88.5
 31
0.0
  0
LINE
  5
3CB
100
AcDbEntity
  8
0
  6
CONTINUOUS
 62
               7
100
AcDbLine
 10
42.250030517578125
 20
89.0
 30
0.0
 11
42.250030517578125
 21
88.5
 31
0.0
  0
LINE
  5
3CC
100
AcDbEntity
  8
0
  6
CONTINUOUS
 62
               7
100
AcDbLine
 10
42.000015258789063
 20
88.5
 30
0.0
 11
42.000015258789063
 21
53.0
 31
0.0
  0
LINE
  5
3CD
100
AcDbEntity
  8
0
  6
CONTINUOUS
 62
               7
100
AcDbLine
 10
31.050037384033203
 20
88.5
 30
0.0
 11
31.050037384033203
 21
87.5
 31
0.0
  0
LINE
  5
3CE
100
AcDbEntity
  8
0
  6
CONTINUOUS
 62
               7
100
AcDbLine
 10
34.950035095214844
 20
88.5
 30
0.0
 11
34.950035095214844
 21
87.5
 31
0.0
  0
LINE
  5
3CF
100
AcDbEntity
  8
0
  6
CONTINUOUS
 62
               7
100
AcDbLine
 10
36.750030517578125
 20
89.0
 30
0.0
 11
36.750030517578125
 21
88.5
 31
0.0
  0
ARC
  5
3D0
100
AcDbEntity
  8
0
  6
CONTINUOUS
 62
               7
100
AcDbCircle
 10
27.000030517578125
 20
82.500015258789063
 30
0.0
 40
3.0
100
AcDbArc
 50
270.00001798608872
 51
90.00014593845053
  0
ARC
  5
3D1
100
AcDbEntity
  8
0
  6
CONTINUOUS
 62
               7
100
AcDbCircle
 10
41.500030517578125
 20
87.000015258789063
 30
0.0
 40
0.5
100
AcDbArc
 50
0.00001366037834
 51
89.999982013910454
  0
ARC
  5
3D2
100
AcDbEntity
  8
0
  6
CONTINUOUS
 62
               7
100
AcDbCircle
 10
24.500030517578125
 20
87.000015258789063
 30
0.0
 40
0.5
100
AcDbArc
 50
89.999982013910454
 51
180.00001866933428
  0
CIRCLE
  5
3D3
100
AcDbEntity
  8
0
  6
CONTINUOUS
 62
               7
100
AcDbCircle
 10
27.000030517578125
 20
82.500015258789063
 30
0.0
 40
2.7999992370605469
  0
ARC
  5
3D4
100
AcDbEntity
  8
0
  6
CONTINUOUS
 62
               7
100
AcDbCircle
 10
39.000030517578125
 20
56.5
 30
0.0
 40
3.0
100
AcDbArc
 50
89.999982013910454
 51
179.99996402782091
  0
CIRCLE
  5
3D5
100
AcDbEntity
  8
0
  6
CONTINUOUS
 62
               7
100
AcDbCircle
 10
39.000030517578125
 20
56.5
 30
0.0
 40
2.7999992370605469
  0
ARC
  5
3D6
100
AcDbEntity
  8
0
  6
CONTINUOUS
 62
               7
100
AcDbCircle
 10
41.500030517578125
 20
90.0
 30
0.0
 40
0.5
100
AcDbArc
 50
0.0
 51
89.999982013910454
  0
ARC
  5
3D7
100
AcDbEntity
  8
0
  6
CONTINUOUS
 62
               7
100
AcDbCircle
 10
24.500030517578125
 20
90.0
 30
0.0
 40
0.5
100
AcDbArc
 50
89.999982013910454
 51
179.99996402782091
  0
ARC
  5
3D8
100
AcDbEntity
  8
0
  6
CONTINUOUS
 62
               7
100
AcDbCircle
 10
40.750030517578125
 20
89.0
 30
0.0
 40
1.5
100
AcDbArc
 50
0.0
 51
89.999982013910454
  0
ARC
  5
3D9
100
AcDbEntity
  8
0
  6
CONTINUOUS
 62
               7
100
AcDbCircle
 10
38.250030517578125
 20
89.0
 30
0.0
 40
1.5
100
AcDbArc
 50
89.999982013910454
 51
179.99996402782091
  0
LINE
  5
3DA
100
AcDbEntity
  8
0
  6
CONTINUOUS
 62
               7
100
AcDbLine
 10
46.000030517578125
 20
79.500015258789063
 30
0.0
 11
43.000030517578125
 21
79.500015258789063
 31
0.0
  0
LINE
  5
3DB
100
AcDbEntity
  8
0
  6
CONTINUOUS
 62
               7
100
AcDbLine
 10
61.000015258789063
 20
90.000015258789063
 30
0.0
 11
61.000015258789063
 21
89.829177856445312
 31
0.0
  0
LINE
  5
3DC
100
AcDbEntity
  8
0
  6
CONTINUOUS
 62
               7
100
AcDbLine
 10
43.000015258789063
 20
90.000015258789063
 30
0.0
 11
43.000015258789063
 21
53.0
 31
0.0
  0
LINE
  5
3DD
100
AcDbEntity
  8
0
  6
CONTINUOUS
 62
               7
100
AcDbLine
 10
60.500030517578125
 20
87.5
 30
0.0
 11
43.500030517578125
 21
87.5
 31
0.0
  0
LINE
  5
3DE
100
AcDbEntity
  8
0
  6
CONTINUOUS
 62
               7
100
AcDbLine
 10
47.060697278404405
 20
81.439342283068981
 30
0.0
 11
44.939377865219285
 21
83.560663663207379
 31
0.0
  0
LINE
  5
3DF
100
AcDbEntity
  8
0
  6
CONTINUOUS
 62
               7
100
AcDbLine
 10
44.939482080237894
 20
81.439254252350565
 30
0.0
 11
47.060795368177423
 21
83.56056557334432
 31
0.0
  0
LINE
  5
3E0
100
AcDbEntity
  8
0
  6
CONTINUOUS
 62
               7
100
AcDbLine
 10
58.000045776367188
 20
59.5
 30
0.0
 11
61.000045776367188
 21
59.5
 31
0.0
  0
LINE
  5
3E1
100
AcDbEntity
  8
0
  6
CONTINUOUS
 62
               7
100
AcDbLine
 10
55.000030517578125
 20
56.5
 30
0.0
 11
55.000030517578125
 21
53.5
 31
0.0
  0
LINE
  5
3E2
100
AcDbEntity
  8
0
  6
CONTINUOUS
 62
               7
100
AcDbLine
 10
59.060834228072508
 20
57.560504854819158
 30
0.0
 11
56.939507810763644
 21
55.439179689211016
 31
0.0
  0
LINE
  5
3E3
100
AcDbEntity
  8
0
  6
CONTINUOUS
 62
               7
100
AcDbLine
 10
56.939362819280973
 20
57.560614683199702
 30
0.0
 11
59.060682547947124
 21
55.439293702836039
 31
0.0
  0
LINE
  5
3E4
100
AcDbEntity
  8
0
  6
CONTINUOUS
 62
               7
100
AcDbLine
 10
46.000045776367188
 20
85.5
 30
0.0
 11
43.000045776367188
 21
85.5
 31
0.0
  0
LINE
  5
3E5
100
AcDbEntity
  8
0
  6
CONTINUOUS
 62
               7
100
AcDbLine
 10
43.500030517578125
 20
90.5
 30
0.0
 11
60.500030517578125
 21
90.5
 31
0.0
  0
LINE
  5
3E6
100
AcDbEntity
  8
0
  6
CONTINUOUS
 62
               7
100
AcDbLine
 10
43.000015258789063
 20
88.5
 30
0.0
 11
61.250030517578125
 21
88.5
 31
0.0
  0
LINE
  5
3E7
100
AcDbEntity
  8
0
  6
CONTINUOUS
 62
               7
100
AcDbLine
 10
55.500030517578125
 20
90.5
 30
0.0
 11
55.500030517578125
 21
88.5
 31
0.0
  0
LINE
  5
3E8
100
AcDbEntity
  8
0
  6
CONTINUOUS
 62
               7
100
AcDbLine
 10
61.250030517578125
 20
89.0
 30
0.0
 11
61.250030517578125
 21
88.5
 31
0.0
  0
LINE
  5
3E9
100
AcDbEntity
  8
0
  6
CONTINUOUS
 62
               7
100
AcDbLine
 10
61.000015258789063
 20
88.5
 30
0.0
 11
61.000015258789063
 21
53.0
 31
0.0
  0
LINE
  5
3EA
100
AcDbEntity
  8
0
  6
CONTINUOUS
 62
               7
100
AcDbLine
 10
50.050037384033203
 20
88.5
 30
0.0
 11
50.050037384033203
 21
87.5
 31
0.0
  0
LINE
  5
3EB
100
AcDbEntity
  8
0
  6
CONTINUOUS
 62
               7
100
AcDbLine
 10
53.950035095214844
 20
88.5
 30
0.0
 11
53.950035095214844
 21
87.5
 31
0.0
  0
LINE
  5
3EC
100
AcDbEntity
  8
0
  6
CONTINUOUS
 62
               7
100
AcDbLine
 10
55.750030517578125
 20
89.0
 30
0.0
 11
55.750030517578125
 21
88.5
 31
0.0
  0
ARC
  5
3ED
100
AcDbEntity
  8
0
  6
CONTINUOUS
 62
               7
100
AcDbCircle
 10
46.000030517578125
 20
82.500015258789063
 30
0.0
 40
3.0
100
AcDbArc
 50
270.00001798608872
 51
90.00014593845053
  0
ARC
  5
3EE
100
AcDbEntity
  8
0
  6
CONTINUOUS
 62
               7
100
AcDbCircle
 10
60.500030517578125
 20
87.000015258789063
 30
0.0
 40
0.5
100
AcDbArc
 50
0.00001366037834
 51
89.999982013910454
  0
ARC
  5
3EF
100
AcDbEntity
  8
0
  6
CONTINUOUS
 62
               7
100
AcDbCircle
 10
43.500030517578125
 20
87.000015258789063
 30
0.0
 40
0.5
100
AcDbArc
 50
89.999982013910454
 51
180.00001866933428
  0
CIRCLE
  5
3F0
100
AcDbEntity
  8
0
  6
CONTINUOUS
 62
               7
100
AcDbCircle
 10
46.000030517578125
 20
82.500015258789063
 30
0.0
 40
2.7999992370605469
  0
ARC
  5
3F1
100
AcDbEntity
  8
0
  6
CONTINUOUS
 62
               7
100
AcDbCircle
 10
58.000030517578125
 20
56.5
 30
0.0
 40
3.0
100
AcDbArc
 50
89.999982013910454
 51
179.99996402782091
  0
CIRCLE
  5
3F2
100
AcDbEntity
  8
0
  6
CONTINUOUS
 62
               7
100
AcDbCircle
 10
58.000030517578125
 20
56.5
 30
0.0
 40
2.7999992370605469
  0
ARC
  5
3F3
100
AcDbEntity
  8
0
  6
CONTINUOUS
 62
               7
100
AcDbCircle
 10
60.500030517578125
 20
90.0
 30
0.0
 40
0.5
100
AcDbArc
 50
0.0
 51
89.999982013910454
  0
ARC
  5
3F4
100
AcDbEntity
  8
0
  6
CONTINUOUS
 62
               7
100
AcDbCircle
 10
43.500030517578125
 20
90.0
 30
0.0
 40
0.5
100
AcDbArc
 50
89.999982013910454
 51
179.99996402782091
  0
ARC
  5
3F5
100
AcDbEntity
  8
0
  6
CONTINUOUS
 62
               7
100
AcDbCircle
 10
59.750030517578125
 20
89.0
 30
0.0
 40
1.5
100
AcDbArc
 50
0.0
 51
89.999982013910454
  0
ARC
  5
3F6
100
AcDbEntity
  8
0
  6
CONTINUOUS
 62
               7
100
AcDbCircle
 10
57.250030517578125
 20
89.0
 30
0.0
 40
1.5
100
AcDbArc
 50
89.999982013910454
 51
179.99996402782091
  0
LINE
  5
3F7
100
AcDbEntity
  8
0
  6
CONTINUOUS
 62
               4
100
AcDbLine
 10
80.000030517578125
 20
0.20001220703125
 30
0.0
 11
80.000030517578125
 21
3.3543548583984375
 31
0.0
  0
LINE
  5
3F8
100
AcDbEntity
  8
0
  6
CONTINUOUS
 62
               4
100
AcDbLine
 10
62.000030517578125
 20
0.20001220703125
 30
0.0
 11
62.000030517578125
 21
3.5
 31
0.0
  0
LINE
  5
3F9
100
AcDbEntity
  8
0
  6
CONTINUOUS
 62
               4
100
AcDbLine
 10
62.000031471252441
 20
52.799999237060547
 30
0.0
 11
80.000030517578125
 21
52.799999237060547
 31
0.0
  0
LINE
  5
3FA
100
AcDbEntity
  8
0
  6
CONTINUOUS
 62
               4
100
AcDbLine
 10
62.000027656555176
 20
0.20001220703125
 30
0.0
 11
80.000026702880859
 21
0.20001220703125
 31
0.0
  0
LINE
  5
3FB
100
AcDbEntity
  8
0
  6
CONTINUOUS
 62
               4
100
AcDbLine
 10
77.500027656555176
 20
7.5
 30
0.0
 11
80.000027656555176
 21
7.5
 31
0.0
  0
LINE
  5
3FC
100
AcDbEntity
  8
0
  6
CONTINUOUS
 62
               4
100
AcDbLine
 10
74.500030517578125
 20
0.20001220703125
 30
0.0
 11
74.500030517578125
 21
4.5
 31
0.0
  0
LINE
  5
3FD
100
AcDbEntity
  8
0
  6
CONTINUOUS
 62
               4
100
AcDbLine
 10
67.500030517578125
 20
48.499999773506318
 30
0.0
 11
67.500030517578125
 21
52.799999237060547
 31
0.0
  0
LINE
  5
3FE
100
AcDbEntity
  8
0
  6
CONTINUOUS
 62
               4
100
AcDbLine
 10
62.000030517578125
 20
45.5
 30
0.0
 11
64.500030291084443
 21
45.5
 31
0.0
  0
LINE
  5
3FF
100
AcDbEntity
  8
0
  6
CONTINUOUS
 62
               4
100
AcDbLine
 10
78.560688577395013
 20
3.4393434073972458
 30
0.0
 11
76.439368448954156
 21
5.5606640722799057
 31
0.0
  0
LINE
  5
400
100
AcDbEntity
  8
0
  6
CONTINUOUS
 62
               4
100
AcDbLine
 10
65.560688694367911
 20
47.439337780128497
 30
0.0
 11
63.439368565927055
 21
49.560658445011157
 31
0.0
  0
LINE
  5
401
100
AcDbEntity
  8
0
  6
CONTINUOUS
 62
               4
100
AcDbLine
 10
63.439370475693011
 20
47.439339645223342
 30
0.0
 11
65.560690961761736
 21
49.560659952478133
 31
0.0
  0
LINE
  5
402
100
AcDbEntity
  8
0
  6
CONTINUOUS
 62
               4
100
AcDbLine
 10
76.439371979062344
 20
3.4393446820295139
 30
0.0
 11
78.560692465131069
 21
5.5606649892843052
 31
0.0
  0
LINE
  5
403
100
AcDbEntity
  8
0
  6
CONTINUOUS
 62
               4
100
AcDbLine
 10
80.000030517578125
 20
5.6456451416015625
 30
0.0
 11
80.000030517578125
 21
43.499999046325684
 31
0.0
  0
LINE
  5
404
100
AcDbEntity
  8
0
  6
CONTINUOUS
 62
               4
100
AcDbLine
 10
62.000030517578125
 20
49.645644187927246
 30
0.0
 11
62.000030517578125
 21
52.799999237060547
 31
0.0
  0
LINE
  5
405
100
AcDbEntity
  8
0
  6
CONTINUOUS
 62
               4
100
AcDbLine
 10
62.000027656555176
 20
3.5
 30
0.0
 11
64.50002712017249
 21
3.5
 31
0.0
  0
LINE
  5
406
100
AcDbEntity
  8
0
  6
CONTINUOUS
 62
               4
100
AcDbLine
 10
62.000027656555176
 20
9.5
 30
0.0
 11
64.500027573159969
 21
9.5
 31
0.0
  0
LINE
  5
407
100
AcDbEntity
  8
0
  6
CONTINUOUS
 62
               4
100
AcDbLine
 10
77.500030517578125
 20
43.5
 30
0.0
 11
80.000030517578125
 21
43.5
 31
0.0
  0
LINE
  5
408
100
AcDbEntity
  8
0
  6
CONTINUOUS
 62
               4
100
AcDbLine
 10
77.500030517578125
 20
49.5
 30
0.0
 11
80.000030517578125
 21
49.5
 31
0.0
  0
LINE
  5
409
100
AcDbEntity
  8
0
  6
CONTINUOUS
 62
               4
100
AcDbLine
 10
62.000030517578125
 20
9.5
 30
0.0
 11
62.000030517578125
 21
47.35435676574707
 31
0.0
  0
LINE
  5
40A
100
AcDbEntity
  8
0
  6
CONTINUOUS
 62
               4
100
AcDbLine
 10
80.000030517578125
 20
49.499998807907104
 30
0.0
 11
80.000030517578125
 21
52.79999828338623
 31
0.0
  0
LINE
  5
40B
100
AcDbEntity
  8
0
  6
CONTINUOUS
 62
             200
100
AcDbLine
 10
61.500028610229492
 20
17.0
 30
0.0
 11
80.500028610229492
 21
17.0
 31
0.0
  0
LINE
  5
40C
100
AcDbEntity
  8
0
  6
CONTINUOUS
 62
             200
100
AcDbLine
 10
61.500029563903809
 20
36.0
 30
0.0
 11
80.500029563903809
 21
36.0
 31
0.0
  0
ARC
  5
40D
100
AcDbEntity
  8
0
  6
CONTINUOUS
 62
               4
100
AcDbCircle
 10
77.500027656555176
 20
4.5
 30
0.0
 40
3.0
100
AcDbArc
 50
89.999982013910454
 51
179.99996402782091
  0
ARC
  5
40E
100
AcDbEntity
  8
0
  6
CONTINUOUS
 62
               4
100
AcDbCircle
 10
64.500030517578125
 20
48.5
 30
0.0
 40
3.0
100
AcDbArc
 50
270.00001798608872
 51
0.00001366037834
  0
CIRCLE
  5
40F
100
AcDbEntity
  8
0
  6
CONTINUOUS
 62
               4
100
AcDbCircle
 10
77.500027656555176
 20
4.5
 30
0.0
 40
2.75
  0
CIRCLE
  5
410
100
AcDbEntity
  8
0
  6
CONTINUOUS
 62
               4
100
AcDbCircle
 10
64.500030517578125
 20
48.5
 30
0.0
 40
2.75
  0
ARC
  5
411
100
AcDbEntity
  8
0
  6
CONTINUOUS
 62
               4
100
AcDbCircle
 10
64.500027346666684
 20
6.5
 30
0.0
 40
3.0
100
AcDbArc
 50
270.00001798608872
 51
89.999982013910454
  0
ARC
  5
412
100
AcDbEntity
  8
0
  6
CONTINUOUS
 62
               4
100
AcDbCircle
 10
77.500030517578125
 20
46.499999046325684
 30
0.0
 40
3.0
100
AcDbArc
 50
89.999982013910454
 51
269.99994604173139
  0
CIRCLE
  5
413
100
AcDbEntity
  8
0
  6
CONTINUOUS
 62
               4
100
AcDbCircle
 10
71.000030517578125
 20
36.0
 30
0.0
 40
8.9499999999999993
  0
ARC
  5
414
100
AcDbEntity
  8
0
  6
CONTINUOUS
 62
               4
100
AcDbCircle
 10
71.000030517578125
 20
36.0
 30
0.0
 40
8.4000000000000004
100
AcDbArc
 50
7.1848403149542479
 51
172.81515968504539
  0
ARC
  5
415
100
AcDbEntity
  8
0
  6
CONTINUOUS
 62
               4
100
AcDbCircle
 10
71.000030517578125
 20
36.0
 30
0.0
 40
8.4000000000000004
100
AcDbArc
 50
187.18484031495382
 51
352.81515968504499
  0
CIRCLE
  5
416
100
AcDbEntity
  8
0
  6
CONTINUOUS
 62
               4
100
AcDbCircle
 10
71.000030517578125
 20
36.0
 30
0.0
 40
5.0499999999999998
  0
CIRCLE
  5
417
100
AcDbEntity
  8
0
  6
CONTINUOUS
 62
               4
100
AcDbCircle
 10
71.000030517578125
 20
36.0
 30
0.0
 40
4.0499999999999998
  0
CIRCLE
  5
418
100
AcDbEntity
  8
0
  6
CONTINUOUS
 62
               4
100
AcDbCircle
 10
71.000030517578125
 20
17.0
 30
0.0
 40
8.9499999999999993
  0
ARC
  5
419
100
AcDbEntity
  8
0
  6
CONTINUOUS
 62
               4
100
AcDbCircle
 10
71.000030517578125
 20
17.0
 30
0.0
 40
8.4000000000000004
100
AcDbArc
 50
7.1848403149542479
 51
172.81515968504539
  0
CIRCLE
  5
41A
100
AcDbEntity
  8
0
  6
CONTINUOUS
 62
               4
100
AcDbCircle
 10
71.000030517578125
 20
17.0
 30
0.0
 40
5.0499999999999998
  0
CIRCLE
  5
41B
100
AcDbEntity
  8
0
  6
CONTINUOUS
 62
               4
100
AcDbCircle
 10
71.000030517578125
 20
17.0
 30
0.0
 40
4.0499999999999998
  0
ARC
  5
41C
100
AcDbEntity
  8
0
  6
CONTINUOUS
 62
               4
100
AcDbCircle
 10
71.000030517578125
 20
17.0
 30
0.0
 40
8.4000000000000004
100
AcDbArc
 50
187.18484031495382
 51
352.81515968504499
  0
LINE
  5
41D
100
AcDbEntity
  8
0
  6
CONTINUOUS
 62
               4
100
AcDbLine
 10
71.750030517578125
 20
26.190212184710433
 30
0.0
 11
71.750030517578125
 21
26.809787815289582
 31
0.0
  0
LINE
  5
41E
100
AcDbEntity
  8
0
  6
CONTINUOUS
 62
               4
100
AcDbLine
 10
70.250030517578125
 20
26.190212184710433
 30
0.0
 11
70.250030517578125
 21
26.809787815289582
 31
0.0
  0
ARC
  5
41F
100
AcDbEntity
  8
0
  6
CONTINUOUS
 62
               4
100
AcDbCircle
 10
69.950030517578114
 20
26.809787815289582
 30
0.0
 40
0.3
100
AcDbArc
 50
0.0
 51
83.482105791022562
  0
ARC
  5
420
100
AcDbEntity
  8
0
  6
CONTINUOUS
 62
               4
100
AcDbCircle
 10
69.950030517578114
 20
26.190212184710433
 30
0.0
 40
0.3
100
AcDbArc
 50
276.5178942089774
 51
0.0
  0
ARC
  5
421
100
AcDbEntity
  8
0
  6
CONTINUOUS
 62
               4
100
AcDbCircle
 10
72.050030517578108
 20
26.809787815289582
 30
0.0
 40
0.3
100
AcDbArc
 50
96.517894208978376
 51
179.99999999999963
  0
ARC
  5
422
100
AcDbEntity
  8
0
  6
CONTINUOUS
 62
               4
100
AcDbCircle
 10
72.050030517578108
 20
26.190212184710433
 30
0.0
 40
0.3
100
AcDbArc
 50
179.99999999999963
 51
263.48210579102226
  0
LINE
  5
423
100
AcDbEntity
  8
0
  6
CONTINUOUS
 62
               4
100
AcDbLine
 10
78.900030517578102
 20
35.200000000000003
 30
0.0
 11
79.334072273268589
 21
34.949405875512568
 31
0.0
  0
LINE
  5
424
100
AcDbEntity
  8
0
  6
CONTINUOUS
 62
               4
100
AcDbLine
 10
78.900030517578102
 20
36.799999999999997
 30
0.0
 11
79.334072273268589
 21
37.050594124487432
 31
0.0
  0
LINE
  5
425
100
AcDbEntity
  8
0
  6
CONTINUOUS
 62
               4
100
AcDbLine
 10
78.900030517578102
 20
35.200000000000003
 30
0.0
 11
78.900030517578102
 21
36.799999994039538
 31
0.0
  0
LINE
  5
426
100
AcDbEntity
  8
0
  6
CONTINUOUS
 62
               4
100
AcDbLine
 10
63.100030517578119
 20
36.799999999999997
 30
0.0
 11
62.665988761887633
 21
37.050594124487432
 31
0.0
  0
LINE
  5
427
100
AcDbEntity
  8
0
  6
CONTINUOUS
 62
               4
100
AcDbLine
 10
63.100030517578119
 20
35.200000000000003
 30
0.0
 11
62.665988761887633
 21
34.949405875512568
 31
0.0
  0
LINE
  5
428
100
AcDbEntity
  8
0
  6
CONTINUOUS
 62
               4
100
AcDbLine
 10
63.100030517578119
 20
35.200000000000003
 30
0.0
 11
63.100030517578119
 21
36.799999994039538
 31
0.0
  0
LINE
  5
429
100
AcDbEntity
  8
0
  6
CONTINUOUS
 62
               4
100
AcDbLine
 10
63.100030517578119
 20
16.200000000000003
 30
0.0
 11
62.665988761887633
 21
15.949405875512582
 31
0.0
  0
LINE
  5
42A
100
AcDbEntity
  8
0
  6
CONTINUOUS
 62
               4
100
AcDbLine
 10
63.100030517578119
 20
17.800000000000011
 30
0.0
 11
62.665988761887633
 21
18.050594124487432
 31
0.0
  0
LINE
  5
42B
100
AcDbEntity
  8
0
  6
CONTINUOUS
 62
               4
100
AcDbLine
 10
63.100030517578119
 20
16.200000000000003
 30
0.0
 11
63.100030517578119
 21
17.799999994039538
 31
0.0
  0
LINE
  5
42C
100
AcDbEntity
  8
0
  6
CONTINUOUS
 62
               4
100
AcDbLine
 10
78.900030517578102
 20
16.200000000000003
 30
0.0
 11
79.334072273268589
 21
15.949405875512582
 31
0.0
  0
LINE
  5
42D
100
AcDbEntity
  8
0
  6
CONTINUOUS
 62
               4
100
AcDbLine
 10
78.900030517578102
 20
17.800000000000011
 30
0.0
 11
79.334072273268589
 21
18.050594124487432
 31
0.0
  0
LINE
  5
42E
100
AcDbEntity
  8
0
  6
CONTINUOUS
 62
               4
100
AcDbLine
 10
78.900030517578102
 20
16.200000000000003
 30
0.0
 11
78.900030517578102
 21
17.799999994039538
 31
0.0
  0
LINE
  5
42F
100
AcDbEntity
  8
0
  6
CONTINUOUS
 62
               4
100
AcDbLine
 10
62.000030517578125
 20
44.139745962155587
 30
0.0
 11
67.278869990058269
 21
44.139745962155587
 31
0.0
  0
LINE
  5
430
100
AcDbEntity
  8
0
  6
CONTINUOUS
 62
               4
100
AcDbLine
 10
74.721191048622131
 20
8.8602540378444132
 30
0.0
 11
80.000030517578125
 21
8.8602540378444132
 31
0.0
  0
LINE
  5
431
100
AcDbEntity
  8
0
  6
CONTINUOUS
 62
               4
100
AcDbLine
 10
74.721191045097953
 20
44.139745962155587
 30
0.0
 11
75.648244666047447
 21
44.139745962155587
 31
0.0
  0
LINE
  5
432
100
AcDbEntity
  8
0
  6
CONTINUOUS
 62
               4
100
AcDbLine
 10
66.351864989938321
 20
8.8602540378444132
 30
0.0
 11
67.278869986534119
 21
8.8602540378444132
 31
0.0
  0
LINE
  5
433
100
AcDbEntity
  8
0
  6
CONTINUOUS
 62
               4
100
AcDbLine
 10
61.0
 20
0.4000129699730053
 30
0.0
 11
61.0
 21
3.5543556213401928
 31
0.0
  0
LINE
  5
434
100
AcDbEntity
  8
0
  6
CONTINUOUS
 62
               4
100
AcDbLine
 10
43.0
 20
0.4000129699730053
 30
0.0
 11
43.0
 21
3.7000007629417553
 31
0.0
  0
LINE
  5
435
100
AcDbEntity
  8
0
  6
CONTINUOUS
 62
               4
100
AcDbLine
 10
42.999997138977051
 20
0.4000129699730053
 30
0.0
 11
60.999996185302734
 21
0.4000129699730053
 31
0.0
  0
LINE
  5
436
100
AcDbEntity
  8
0
  6
CONTINUOUS
 62
               4
100
AcDbLine
 10
58.499997138977051
 20
7.7000007629417553
 30
0.0
 11
60.999997138977051
 21
7.7000007629417553
 31
0.0
  0
LINE
  5
437
100
AcDbEntity
  8
0
  6
CONTINUOUS
 62
               4
100
AcDbLine
 10
55.5
 20
0.4000129699730053
 30
0.0
 11
55.5
 21
4.7000007629417553
 31
0.0
  0
LINE
  5
438
100
AcDbEntity
  8
0
  6
CONTINUOUS
 62
               4
100
AcDbLine
 10
48.5
 20
48.700000536448073
 30
0.0
 11
48.5
 21
53.000000000002302
 31
0.0
  0
LINE
  5
439
100
AcDbEntity
  8
0
  6
CONTINUOUS
 62
               4
100
AcDbLine
 10
43.0
 20
45.700000762941755
 30
0.0
 11
45.499999773506318
 21
45.700000762941755
 31
0.0
  0
LINE
  5
43A
100
AcDbEntity
  8
0
  6
CONTINUOUS
 62
               4
100
AcDbLine
 10
59.560658059816888
 20
3.639344170339001
 30
0.0
 11
57.439337931376031
 21
5.760664835221661
 31
0.0
  0
LINE
  5
43B
100
AcDbEntity
  8
0
  6
CONTINUOUS
 62
               4
100
AcDbLine
 10
46.560658176789786
 20
47.639338543070252
 30
0.0
 11
44.43933804834893
 21
49.760659207952912
 31
0.0
  0
LINE
  5
43C
100
AcDbEntity
  8
0
  6
CONTINUOUS
 62
               4
100
AcDbLine
 10
44.439339958114886
 20
47.639340408165097
 30
0.0
 11
46.560660444183611
 21
49.760660715419888
 31
0.0
  0
LINE
  5
43D
100
AcDbEntity
  8
0
  6
CONTINUOUS
 62
               4
100
AcDbLine
 10
57.439341461484219
 20
3.6393454449712692
 30
0.0
 11
59.560661947552944
 21
5.7606657522260605
 31
0.0
  0
LINE
  5
43E
100
AcDbEntity
  8
0
  6
CONTINUOUS
 62
               4
100
AcDbLine
 10
61.0
 20
5.8456459045433178
 30
0.0
 11
61.0
 21
43.699999809267439
 31
0.0
  0
LINE
  5
43F
100
AcDbEntity
  8
0
  6
CONTINUOUS
 62
               7
100
AcDbLine
 10
43.0
 20
49.845644950869001
 30
0.0
 11
43.0
 21
53.000000000002302
 31
0.0
  0
LINE
  5
440
100
AcDbEntity
  8
0
  6
CONTINUOUS
 62
               4
100
AcDbLine
 10
42.999997138977051
 20
3.7000007629417553
 30
0.0
 11
45.499996602594365
 21
3.7000007629417553
 31
0.0
  0
LINE
  5
441
100
AcDbEntity
  8
0
  6
CONTINUOUS
 62
               4
100
AcDbLine
 10
42.999997138977051
 20
9.7000007629417553
 30
0.0
 11
45.499997055581844
 21
9.7000007629417553
 31
0.0
  0
LINE
  5
442
100
AcDbEntity
  8
0
  6
CONTINUOUS
 62
               4
100
AcDbLine
 10
58.5
 20
43.700000762941755
 30
0.0
 11
61.0
 21
43.700000762941755
 31
0.0
  0
LINE
  5
443
100
AcDbEntity
  8
0
  6
CONTINUOUS
 62
               4
100
AcDbLine
 10
58.5
 20
49.700000762941755
 30
0.0
 11
61.0
 21
49.700000762941755
 31
0.0
  0
LINE
  5
444
100
AcDbEntity
  8
0
  6
CONTINUOUS
 62
               4
100
AcDbLine
 10
43.0
 20
9.7000007629417553
 30
0.0
 11
43.0
 21
47.554357528688826
 31
0.0
  0
LINE
  5
445
100
AcDbEntity
  8
0
  6
CONTINUOUS
 62
               4
100
AcDbLine
 10
61.0
 20
49.69999957084886
 30
0.0
 11
61.0
 21
52.999999046327986
 31
0.0
  0
LINE
  5
446
100
AcDbEntity
  8
0
  6
CONTINUOUS
 62
             200
100
AcDbLine
 10
42.499998092651367
 20
17.200000762941755
 30
0.0
 11
61.499998092651367
 21
17.200000762941755
 31
0.0
  0
LINE
  5
447
100
AcDbEntity
  8
0
  6
CONTINUOUS
 62
             200
100
AcDbLine
 10
42.499999046325684
 20
36.200000762941755
 30
0.0
 11
61.499999046325684
 21
36.200000762941755
 31
0.0
  0
ARC
  5
448
100
AcDbEntity
  8
0
  6
CONTINUOUS
 62
               4
100
AcDbCircle
 10
58.499997138977051
 20
4.7000007629417553
 30
0.0
 40
3.0
100
AcDbArc
 50
89.999982013910454
 51
179.99996402782091
  0
ARC
  5
449
100
AcDbEntity
  8
0
  6
CONTINUOUS
 62
               4
100
AcDbCircle
 10
45.5
 20
48.700000762941755
 30
0.0
 40
3.0
100
AcDbArc
 50
270.00001798608872
 51
0.00001366037834
  0
CIRCLE
  5
44A
100
AcDbEntity
  8
0
  6
CONTINUOUS
 62
               4
100
AcDbCircle
 10
58.499997138977051
 20
4.7000007629417553
 30
0.0
 40
2.75
  0
CIRCLE
  5
44B
100
AcDbEntity
  8
0
  6
CONTINUOUS
 62
               4
100
AcDbCircle
 10
45.5
 20
48.700000762941755
 30
0.0
 40
2.75
  0
ARC
  5
44C
100
AcDbEntity
  8
0
  6
CONTINUOUS
 62
               4
100
AcDbCircle
 10
45.499996829088559
 20
6.7000007629417553
 30
0.0
 40
3.0
100
AcDbArc
 50
270.00001798608872
 51
89.999982013910454
  0
ARC
  5
44D
100
AcDbEntity
  8
0
  6
CONTINUOUS
 62
               4
100
AcDbCircle
 10
58.5
 20
46.699999809267439
 30
0.0
 40
3.0
100
AcDbArc
 50
89.999982013910454
 51
269.99994604173139
  0
CIRCLE
  5
44E
100
AcDbEntity
  8
0
  6
CONTINUOUS
 62
               4
100
AcDbCircle
 10
52.0
 20
36.200000762941755
 30
0.0
 40
8.9499999999999993
  0
ARC
  5
44F
100
AcDbEntity
  8
0
  6
CONTINUOUS
 62
               4
100
AcDbCircle
 10
52.0
 20
36.200000762941755
 30
0.0
 40
8.4000000000000004
100
AcDbArc
 50
7.1848403149542479
 51
172.81515968504539
  0
ARC
  5
450
100
AcDbEntity
  8
0
  6
CONTINUOUS
 62
               4
100
AcDbCircle
 10
52.0
 20
36.200000762941755
 30
0.0
 40
8.4000000000000004
100
AcDbArc
 50
187.18484031495382
 51
352.81515968504499
  0
CIRCLE
  5
451
100
AcDbEntity
  8
0
  6
CONTINUOUS
 62
               4
100
AcDbCircle
 10
52.0
 20
36.200000762941755
 30
0.0
 40
5.0499999999999998
  0
CIRCLE
  5
452
100
AcDbEntity
  8
0
  6
CONTINUOUS
 62
               4
100
AcDbCircle
 10
52.0
 20
36.200000762941755
 30
0.0
 40
4.0499999999999998
  0
CIRCLE
  5
453
100
AcDbEntity
  8
0
  6
CONTINUOUS
 62
               4
100
AcDbCircle
 10
52.0
 20
17.200000762941755
 30
0.0
 40
8.9499999999999993
  0
ARC
  5
454
100
AcDbEntity
  8
0
  6
CONTINUOUS
 62
               4
100
AcDbCircle
 10
52.0
 20
17.200000762941755
 30
0.0
 40
8.4000000000000004
100
AcDbArc
 50
7.1848403149542479
 51
172.81515968504539
  0
CIRCLE
  5
455
100
AcDbEntity
  8
0
  6
CONTINUOUS
 62
               4
100
AcDbCircle
 10
52.0
 20
17.200000762941755
 30
0.0
 40
5.0499999999999998
  0
CIRCLE
  5
456
100
AcDbEntity
  8
0
  6
CONTINUOUS
 62
               4
100
AcDbCircle
 10
52.0
 20
17.200000762941755
 30
0.0
 40
4.0499999999999998
  0
ARC
  5
457
100
AcDbEntity
  8
0
  6
CONTINUOUS
 62
               4
100
AcDbCircle
 10
52.0
 20
17.200000762941755
 30
0.0
 40
8.4000000000000004
100
AcDbArc
 50
187.18484031495382
 51
352.81515968504499
  0
LINE
  5
458
100
AcDbEntity
  8
0
  6
CONTINUOUS
 62
               4
100
AcDbLine
 10
52.75
 20
26.390212947652188
 30
0.0
 11
52.75
 21
27.009788578231337
 31
0.0
  0
LINE
  5
459
100
AcDbEntity
  8
0
  6
CONTINUOUS
 62
               4
100
AcDbLine
 10
51.25
 20
26.390212947652188
 30
0.0
 11
51.25
 21
27.009788578231337
 31
0.0
  0
ARC
  5
45A
100
AcDbEntity
  8
0
  6
CONTINUOUS
 62
               4
100
AcDbCircle
 10
50.949999999999989
 20
27.009788578231337
 30
0.0
 40
0.3
100
AcDbArc
 50
0.0
 51
83.482105791022562
  0
ARC
  5
45B
100
AcDbEntity
  8
0
  6
CONTINUOUS
 62
               4
100
AcDbCircle
 10
50.949999999999989
 20
26.390212947652188
 30
0.0
 40
0.3
100
AcDbArc
 50
276.5178942089774
 51
0.0
  0
ARC
  5
45C
100
AcDbEntity
  8
0
  6
CONTINUOUS
 62
               4
100
AcDbCircle
 10
53.049999999999983
 20
27.009788578231337
 30
0.0
 40
0.3
100
AcDbArc
 50
96.517894208978376
 51
179.99999999999963
  0
ARC
  5
45D
100
AcDbEntity
  8
0
  6
CONTINUOUS
 62
               4
100
AcDbCircle
 10
53.049999999999983
 20
26.390212947652188
 30
0.0
 40
0.3
100
AcDbArc
 50
179.99999999999963
 51
263.48210579102226
  0
LINE
  5
45E
100
AcDbEntity
  8
0
  6
CONTINUOUS
 62
               4
100
AcDbLine
 10
59.899999999999977
 20
35.400000762941758
 30
0.0
 11
60.334041755690464
 21
35.149406638454323
 31
0.0
  0
LINE
  5
45F
100
AcDbEntity
  8
0
  6
CONTINUOUS
 62
               4
100
AcDbLine
 10
59.899999999999977
 20
37.000000762941752
 30
0.0
 11
60.334041755690464
 21
37.250594887429187
 31
0.0
  0
LINE
  5
460
100
AcDbEntity
  8
0
  6
CONTINUOUS
 62
               4
100
AcDbLine
 10
59.899999999999977
 20
35.400000762941758
 30
0.0
 11
59.899999999999977
 21
37.000000756981294
 31
0.0
  0
LINE
  5
461
100
AcDbEntity
  8
0
  6
CONTINUOUS
 62
               4
100
AcDbLine
 10
44.099999999999994
 20
37.000000762941752
 30
0.0
 11
43.665958244309508
 21
37.250594887429187
 31
0.0
  0
LINE
  5
462
100
AcDbEntity
  8
0
  6
CONTINUOUS
 62
               4
100
AcDbLine
 10
44.099999999999994
 20
35.400000762941758
 30
0.0
 11
43.665958244309508
 21
35.149406638454323
 31
0.0
  0
LINE
  5
463
100
AcDbEntity
  8
0
  6
CONTINUOUS
 62
               4
100
AcDbLine
 10
44.099999999999994
 20
35.400000762941758
 30
0.0
 11
44.099999999999994
 21
37.000000756981294
 31
0.0
  0
LINE
  5
464
100
AcDbEntity
  8
0
  6
CONTINUOUS
 62
               4
100
AcDbLine
 10
44.099999999999994
 20
16.400000762941758
 30
0.0
 11
43.665958244309508
 21
16.149406638454323
 31
0.0
  0
LINE
  5
465
100
AcDbEntity
  8
0
  6
CONTINUOUS
 62
               4
100
AcDbLine
 10
44.099999999999994
 20
18.000000762941767
 30
0.0
 11
43.665958244309508
 21
18.250594887429187
 31
0.0
  0
LINE
  5
466
100
AcDbEntity
  8
0
  6
CONTINUOUS
 62
               4
100
AcDbLine
 10
44.099999999999994
 20
16.400000762941758
 30
0.0
 11
44.099999999999994
 21
18.000000756981294
 31
0.0
  0
LINE
  5
467
100
AcDbEntity
  8
0
  6
CONTINUOUS
 62
               4
100
AcDbLine
 10
59.899999999999977
 20
16.400000762941758
 30
0.0
 11
60.334041755690464
 21
16.149406638454323
 31
0.0
  0
LINE
  5
468
100
AcDbEntity
  8
0
  6
CONTINUOUS
 62
               4
100
AcDbLine
 10
59.899999999999977
 20
18.000000762941767
 30
0.0
 11
60.334041755690464
 21
18.250594887429187
 31
0.0
  0
LINE
  5
469
100
AcDbEntity
  8
0
  6
CONTINUOUS
 62
               4
100
AcDbLine
 10
59.899999999999977
 20
16.400000762941758
 30
0.0
 11
59.899999999999977
 21
18.000000756981294
 31
0.0
  0
LINE
  5
46A
100
AcDbEntity
  8
0
  6
CONTINUOUS
 62
               4
100
AcDbLine
 10
43.0
 20
44.339746725097342
 30
0.0
 11
48.278839472480144
 21
44.339746725097342
 31
0.0
  0
LINE
  5
46B
100
AcDbEntity
  8
0
  6
CONTINUOUS
 62
               4
100
AcDbLine
 10
55.721160531044006
 20
9.0602548007861685
 30
0.0
 11
61.0
 21
9.0602548007861685
 31
0.0
  0
LINE
  5
46C
100
AcDbEntity
  8
0
  6
CONTINUOUS
 62
               4
100
AcDbLine
 10
55.721160527519828
 20
44.339746725097342
 30
0.0
 11
56.648214148469322
 21
44.339746725097342
 31
0.0
  0
LINE
  5
46D
100
AcDbEntity
  8
0
  6
CONTINUOUS
 62
               4
100
AcDbLine
 10
47.351834472360196
 20
9.0602548007861685
 30
0.0
 11
48.278839468955994
 21
9.0602548007861685
 31
0.0
  0
LINE
  5
46E
100
AcDbEntity
  8
0
  6
CONTINUOUS
 62
               4
100
AcDbLine
 10
42.000030517578125
 20
0.4000129699707031
 30
0.0
 11
42.000030517578125
 21
3.5543556213378906
 31
0.0
  0
LINE
  5
46F
100
AcDbEntity
  8
0
  6
CONTINUOUS
 62
               4
100
AcDbLine
 10
24.000030517578125
 20
0.4000129699707031
 30
0.0
 11
24.000030517578125
 21
3.7000007629394531
 31
0.0
  0
LINE
  5
470
100
AcDbEntity
  8
0
  6
CONTINUOUS
 62
               4
100
AcDbLine
 10
24.000027656555176
 20
0.4000129699707031
 30
0.0
 11
42.000026702880859
 21
0.4000129699707031
 31
0.0
  0
LINE
  5
471
100
AcDbEntity
  8
0
  6
CONTINUOUS
 62
               4
100
AcDbLine
 10
39.500027656555176
 20
7.7000007629394531
 30
0.0
 11
42.000027656555176
 21
7.7000007629394531
 31
0.0
  0
LINE
  5
472
100
AcDbEntity
  8
0
  6
CONTINUOUS
 62
               4
100
AcDbLine
 10
36.500030517578125
 20
0.4000129699707031
 30
0.0
 11
36.500030517578125
 21
4.7000007629394531
 31
0.0
  0
LINE
  5
473
100
AcDbEntity
  8
0
  6
CONTINUOUS
 62
               4
100
AcDbLine
 10
29.500030517578125
 20
48.700000536445771
 30
0.0
 11
29.500030517578125
 21
53.0
 31
0.0
  0
LINE
  5
474
100
AcDbEntity
  8
0
  6
CONTINUOUS
 62
               4
100
AcDbLine
 10
24.000030517578125
 20
45.700000762939453
 30
0.0
 11
26.500030291084443
 21
45.700000762939453
 31
0.0
  0
LINE
  5
475
100
AcDbEntity
  8
0
  6
CONTINUOUS
 62
               4
100
AcDbLine
 10
40.560688577395013
 20
3.6393441703366989
 30
0.0
 11
38.439368448954156
 21
5.7606648352193588
 31
0.0
  0
LINE
  5
476
100
AcDbEntity
  8
0
  6
CONTINUOUS
 62
               4
100
AcDbLine
 10
27.560688694367911
 20
47.63933854306795
 30
0.0
 11
25.439368565927055
 21
49.76065920795061
 31
0.0
  0
LINE
  5
477
100
AcDbEntity
  8
0
  6
CONTINUOUS
 62
               4
100
AcDbLine
 10
25.439370475693011
 20
47.639340408162795
 30
0.0
 11
27.560690961761736
 21
49.760660715417586
 31
0.0
  0
LINE
  5
478
100
AcDbEntity
  8
0
  6
CONTINUOUS
 62
               4
100
AcDbLine
 10
38.439371979062344
 20
3.6393454449689671
 30
0.0
 11
40.560692465131069
 21
5.7606657522237583
 31
0.0
  0
LINE
  5
479
100
AcDbEntity
  8
0
  6
CONTINUOUS
 62
               4
100
AcDbLine
 10
42.000030517578125
 20
5.8456459045410156
 30
0.0
 11
42.000030517578125
 21
43.699999809265137
 31
0.0
  0
LINE
  5
47A
100
AcDbEntity
  8
0
  6
CONTINUOUS
 62
               7
100
AcDbLine
 10
24.000030517578125
 20
49.845644950866699
 30
0.0
 11
24.000030517578125
 21
53.0
 31
0.0
  0
LINE
  5
47B
100
AcDbEntity
  8
0
  6
CONTINUOUS
 62
               4
100
AcDbLine
 10
24.000027656555176
 20
3.7000007629394531
 30
0.0
 11
26.50002712017249
 21
3.7000007629394531
 31
0.0
  0
LINE
  5
47C
100
AcDbEntity
  8
0
  6
CONTINUOUS
 62
               4
100
AcDbLine
 10
24.000027656555176
 20
9.7000007629394531
 30
0.0
 11
26.500027573159969
 21
9.7000007629394531
 31
0.0
  0
LINE
  5
47D
100
AcDbEntity
  8
0
  6
CONTINUOUS
 62
               4
100
AcDbLine
 10
39.500030517578125
 20
43.700000762939453
 30
0.0
 11
42.000030517578125
 21
43.700000762939453
 31
0.0
  0
LINE
  5
47E
100
AcDbEntity
  8
0
  6
CONTINUOUS
 62
               4
100
AcDbLine
 10
39.500030517578125
 20
49.700000762939453
 30
0.0
 11
42.000030517578125
 21
49.700000762939453
 31
0.0
  0
LINE
  5
47F
100
AcDbEntity
  8
0
  6
CONTINUOUS
 62
               4
100
AcDbLine
 10
24.000030517578125
 20
9.7000007629394531
 30
0.0
 11
24.000030517578125
 21
47.554357528686523
 31
0.0
  0
LINE
  5
480
100
AcDbEntity
  8
0
  6
CONTINUOUS
 62
               4
100
AcDbLine
 10
42.000030517578125
 20
49.699999570846558
 30
0.0
 11
42.000030517578125
 21
52.999999046325684
 31
0.0
  0
LINE
  5
481
100
AcDbEntity
  8
0
  6
CONTINUOUS
 62
             200
100
AcDbLine
 10
23.500028610229492
 20
17.200000762939453
 30
0.0
 11
42.500028610229492
 21
17.200000762939453
 31
0.0
  0
LINE
  5
482
100
AcDbEntity
  8
0
  6
CONTINUOUS
 62
             200
100
AcDbLine
 10
23.500029563903809
 20
36.200000762939453
 30
0.0
 11
42.500029563903809
 21
36.200000762939453
 31
0.0
  0
ARC
  5
483
100
AcDbEntity
  8
0
  6
CONTINUOUS
 62
               4
100
AcDbCircle
 10
39.500027656555176
 20
4.7000007629394531
 30
0.0
 40
3.0
100
AcDbArc
 50
89.999982013910454
 51
179.99996402782091
  0
ARC
  5
484
100
AcDbEntity
  8
0
  6
CONTINUOUS
 62
               4
100
AcDbCircle
 10
26.500030517578125
 20
48.700000762939453
 30
0.0
 40
3.0
100
AcDbArc
 50
270.00001798608872
 51
0.00001366037834
  0
CIRCLE
  5
485
100
AcDbEntity
  8
0
  6
CONTINUOUS
 62
               4
100
AcDbCircle
 10
39.500027656555176
 20
4.7000007629394531
 30
0.0
 40
2.75
  0
CIRCLE
  5
486
100
AcDbEntity
  8
0
  6
CONTINUOUS
 62
               4
100
AcDbCircle
 10
26.500030517578125
 20
48.700000762939453
 30
0.0
 40
2.75
  0
ARC
  5
487
100
AcDbEntity
  8
0
  6
CONTINUOUS
 62
               4
100
AcDbCircle
 10
26.500027346666684
 20
6.7000007629394531
 30
0.0
 40
3.0
100
AcDbArc
 50
270.00001798608872
 51
89.999982013910454
  0
ARC
  5
488
100
AcDbEntity
  8
0
  6
CONTINUOUS
 62
               4
100
AcDbCircle
 10
39.500030517578125
 20
46.699999809265137
 30
0.0
 40
3.0
100
AcDbArc
 50
89.999982013910454
 51
269.99994604173139
  0
CIRCLE
  5
489
100
AcDbEntity
  8
0
  6
CONTINUOUS
 62
               4
100
AcDbCircle
 10
33.000030517578111
 20
36.200000762939453
 30
0.0
 40
8.9499999999999993
  0
ARC
  5
48A
100
AcDbEntity
  8
0
  6
CONTINUOUS
 62
               4
100
AcDbCircle
 10
33.000030517578111
 20
36.200000762939453
 30
0.0
 40
8.4000000000000004
100
AcDbArc
 50
7.1848403149542479
 51
172.81515968504539
  0
ARC
  5
48B
100
AcDbEntity
  8
0
  6
CONTINUOUS
 62
               4
100
AcDbCircle
 10
33.000030517578111
 20
36.200000762939453
 30
0.0
 40
8.4000000000000004
100
AcDbArc
 50
187.18484031495382
 51
352.81515968504499
  0
CIRCLE
  5
48C
100
AcDbEntity
  8
0
  6
CONTINUOUS
 62
               4
100
AcDbCircle
 10
33.000030517578111
 20
36.200000762939453
 30
0.0
 40
5.0499999999999998
  0
CIRCLE
  5
48D
100
AcDbEntity
  8
0
  6
CONTINUOUS
 62
               4
100
AcDbCircle
 10
33.000030517578111
 20
36.200000762939453
 30
0.0
 40
4.0499999999999998
  0
CIRCLE
  5
48E
100
AcDbEntity
  8
0
  6
CONTINUOUS
 62
               4
100
AcDbCircle
 10
33.000030517578111
 20
17.200000762939453
 30
0.0
 40
8.9499999999999993
  0
ARC
  5
48F
100
AcDbEntity
  8
0
  6
CONTINUOUS
 62
               4
100
AcDbCircle
 10
33.000030517578111
 20
17.200000762939453
 30
0.0
 40
8.4000000000000004
100
AcDbArc
 50
7.1848403149542479
 51
172.81515968504539
  0
CIRCLE
  5
490
100
AcDbEntity
  8
0
  6
CONTINUOUS
 62
               4
100
AcDbCircle
 10
33.000030517578111
 20
17.200000762939453
 30
0.0
 40
5.0499999999999998
  0
CIRCLE
  5
491
100
AcDbEntity
  8
0
  6
CONTINUOUS
 62
               4
100
AcDbCircle
 10
33.000030517578111
 20
17.200000762939453
 30
0.0
 40
4.0499999999999998
  0
ARC
  5
492
100
AcDbEntity
  8
0
  6
CONTINUOUS
 62
               4
100
AcDbCircle
 10
33.000030517578111
 20
17.200000762939453
 30
0.0
 40
8.4000000000000004
100
AcDbArc
 50
187.18484031495382
 51
352.81515968504499
  0
LINE
  5
493
100
AcDbEntity
  8
0
  6
CONTINUOUS
 62
               4
100
AcDbLine
 10
33.750030517578111
 20
26.390212947649886
 30
0.0
 11
33.750030517578111
 21
27.009788578229035
 31
0.0
  0
LINE
  5
494
100
AcDbEntity
  8
0
  6
CONTINUOUS
 62
               4
100
AcDbLine
 10
32.250030517578111
 20
26.390212947649886
 30
0.0
 11
32.250030517578111
 21
27.009788578229035
 31
0.0
  0
ARC
  5
495
100
AcDbEntity
  8
0
  6
CONTINUOUS
 62
               4
100
AcDbCircle
 10
31.950030517578114
 20
27.009788578229035
 30
0.0
 40
0.3
100
AcDbArc
 50
0.0
 51
83.482105791022562
  0
ARC
  5
496
100
AcDbEntity
  8
0
  6
CONTINUOUS
 62
               4
100
AcDbCircle
 10
31.950030517578114
 20
26.390212947649886
 30
0.0
 40
0.3
100
AcDbArc
 50
276.5178942089774
 51
0.0
  0
ARC
  5
497
100
AcDbEntity
  8
0
  6
CONTINUOUS
 62
               4
100
AcDbCircle
 10
34.050030517578108
 20
27.009788578229035
 30
0.0
 40
0.3
100
AcDbArc
 50
96.517894208978376
 51
179.99999999999963
  0
ARC
  5
498
100
AcDbEntity
  8
0
  6
CONTINUOUS
 62
               4
100
AcDbCircle
 10
34.050030517578108
 20
26.390212947649886
 30
0.0
 40
0.3
100
AcDbArc
 50
179.99999999999963
 51
263.48210579102226
  0
LINE
  5
499
100
AcDbEntity
  8
0
  6
CONTINUOUS
 62
               4
100
AcDbLine
 10
40.900030517578116
 20
35.400000762939456
 30
0.0
 11
41.334072273268589
 21
35.149406638452021
 31
0.0
  0
LINE
  5
49A
100
AcDbEntity
  8
0
  6
CONTINUOUS
 62
               4
100
AcDbLine
 10
40.900030517578116
 20
37.00000076293945
 30
0.0
 11
41.334072273268589
 21
37.250594887426885
 31
0.0
  0
LINE
  5
49B
100
AcDbEntity
  8
0
  6
CONTINUOUS
 62
               4
100
AcDbLine
 10
40.900030517578116
 20
35.400000762939456
 30
0.0
 11
40.900030517578116
 21
37.000000756978991
 31
0.0
  0
LINE
  5
49C
100
AcDbEntity
  8
0
  6
CONTINUOUS
 62
               4
100
AcDbLine
 10
25.100030517578119
 20
37.00000076293945
 30
0.0
 11
24.665988761887633
 21
37.250594887426885
 31
0.0
  0
LINE
  5
49D
100
AcDbEntity
  8
0
  6
CONTINUOUS
 62
               4
100
AcDbLine
 10
25.100030517578119
 20
35.400000762939456
 30
0.0
 11
24.665988761887633
 21
35.149406638452021
 31
0.0
  0
LINE
  5
49E
100
AcDbEntity
  8
0
  6
CONTINUOUS
 62
               4
100
AcDbLine
 10
25.100030517578119
 20
35.400000762939456
 30
0.0
 11
25.100030517578119
 21
37.000000756978991
 31
0.0
  0
LINE
  5
49F
100
AcDbEntity
  8
0
  6
CONTINUOUS
 62
               4
100
AcDbLine
 10
25.100030517578119
 20
16.400000762939456
 30
0.0
 11
24.665988761887633
 21
16.149406638452021
 31
0.0
  0
LINE
  5
4A0
100
AcDbEntity
  8
0
  6
CONTINUOUS
 62
               4
100
AcDbLine
 10
25.100030517578119
 20
18.000000762939464
 30
0.0
 11
24.665988761887633
 21
18.250594887426885
 31
0.0
  0
LINE
  5
4A1
100
AcDbEntity
  8
0
  6
CONTINUOUS
 62
               4
100
AcDbLine
 10
25.100030517578119
 20
16.400000762939456
 30
0.0
 11
25.100030517578119
 21
18.000000756978991
 31
0.0
  0
LINE
  5
4A2
100
AcDbEntity
  8
0
  6
CONTINUOUS
 62
               4
100
AcDbLine
 10
40.900030517578116
 20
16.400000762939456
 30
0.0
 11
41.334072273268589
 21
16.149406638452021
 31
0.0
  0
LINE
  5
4A3
100
AcDbEntity
  8
0
  6
CONTINUOUS
 62
               4
100
AcDbLine
 10
40.900030517578116
 20
18.000000762939464
 30
0.0
 11
41.334072273268589
 21
18.250594887426885
 31
0.0
  0
LINE
  5
4A4
100
AcDbEntity
  8
0
  6
CONTINUOUS
 62
               4
100
AcDbLine
 10
40.900030517578116
 20
16.400000762939456
 30
0.0
 11
40.900030517578116
 21
18.000000756978991
 31
0.0
  0
LINE
  5
4A5
100
AcDbEntity
  8
0
  6
CONTINUOUS
 62
               4
100
AcDbLine
 10
24.000030517578125
 20
44.33974672509504
 30
0.0
 11
29.278869990058269
 21
44.33974672509504
 31
0.0
  0
LINE
  5
4A6
100
AcDbEntity
  8
0
  6
CONTINUOUS
 62
               4
100
AcDbLine
 10
36.721191048622117
 20
9.0602548007838664
 30
0.0
 11
42.000030517578125
 21
9.0602548007838664
 31
0.0
  0
LINE
  5
4A7
100
AcDbEntity
  8
0
  6
CONTINUOUS
 62
               4
100
AcDbLine
 10
36.721191045097953
 20
44.33974672509504
 30
0.0
 11
37.648244666047461
 21
44.33974672509504
 31
0.0
  0
LINE
  5
4A8
100
AcDbEntity
  8
0
  6
CONTINUOUS
 62
               4
100
AcDbLine
 10
28.351864989938321
 20
9.0602548007838664
 30
0.0
 11
29.278869986534119
 21
9.0602548007838664
 31
0.0
  0
LINE
  5
4A9
100
AcDbEntity
  8
0
  6
CONTINUOUS
 62
               4
100
AcDbLine
 10
22.999969482421875
 20
0.4000129699707031
 30
0.0
 11
22.999969482421875
 21
3.5543556213378906
 31
0.0
  0
LINE
  5
4AA
100
AcDbEntity
  8
0
  6
CONTINUOUS
 62
               4
100
AcDbLine
 10
4.999969482421875
 20
0.4000129699707031
 30
0.0
 11
4.999969482421875
 21
3.7000007629394531
 31
0.0
  0
LINE
  5
4AB
100
AcDbEntity
  8
0
  6
CONTINUOUS
 62
               4
100
AcDbLine
 10
4.9999666213989258
 20
0.4000129699707031
 30
0.0
 11
22.999965667724609
 21
0.4000129699707031
 31
0.0
  0
LINE
  5
4AC
100
AcDbEntity
  8
0
  6
CONTINUOUS
 62
               4
100
AcDbLine
 10
20.499966621398926
 20
7.7000007629394531
 30
0.0
 11
22.999966621398926
 21
7.7000007629394531
 31
0.0
  0
LINE
  5
4AD
100
AcDbEntity
  8
0
  6
CONTINUOUS
 62
               4
100
AcDbLine
 10
17.499969482421875
 20
0.4000129699707031
 30
0.0
 11
17.499969482421875
 21
4.7000007629394531
 31
0.0
  0
LINE
  5
4AE
100
AcDbEntity
  8
0
  6
CONTINUOUS
 62
               4
100
AcDbLine
 10
10.499969482421875
 20
48.700000536445771
 30
0.0
 11
10.499969482421875
 21
53.0
 31
0.0
  0
LINE
  5
4AF
100
AcDbEntity
  8
0
  6
CONTINUOUS
 62
               4
100
AcDbLine
 10
4.999969482421875
 20
45.700000762939453
 30
0.0
 11
7.4999692559281925
 21
45.700000762939453
 31
0.0
  0
LINE
  5
4B0
100
AcDbEntity
  8
0
  6
CONTINUOUS
 62
               4
100
AcDbLine
 10
21.560627542238763
 20
3.6393441703366989
 30
0.0
 11
19.439307413797906
 21
5.7606648352193588
 31
0.0
  0
LINE
  5
4B1
100
AcDbEntity
  8
0
  6
CONTINUOUS
 62
               4
100
AcDbLine
 10
8.5606276592116615
 20
47.63933854306795
 30
0.0
 11
6.4393075307708045
 21
49.76065920795061
 31
0.0
  0
LINE
  5
4B2
100
AcDbEntity
  8
0
  6
CONTINUOUS
 62
               4
100
AcDbLine
 10
6.4393094405367606
 20
47.639340408162795
 30
0.0
 11
8.5606299266054862
 21
49.760660715417586
 31
0.0
  0
LINE
  5
4B3
100
AcDbEntity
  8
0
  6
CONTINUOUS
 62
               4
100
AcDbLine
 10
19.439310943906094
 20
3.6393454449689671
 30
0.0
 11
21.560631429974819
 21
5.7606657522237583
 31
0.0
  0
LINE
  5
4B4
100
AcDbEntity
  8
0
  6
CONTINUOUS
 62
               4
100
AcDbLine
 10
22.999969482421875
 20
5.8456459045410156
 30
0.0
 11
22.999969482421875
 21
43.699999809265137
 31
0.0
  0
LINE
  5
4B5
100
AcDbEntity
  8
0
  6
CONTINUOUS
 62
               7
100
AcDbLine
 10
4.999969482421875
 20
49.845644950866699
 30
0.0
 11
4.999969482421875
 21
53.0
 31
0.0
  0
LINE
  5
4B6
100
AcDbEntity
  8
0
  6
CONTINUOUS
 62
               4
100
AcDbLine
 10
4.9999666213989258
 20
3.7000007629394531
 30
0.0
 11
7.49996608501624
 21
3.7000007629394531
 31
0.0
  0
LINE
  5
4B7
100
AcDbEntity
  8
0
  6
CONTINUOUS
 62
               4
100
AcDbLine
 10
4.9999666213989258
 20
9.7000007629394531
 30
0.0
 11
7.4999665380037186
 21
9.7000007629394531
 31
0.0
  0
LINE
  5
4B8
100
AcDbEntity
  8
0
  6
CONTINUOUS
 62
               4
100
AcDbLine
 10
20.499969482421875
 20
43.700000762939453
 30
0.0
 11
22.999969482421875
 21
43.700000762939453
 31
0.0
  0
LINE
  5
4B9
100
AcDbEntity
  8
0
  6
CONTINUOUS
 62
               4
100
AcDbLine
 10
20.499969482421875
 20
49.700000762939453
 30
0.0
 11
22.999969482421875
 21
49.700000762939453
 31
0.0
  0
LINE
  5
4BA
100
AcDbEntity
  8
0
  6
CONTINUOUS
 62
               4
100
AcDbLine
 10
4.999969482421875
 20
9.7000007629394531
 30
0.0
 11
4.999969482421875
 21
47.554357528686523
 31
0.0
  0
LINE
  5
4BB
100
AcDbEntity
  8
0
  6
CONTINUOUS
 62
               4
100
AcDbLine
 10
22.999969482421875
 20
49.699999570846558
 30
0.0
 11
22.999969482421875
 21
52.999999046325684
 31
0.0
  0
LINE
  5
4BC
100
AcDbEntity
  8
0
  6
CONTINUOUS
 62
             200
100
AcDbLine
 10
4.4999675750732422
 20
17.200000762939453
 30
0.0
 11
23.499967575073242
 21
17.200000762939453
 31
0.0
  0
LINE
  5
4BD
100
AcDbEntity
  8
0
  6
CONTINUOUS
 62
             200
100
AcDbLine
 10
4.4999685287475586
 20
36.200000762939453
 30
0.0
 11
23.499968528747559
 21
36.200000762939453
 31
0.0
  0
ARC
  5
4BE
100
AcDbEntity
  8
0
  6
CONTINUOUS
 62
               4
100
AcDbCircle
 10
20.499966621398926
 20
4.7000007629394531
 30
0.0
 40
3.0
100
AcDbArc
 50
89.999982013910454
 51
179.99996402782091
  0
ARC
  5
4BF
100
AcDbEntity
  8
0
  6
CONTINUOUS
 62
               4
100
AcDbCircle
 10
7.499969482421875
 20
48.700000762939453
 30
0.0
 40
3.0
100
AcDbArc
 50
270.00001798608872
 51
0.00001366037834
  0
CIRCLE
  5
4C0
100
AcDbEntity
  8
0
  6
CONTINUOUS
 62
               4
100
AcDbCircle
 10
20.499966621398926
 20
4.7000007629394531
 30
0.0
 40
2.75
  0
CIRCLE
  5
4C1
100
AcDbEntity
  8
0
  6
CONTINUOUS
 62
               4
100
AcDbCircle
 10
7.499969482421875
 20
48.700000762939453
 30
0.0
 40
2.75
  0
ARC
  5
4C2
100
AcDbEntity
  8
0
  6
CONTINUOUS
 62
               4
100
AcDbCircle
 10
7.499966311510434
 20
6.7000007629394531
 30
0.0
 40
3.0
100
AcDbArc
 50
270.00001798608872
 51
89.999982013910454
  0
ARC
  5
4C3
100
AcDbEntity
  8
0
  6
CONTINUOUS
 62
               4
100
AcDbCircle
 10
20.499969482421875
 20
46.699999809265137
 30
0.0
 40
3.0
100
AcDbArc
 50
89.999982013910454
 51
269.99994604173139
  0
CIRCLE
  5
4C4
100
AcDbEntity
  8
0
  6
CONTINUOUS
 62
               4
100
AcDbCircle
 10
13.999969482421861
 20
36.200000762939453
 30
0.0
 40
8.9499999999999993
  0
ARC
  5
4C5
100
AcDbEntity
  8
0
  6
CONTINUOUS
 62
               4
100
AcDbCircle
 10
13.999969482421861
 20
36.200000762939453
 30
0.0
 40
8.4000000000000004
100
AcDbArc
 50
7.1848403149542479
 51
172.81515968504539
  0
ARC
  5
4C6
100
AcDbEntity
  8
0
  6
CONTINUOUS
 62
               4
100
AcDbCircle
 10
13.999969482421861
 20
36.200000762939453
 30
0.0
 40
8.4000000000000004
100
AcDbArc
 50
187.18484031495382
 51
352.81515968504499
  0
CIRCLE
  5
4C7
100
AcDbEntity
  8
0
  6
CONTINUOUS
 62
               4
100
AcDbCircle
 10
13.999969482421861
 20
36.200000762939453
 30
0.0
 40
5.0499999999999998
  0
CIRCLE
  5
4C8
100
AcDbEntity
  8
0
  6
CONTINUOUS
 62
               4
100
AcDbCircle
 10
13.999969482421861
 20
36.200000762939453
 30
0.0
 40
4.0499999999999998
  0
CIRCLE
  5
4C9
100
AcDbEntity
  8
0
  6
CONTINUOUS
 62
               4
100
AcDbCircle
 10
13.999969482421861
 20
17.200000762939453
 30
0.0
 40
8.9499999999999993
  0
ARC
  5
4CA
100
AcDbEntity
  8
0
  6
CONTINUOUS
 62
               4
100
AcDbCircle
 10
13.999969482421861
 20
17.200000762939453
 30
0.0
 40
8.4000000000000004
100
AcDbArc
 50
7.1848403149542479
 51
172.81515968504539
  0
CIRCLE
  5
4CB
100
AcDbEntity
  8
0
  6
CONTINUOUS
 62
               4
100
AcDbCircle
 10
13.999969482421861
 20
17.200000762939453
 30
0.0
 40
5.0499999999999998
  0
CIRCLE
  5
4CC
100
AcDbEntity
  8
0
  6
CONTINUOUS
 62
               4
100
AcDbCircle
 10
13.999969482421861
 20
17.200000762939453
 30
0.0
 40
4.0499999999999998
  0
ARC
  5
4CD
100
AcDbEntity
  8
0
  6
CONTINUOUS
 62
               4
100
AcDbCircle
 10
13.999969482421861
 20
17.200000762939453
 30
0.0
 40
8.4000000000000004
100
AcDbArc
 50
187.18484031495382
 51
352.81515968504499
  0
LINE
  5
4CE
100
AcDbEntity
  8
0
  6
CONTINUOUS
 62
               4
100
AcDbLine
 10
14.749969482421861
 20
26.390212947649886
 30
0.0
 11
14.749969482421861
 21
27.009788578229035
 31
0.0
  0
LINE
  5
4CF
100
AcDbEntity
  8
0
  6
CONTINUOUS
 62
               4
100
AcDbLine
 10
13.249969482421861
 20
26.390212947649886
 30
0.0
 11
13.249969482421861
 21
27.009788578229035
 31
0.0
  0
ARC
  5
4D0
100
AcDbEntity
  8
0
  6
CONTINUOUS
 62
               4
100
AcDbCircle
 10
12.949969482421864
 20
27.009788578229035
 30
0.0
 40
0.3
100
AcDbArc
 50
0.0
 51
83.482105791022562
  0
ARC
  5
4D1
100
AcDbEntity
  8
0
  6
CONTINUOUS
 62
               4
100
AcDbCircle
 10
12.949969482421864
 20
26.390212947649886
 30
0.0
 40
0.3
100
AcDbArc
 50
276.5178942089774
 51
0.0
  0
ARC
  5
4D2
100
AcDbEntity
  8
0
  6
CONTINUOUS
 62
               4
100
AcDbCircle
 10
15.049969482421858
 20
27.009788578229035
 30
0.0
 40
0.3
100
AcDbArc
 50
96.517894208978376
 51
179.99999999999963
  0
ARC
  5
4D3
100
AcDbEntity
  8
0
  6
CONTINUOUS
 62
               4
100
AcDbCircle
 10
15.049969482421858
 20
26.390212947649886
 30
0.0
 40
0.3
100
AcDbArc
 50
179.99999999999963
 51
263.48210579102226
  0
LINE
  5
4D4
100
AcDbEntity
  8
0
  6
CONTINUOUS
 62
               4
100
AcDbLine
 10
21.899969482421866
 20
35.400000762939456
 30
0.0
 11
22.334011238112339
 21
35.149406638452021
 31
0.0
  0
LINE
  5
4D5
100
AcDbEntity
  8
0
  6
CONTINUOUS
 62
               4
100
AcDbLine
 10
21.899969482421866
 20
37.00000076293945
 30
0.0
 11
22.334011238112339
 21
37.250594887426885
 31
0.0
  0
LINE
  5
4D6
100
AcDbEntity
  8
0
  6
CONTINUOUS
 62
               4
100
AcDbLine
 10
21.899969482421866
 20
35.400000762939456
 30
0.0
 11
21.899969482421866
 21
37.000000756978991
 31
0.0
  0
LINE
  5
4D7
100
AcDbEntity
  8
0
  6
CONTINUOUS
 62
               4
100
AcDbLine
 10
6.0999694824218693
 20
37.00000076293945
 30
0.0
 11
5.6659277267313826
 21
37.250594887426885
 31
0.0
  0
LINE
  5
4D8
100
AcDbEntity
  8
0
  6
CONTINUOUS
 62
               4
100
AcDbLine
 10
6.0999694824218693
 20
35.400000762939456
 30
0.0
 11
5.6659277267313826
 21
35.149406638452021
 31
0.0
  0
LINE
  5
4D9
100
AcDbEntity
  8
0
  6
CONTINUOUS
 62
               4
100
AcDbLine
 10
6.0999694824218693
 20
35.400000762939456
 30
0.0
 11
6.0999694824218693
 21
37.000000756978991
 31
0.0
  0
LINE
  5
4DA
100
AcDbEntity
  8
0
  6
CONTINUOUS
 62
               4
100
AcDbLine
 10
6.0999694824218693
 20
16.400000762939456
 30
0.0
 11
5.6659277267313826
 21
16.149406638452021
 31
0.0
  0
LINE
  5
4DB
100
AcDbEntity
  8
0
  6
CONTINUOUS
 62
               4
100
AcDbLine
 10
6.0999694824218693
 20
18.000000762939464
 30
0.0
 11
5.6659277267313826
 21
18.250594887426885
 31
0.0
  0
LINE
  5
4DC
100
AcDbEntity
  8
0
  6
CONTINUOUS
 62
               4
100
AcDbLine
 10
6.0999694824218693
 20
16.400000762939456
 30
0.0
 11
6.0999694824218693
 21
18.000000756978991
 31
0.0
  0
LINE
  5
4DD
100
AcDbEntity
  8
0
  6
CONTINUOUS
 62
               4
100
AcDbLine
 10
21.899969482421866
 20
16.400000762939456
 30
0.0
 11
22.334011238112339
 21
16.149406638452021
 31
0.0
  0
LINE
  5
4DE
100
AcDbEntity
  8
0
  6
CONTINUOUS
 62
               4
100
AcDbLine
 10
21.899969482421866
 20
18.000000762939464
 30
0.0
 11
22.334011238112339
 21
18.250594887426885
 31
0.0
  0
LINE
  5
4DF
100
AcDbEntity
  8
0
  6
CONTINUOUS
 62
               4
100
AcDbLine
 10
21.899969482421866
 20
16.400000762939456
 30
0.0
 11
21.899969482421866
 21
18.000000756978991
 31
0.0
  0
LINE
  5
4E0
100
AcDbEntity
  8
0
  6
CONTINUOUS
 62
               4
100
AcDbLine
 10
4.999969482421875
 20
44.33974672509504
 30
0.0
 11
10.278808954902019
 21
44.33974672509504
 31
0.0
  0
LINE
  5
4E1
100
AcDbEntity
  8
0
  6
CONTINUOUS
 62
               4
100
AcDbLine
 10
17.721130013465867
 20
9.0602548007838664
 30
0.0
 11
22.999969482421861
 21
9.0602548007838664
 31
0.0
  0
LINE
  5
4E2
100
AcDbEntity
  8
0
  6
CONTINUOUS
 62
               4
100
AcDbLine
 10
17.721130009941703
 20
44.33974672509504
 30
0.0
 11
18.648183630891211
 21
44.33974672509504
 31
0.0
  0
LINE
  5
4E3
100
AcDbEntity
  8
0
  6
CONTINUOUS
 62
               4
100
AcDbLine
 10
9.3518039547820706
 20
9.0602548007838664
 30
0.0
 11
10.278808951377869
 21
9.0602548007838664
 31
0.0
  0
ARC
  5
4E4
100
AcDbEntity
  8
0
  6
CONTINUOUS
 62
               7
100
AcDbCircle
 10
19.25
 20
89.0
 30
0.0
 40
1.5
100
AcDbArc
 50
89.999982013910454
 51
160.52878859102876
  0
ARC
  5
4E5
100
AcDbEntity
  8
0
  6
CONTINUOUS
 62
               7
100
AcDbCircle
 10
21.75
 20
89.0
 30
0.0
 40
1.5
100
AcDbArc
 50
0.0
 51
89.999982013910454
  0
ARC
  5
4E6
100
AcDbEntity
  8
0
  6
CONTINUOUS
 62
               7
100
AcDbCircle
 10
5.5
 20
90.0
 30
0.0
 40
0.5
100
AcDbArc
 50
89.999982013910454
 51
179.99996402782091
  0
ARC
  5
4E7
100
AcDbEntity
  8
0
  6
CONTINUOUS
 62
               7
100
AcDbCircle
 10
22.5
 20
90.0
 30
0.0
 40
0.5
100
AcDbArc
 50
0.0
 51
89.999982013910454
  0
CIRCLE
  5
4E8
100
AcDbEntity
  8
0
  6
CONTINUOUS
 62
               7
100
AcDbCircle
 10
20.0
 20
56.5
 30
0.0
 40
2.7999992370605469
  0
ARC
  5
4E9
100
AcDbEntity
  8
0
  6
CONTINUOUS
 62
               7
100
AcDbCircle
 10
20.0
 20
56.5
 30
0.0
 40
3.0
100
AcDbArc
 50
89.999982013910454
 51
179.99996402782091
  0
CIRCLE
  5
4EA
100
AcDbEntity
  8
0
  6
CONTINUOUS
 62
               7
100
AcDbCircle
 10
8.0
 20
82.500015258789063
 30
0.0
 40
2.7999992370605469
  0
ARC
  5
4EB
100
AcDbEntity
  8
0
  6
CONTINUOUS
 62
               7
100
AcDbCircle
 10
5.5
 20
87.000015258789063
 30
0.0
 40
0.5
100
AcDbArc
 50
89.999982013910454
 51
180.00001866933428
  0
ARC
  5
4EC
100
AcDbEntity
  8
0
  6
CONTINUOUS
 62
               7
100
AcDbCircle
 10
22.5
 20
87.000015258789063
 30
0.0
 40
0.5
100
AcDbArc
 50
0.00001366037834
 51
89.999982013910454
  0
ARC
  5
4ED
100
AcDbEntity
  8
0
  6
CONTINUOUS
 62
               7
100
AcDbCircle
 10
8.0
 20
82.500015258789063
 30
0.0
 40
3.0
100
AcDbArc
 50
270.00001798608872
 51
90.00014593845053
  0
ARC
  5
4EE
100
AcDbEntity
  8
0
  6
CONTINUOUS
 62
               4
100
AcDbCircle
 10
63.200027465820312
 20
57.199996948242188
 30
0.0
 40
1.5
100
AcDbArc
 50
89.999982013910454
 51
179.99996402782091
  0
ARC
  5
4EF
100
AcDbEntity
  8
0
  6
CONTINUOUS
 62
               4
100
AcDbCircle
 10
65.800033569335937
 20
57.199996948242188
 30
0.0
 40
1.5
100
AcDbArc
 50
0.0
 51
89.999982013910454
  0
ARC
  5
4F0
100
AcDbEntity
  8
0
  6
CONTINUOUS
 62
               4
100
AcDbCircle
 10
76.200027465820312
 20
57.199996948242188
 30
0.0
 40
1.5
100
AcDbArc
 50
89.999982013910454
 51
179.99996402782091
  0
ARC
  5
4F1
100
AcDbEntity
  8
0
  6
CONTINUOUS
 62
               4
100
AcDbCircle
 10
78.800033569335937
 20
57.199996948242188
 30
0.0
 40
1.5
100
AcDbArc
 50
0.0
 51
89.999982013910454
  0
LINE
  5
4F2
100
AcDbEntity
  8
0
  6
CONTINUOUS
 62
               7
100
AcDbLine
 10
-5.0
 20
0.0
 30
0.0
 11
90.0
 21
0.0
 31
0.0
  0
LINE
  5
4F3
100
AcDbEntity
  8
0
  6
CONTINUOUS
 62
               7
100
AcDbLine
 10
22.999984741210937
 20
88.5
 30
0.0
 11
22.999984741210937
 21
53.0
 31
0.0
  0
LINE
  5
4F4
100
AcDbEntity
  8
0
  6
CONTINUOUS
 62
               7
100
AcDbLine
 10
23.25
 20
89.0
 30
0.0
 11
23.25
 21
88.5
 31
0.0
  0
LINE
  5
4F5
100
AcDbEntity
  8
0
  6
CONTINUOUS
 62
               7
100
AcDbLine
 10
17.5
 20
90.5
 30
0.0
 11
17.5
 21
89.5
 31
0.0
  0
LINE
  5
4F6
100
AcDbEntity
  8
0
  6
CONTINUOUS
 62
               7
100
AcDbLine
 10
4.9999847412109375
 20
88.5
 30
0.0
 11
23.25
 21
88.5
 31
0.0
  0
LINE
  5
4F7
100
AcDbEntity
  8
0
  6
CONTINUOUS
 62
               7
100
AcDbLine
 10
5.5
 20
90.5
 30
0.0
 11
22.5
 21
90.5
 31
0.0
  0
LINE
  5
4F8
100
AcDbEntity
  8
0
  6
CONTINUOUS
 62
               7
100
AcDbLine
 10
8.0000152587890625
 20
85.500015258789063
 30
0.0
 11
5.0000152587890625
 21
85.500015258789063
 31
0.0
  0
LINE
  5
4F9
100
AcDbEntity
  8
0
  6
CONTINUOUS
 62
               7
100
AcDbLine
 10
18.939340761010556
 20
57.560612908944677
 30
0.0
 11
21.060660531823544
 21
55.439291886434148
 31
0.0
  0
LINE
  5
4FA
100
AcDbEntity
  8
0
  6
CONTINUOUS
 62
               7
100
AcDbLine
 10
21.060818281091088
 20
57.560488877074022
 30
0.0
 11
18.939491863782223
 21
55.439163711465881
 31
0.0
  0
LINE
  5
4FB
100
AcDbEntity
  8
0
  6
CONTINUOUS
 62
               7
100
AcDbLine
 10
17.0
 20
56.5
 30
0.0
 11
17.0
 21
53.5
 31
0.0
  0
LINE
  5
4FC
100
AcDbEntity
  8
0
  6
CONTINUOUS
 62
               7
100
AcDbLine
 10
20.000015258789063
 20
59.5
 30
0.0
 11
23.000015258789063
 21
59.5
 31
0.0
  0
LINE
  5
4FD
100
AcDbEntity
  8
0
  6
CONTINUOUS
 62
               7
100
AcDbLine
 10
6.9394379791774554
 20
81.439250412892761
 30
0.0
 11
9.0607593593158526
 21
83.560569826077881
 31
0.0
  0
LINE
  5
4FE
100
AcDbEntity
  8
0
  6
CONTINUOUS
 62
               7
100
AcDbLine
 10
9.0606720591313206
 20
81.439335746204051
 30
0.0
 11
6.9393526459462009
 21
83.560657126342448
 31
0.0
  0
LINE
  5
4FF
100
AcDbEntity
  8
0
  6
CONTINUOUS
 62
               7
100
AcDbLine
 10
7.4999282655680872
 20
89.5001052094849
 30
0.0
 11
6.4999277940351021
 21
88.500103557838884
 31
0.0
  0
LINE
  5
500
100
AcDbEntity
  8
0
  6
CONTINUOUS
 62
               7
100
AcDbLine
 10
21.499994041250829
 20
88.500011003392501
 30
0.0
 11
20.499993232542693
 21
89.500012317863366
 31
0.0
  0
LINE
  5
501
100
AcDbEntity
  8
0
  6
CONTINUOUS
 62
               7
100
AcDbLine
 10
6.4999847412109375
 20
88.500015258789063
 30
0.0
 11
6.4999847412109375
 21
87.500015258789063
 31
0.0
  0
LINE
  5
502
100
AcDbEntity
  8
0
  6
CONTINUOUS
 62
               7
100
AcDbLine
 10
21.499984741210938
 20
88.500015258789063
 30
0.0
 11
21.499984741210938
 21
87.500015258789063
 31
0.0
  0
LINE
  5
503
100
AcDbEntity
  8
0
  6
CONTINUOUS
 62
               7
100
AcDbLine
 10
20.5
 20
89.5
 30
0.0
 11
7.5
 21
89.5
 31
0.0
  0
LINE
  5
504
100
AcDbEntity
  8
0
  6
CONTINUOUS
 62
               7
100
AcDbLine
 10
22.5
 20
87.5
 30
0.0
 11
5.5
 21
87.5
 31
0.0
  0
LINE
  5
505
100
AcDbEntity
  8
0
  6
CONTINUOUS
 62
               7
100
AcDbLine
 10
4.9999847412109375
 20
90.000015258789063
 30
0.0
 11
4.9999847412109375
 21
53.0
 31
0.0
  0
LINE
  5
506
100
AcDbEntity
  8
0
  6
CONTINUOUS
 62
               7
100
AcDbLine
 10
22.999984741210937
 20
90.000015258789063
 30
0.0
 11
22.999984741210937
 21
89.829177856445312
 31
0.0
  0
LINE
  5
507
100
AcDbEntity
  8
0
  6
CONTINUOUS
 62
               7
100
AcDbLine
 10
8.0
 20
79.500015258789063
 30
0.0
 11
5.0
 21
79.500015258789063
 31
0.0
  0
LINE
  5
508
100
AcDbEntity
  8
0
  6
CONTINUOUS
 62
               7
100
AcDbLine
 10
90.0
 20
53.0
 30
0.0
 11
90.0
 21
0.0
 31
0.0
  0
LINE
  5
509
100
AcDbEntity
  8
0
  6
CONTINUOUS
 62
               7
100
AcDbLine
 10
-5.0
 20
53.0
 30
0.0
 11
-5.0
 21
0.0
 31
0.0
  0
LINE
  5
50A
100
AcDbEntity
  8
0
  6
CONTINUOUS
 62
               7
100
AcDbLine
 10
-5.0
 20
53.0
 30
0.0
 11
90.0
 21
53.0
 31
0.0
  0
LINE
  5
50B
100
AcDbEntity
  8
0
  6
CONTINUOUS
 62
               4
100
AcDbLine
 10
76.200027465820312
 20
58.699996948242187
 30
0.0
 11
78.800033569335937
 21
58.699996948242187
 31
0.0
  0
LINE
  5
50C
100
AcDbEntity
  8
0
  6
CONTINUOUS
 62
               4
100
AcDbLine
 10
63.200027465820312
 20
58.699996948242187
 30
0.0
 11
65.800033569335937
 21
58.699996948242187
 31
0.0
  0
LINE
  5
50D
100
AcDbEntity
  8
0
  6
CONTINUOUS
 62
               4
100
AcDbLine
 10
74.700027465820313
 20
57.199996948242188
 30
0.0
 11
74.700027465820313
 21
56.699996948242188
 31
0.0
  0
LINE
  5
50E
100
AcDbEntity
  8
0
  6
CONTINUOUS
 62
               4
100
AcDbLine
 10
80.300033569335938
 20
57.199996948242188
 30
0.0
 11
80.300033569335938
 21
56.699996948242188
 31
0.0
  0
LINE
  5
50F
100
AcDbEntity
  8
0
  6
CONTINUOUS
 62
               4
100
AcDbLine
 10
61.700027465820313
 20
57.199996948242188
 30
0.0
 11
61.700027465820313
 21
56.699996948242188
 31
0.0
  0
LINE
  5
510
100
AcDbEntity
  8
0
  6
CONTINUOUS
 62
               4
100
AcDbLine
 10
67.300033569335938
 20
57.199996948242188
 30
0.0
 11
67.300033569335938
 21
56.699996948242188
 31
0.0
  0
LINE
  5
511
100
AcDbEntity
  8
0
  6
CONTINUOUS
 62
               4
100
AcDbLine
 10
80.000030517578125
 20
56.699996948242188
 30
0.0
 11
80.000030517578125
 21
53.5
 31
0.0
  0
LINE
  5
512
100
AcDbEntity
  8
0
  6
CONTINUOUS
 62
               4
100
AcDbLine
 10
62.000030517578125
 20
56.699996948242188
 30
0.0
 11
62.000030517578125
 21
53.5
 31
0.0
  0
LINE
  5
513
100
AcDbEntity
  8
0
  6
CONTINUOUS
 62
               4
100
AcDbLine
 10
61.700027465820313
 20
56.699996948242188
 30
0.0
 11
80.300033569335938
 21
56.699996948242188
 31
0.0
  0
LINE
  5
514
100
AcDbEntity
  8
0
  6
CONTINUOUS
 62
               4
100
AcDbLine
 10
62.000030517578125
 20
53.5
 30
0.0
 11
80.000030517578125
 21
53.5
 31
0.0
  0
ENDBLK
  5
515
100
AcDbEntity
  8
0
100
AcDbBlockEnd
  0
BLOCK
  5
516
100
AcDbEntity
  8
0
100
AcDbBlockBegin
  2
F18MA-4
 70
               0
 10
0.0
 20
0.0
 30
0.0
  3
F18MA-4
  1

  0
LINE
  5
517
100
AcDbEntity
  8
0
  6
CONTINUOUS
 62
               4
100
AcDbLine
 10
-1.25
 20
-5.0
 30
0.0
 11
1.25
 21
-5.0
 31
0.0
  0
LINE
  5
518
100
AcDbEntity
  8
0
  6
CONTINUOUS
 62
               4
100
AcDbLine
 10
-2.75
 20
-3.5
 30
0.0
 11
-2.75
 21
-3.0
 31
0.0
  0
LINE
  5
519
100
AcDbEntity
  8
0
  6
CONTINUOUS
 62
               4
100
AcDbLine
 10
2.75
 20
-3.5
 30
0.0
 11
2.75
 21
-3.0
 31
0.0
  0
LINE
  5
51A
100
AcDbEntity
  8
0
  6
CONTINUOUS
 62
               4
100
AcDbLine
 10
-2.75
 20
-3.0
 30
0.0
 11
15.5
 21
-3.0
 31
0.0
  0
LINE
  5
51B
100
AcDbEntity
  8
0
  6
CONTINUOUS
 62
               4
100
AcDbLine
 10
-2.5
 20
-7.0
 30
0.0
 11
15.5
 21
-7.0
 31
0.0
  0
LINE
  5
51C
100
AcDbEntity
  8
0
  6
CONTINUOUS
 62
               4
100
AcDbLine
 10
-2.0
 20
-12.0
 30
0.0
 11
15.0
 21
-12.0
 31
0.0
  0
LINE
  5
51D
100
AcDbEntity
  8
0
  6
CONTINUOUS
 62
               4
100
AcDbLine
 10
-2.5
 20
0.0
 30
0.0
 11
-2.5
 21
-3.0
 31
0.0
  0
LINE
  5
51E
100
AcDbEntity
  8
0
  6
CONTINUOUS
 62
               4
100
AcDbLine
 10
15.5
 20
0.0
 30
0.0
 11
15.5
 21
-11.5
 31
0.0
  0
LINE
  5
51F
100
AcDbEntity
  8
0
  6
CONTINUOUS
 62
               4
100
AcDbLine
 10
3.0
 20
-3.0
 30
0.0
 11
3.0
 21
-7.0
 31
0.0
  0
LINE
  5
520
100
AcDbEntity
  8
0
  6
CONTINUOUS
 62
               4
100
AcDbLine
 10
-2.5
 20
-4.3200000000000003
 30
0.0
 11
-2.5
 21
-11.5
 31
0.0
  0
LINE
  5
521
100
AcDbEntity
  8
0
  6
CONTINUOUS
 62
             200
100
AcDbLine
 10
6.5
 20
5.54
 30
0.0
 11
6.5
 21
-19.23
 31
0.0
  0
ARC
  5
522
100
AcDbEntity
  8
0
  6
CONTINUOUS
 62
               4
100
AcDbCircle
 10
1.249977111641783
 20
-3.4999771116417833
 30
0.0
 40
1.5000228885328397
100
AcDbArc
 50
270.00087425754299
 51
359.99912574245559
  0
ARC
  5
523
100
AcDbEntity
  8
0
  6
CONTINUOUS
 62
               4
100
AcDbCircle
 10
-1.2500228880089708
 20
-3.5000228880089708
 30
0.0
 40
1.4999771121656522
100
AcDbArc
 50
179.9991257291158
 51
270.00087427088317
  0
ARC
  5
524
100
AcDbEntity
  8
0
  6
CONTINUOUS
 62
               4
100
AcDbCircle
 10
-2.0
 20
-11.5
 30
0.0
 40
0.5
100
AcDbArc
 50
179.99999999999963
 51
269.99999999999937
  0
ARC
  5
525
100
AcDbEntity
  8
0
  6
CONTINUOUS
 62
               4
100
AcDbCircle
 10
15.0
 20
-11.5
 30
0.0
 40
0.5
100
AcDbArc
 50
269.99999999999937
 51
0.0
  0
ENDBLK
  5
526
100
AcDbEntity
  8
0
100
AcDbBlockEnd
  0
BLOCK
  5
527
100
AcDbEntity
  8
0
100
AcDbBlockBegin
  2
F18MA-5
 70
               0
 10
0.0
 20
0.0
 30
0.0
  3
F18MA-5
  1

  0
LINE
  5
528
100
AcDbEntity
  8
0
  6
CONTINUOUS
 62
               4
100
AcDbLine
 10
-31.5
 20
-4.9999999999999991
 30
0.0
 11
-31.5
 21
-6.9999999999999991
 31
0.0
  0
LINE
  5
529
100
AcDbEntity
  8
0
  6
CONTINUOUS
 62
               4
100
AcDbLine
 10
-12.5
 20
-5.0000000000000009
 30
0.0
 11
-12.5
 21
-7.0000000000000009
 31
0.0
  0
LINE
  5
52A
100
AcDbEntity
  8
0
  6
CONTINUOUS
 62
               4
100
AcDbLine
 10
1.2499732971191406
 20
-5.0000000000000053
 30
0.0
 11
-1.2500267028808594
 21
-5.0000000000000009
 31
0.0
  0
LINE
  5
52B
100
AcDbEntity
  8
0
  6
CONTINUOUS
 62
               4
100
AcDbLine
 10
-31.5
 20
-4.9999999999999991
 30
0.0
 11
-12.5
 21
-5.0000000000000009
 31
0.0
  0
LINE
  5
52C
100
AcDbEntity
  8
0
  6
CONTINUOUS
 62
               4
100
AcDbLine
 10
-12.5
 20
-7.0000000000000009
 30
0.0
 11
2.2999916076660156
 21
-7.0000000000000053
 31
0.0
  0
ARC
  5
52D
100
AcDbEntity
  8
0
  6
CONTINUOUS
 62
               4
100
AcDbCircle
 10
-23.0
 20
-11.500015258789063
 30
0.0
 40
0.5
100
AcDbArc
 50
269.99999999999937
 51
0.0
  0
ARC
  5
52E
100
AcDbEntity
  8
0
  6
CONTINUOUS
 62
               4
100
AcDbCircle
 10
-21.0
 20
-11.500015258789063
 30
0.0
 40
0.5
100
AcDbArc
 50
179.99999999999963
 51
269.99999999999937
  0
LINE
  5
52F
100
AcDbEntity
  8
0
  6
CONTINUOUS
 62
               4
100
AcDbLine
 10
-21.0
 20
-12.000015258789063
 30
0.0
 11
-4.0000114440917969
 21
-12.000015258789064
 31
0.0
  0
LINE
  5
530
100
AcDbEntity
  8
0
  6
CONTINUOUS
 62
               4
100
AcDbLine
 10
-22.5
 20
-5.0
 30
0.0
 11
-22.5
 21
-11.500015258789063
 31
0.0
  0
LINE
  5
531
100
AcDbEntity
  8
0
  6
CONTINUOUS
 62
               4
100
AcDbLine
 10
-21.5
 20
-5.0
 30
0.0
 11
-21.5
 21
-11.500015258789063
 31
0.0
  0
LINE
  5
532
100
AcDbEntity
  8
0
  6
CONTINUOUS
 62
               4
100
AcDbLine
 10
-39.049999237060561
 20
-0.699996948242183
 30
0.0
 11
-39.049999237060561
 21
0.0000000000000046
 31
0.0
  0
LINE
  5
533
100
AcDbEntity
  8
0
  6
CONTINUOUS
 62
               4
100
AcDbLine
 10
-44.949993133544936
 20
-0.6999969482421754
 30
0.0
 11
-44.949993133544936
 21
0.0000000000000121
 31
0.0
  0
LINE
  5
534
100
AcDbEntity
  8
0
  6
CONTINUOUS
 62
               4
100
AcDbLine
 10
-44.949993133544936
 20
-0.6999969482421754
 30
0.0
 11
-39.049999237060561
 21
-0.699996948242183
 31
0.0
  0
ARC
  5
535
100
AcDbEntity
  8
0
  6
CONTINUOUS
 62
               4
100
AcDbCircle
 10
-40.750011444091797
 20
-1.1999816894531203
 30
0.0
 40
1.5
100
AcDbArc
 50
270.00001798608844
 51
359.99998201390986
  0
ARC
  5
536
100
AcDbEntity
  8
0
  6
CONTINUOUS
 62
               4
100
AcDbCircle
 10
-43.249996185302734
 20
-1.1999816894531201
 30
0.0
 40
1.5
100
AcDbArc
 50
179.99990870306223
 51
269.9999460417323
  0
LINE
  5
537
100
AcDbEntity
  8
0
  6
CONTINUOUS
 62
               4
100
AcDbLine
 10
-44.749980926513686
 20
-1.1999969482421755
 30
0.0
 11
-44.749980926513686
 21
-0.6999969482421754
 31
0.0
  0
LINE
  5
538
100
AcDbEntity
  8
0
  6
CONTINUOUS
 62
               4
100
AcDbLine
 10
-39.249996185302749
 20
-1.1999969482421828
 30
0.0
 11
-39.249996185302749
 21
-0.6999969482421828
 31
0.0
  0
LINE
  5
539
100
AcDbEntity
  8
0
  6
CONTINUOUS
 62
               4
100
AcDbLine
 10
-40.749996185302749
 20
-2.6999816894531201
 30
0.0
 11
-43.249996185302749
 21
-2.699981689453113
 31
0.0
  0
ARC
  5
53A
100
AcDbEntity
  8
0
  6
CONTINUOUS
 62
               4
100
AcDbCircle
 10
-1.2500267028808594
 20
-3.5000000000000049
 30
0.0
 40
1.5
100
AcDbArc
 50
180.00001798608895
 51
269.99999999999937
  0
ARC
  5
53B
100
AcDbEntity
  8
0
  6
CONTINUOUS
 62
               4
100
AcDbCircle
 10
1.2499732971191406
 20
-3.5000000000000049
 30
0.0
 40
1.5
100
AcDbArc
 50
269.99999999999937
 51
359.99998201390986
  0
ARC
  5
53C
100
AcDbEntity
  8
0
  6
CONTINUOUS
 62
               4
100
AcDbCircle
 10
-39.999996185302734
 20
-11.500015258789061
 30
0.0
 40
0.5
100
AcDbArc
 50
179.99996334457558
 51
269.99999999999937
  0
ARC
  5
53D
100
AcDbEntity
  8
0
  6
CONTINUOUS
 62
               4
100
AcDbCircle
 10
-4.0000114440917969
 20
-11.500015258789064
 30
0.0
 40
0.5
100
AcDbArc
 50
269.99999999999937
 51
359.99998201390986
  0
LINE
  5
53E
100
AcDbEntity
  8
0
  6
CONTINUOUS
 62
               4
100
AcDbLine
 10
2.7499732971191406
 20
-3.5000000000000049
 30
0.0
 11
2.7499732971191406
 21
-3.0000000000000049
 31
0.0
  0
LINE
  5
53F
100
AcDbEntity
  8
0
  6
CONTINUOUS
 62
               4
100
AcDbLine
 10
-2.7500267028808594
 20
-3.5000000000000049
 30
0.0
 11
-2.7500267028808594
 21
-3.0000000000000049
 31
0.0
  0
LINE
  5
540
100
AcDbEntity
  8
0
  6
CONTINUOUS
 62
               4
100
AcDbLine
 10
-3.0000114440917969
 20
-3.0000000000000049
 30
0.0
 11
4.2999916076660156
 21
-3.0000000000000053
 31
0.0
  0
LINE
  5
541
100
AcDbEntity
  8
0
  6
CONTINUOUS
 62
               4
100
AcDbLine
 10
-44.999996185302734
 20
-6.9999999999999947
 30
0.0
 11
-44.999996185302734
 21
0.000000000000005
 31
0.0
  0
LINE
  5
542
100
AcDbEntity
  8
0
  6
CONTINUOUS
 62
               4
100
AcDbLine
 10
-38.999996185302734
 20
-6.9999999999999991
 30
0.0
 11
-38.999996185302734
 21
0.0000000000000046
 31
0.0
  0
LINE
  5
543
100
AcDbEntity
  8
0
  6
CONTINUOUS
 62
               4
100
AcDbLine
 10
-3.0000114440917969
 20
-7.0000000000000009
 30
0.0
 11
-3.0000114440917969
 21
-3.0000000000000049
 31
0.0
  0
LINE
  5
544
100
AcDbEntity
  8
0
  6
CONTINUOUS
 62
               4
100
AcDbLine
 10
-46.299984344614131
 20
-6.9999897889338119
 30
0.0
 11
-48.299993379851003
 21
-4.9999729986266122
 31
0.0
  0
LINE
  5
545
100
AcDbEntity
  8
0
  6
CONTINUOUS
 62
               4
100
AcDbLine
 10
2.3000178781067007
 20
-7.0000035544026158
 30
0.0
 11
4.3000152808126586
 21
-5.0000181213499726
 31
0.0
  0
LINE
  5
546
100
AcDbEntity
  8
0
  6
CONTINUOUS
 62
               4
100
AcDbLine
 10
4.2999916076660156
 20
-5.0000181213499726
 30
0.0
 11
4.2999916076660156
 21
-0.0000000000000052
 31
0.0
  0
LINE
  5
547
100
AcDbEntity
  8
0
  6
CONTINUOUS
 62
               4
100
AcDbLine
 10
-48.299983978271484
 20
-4.9999824002425886
 30
0.0
 11
-48.299983978271484
 21
0.0000000000000052
 31
0.0
  0
LINE
  5
548
100
AcDbEntity
  8
0
  6
CONTINUOUS
 62
               4
100
AcDbLine
 10
-46.299983978271484
 20
-6.9999999999999947
 30
0.0
 11
-31.5
 21
-6.9999999999999991
 31
0.0
  0
LINE
  5
549
100
AcDbEntity
  8
0
  6
CONTINUOUS
 62
             200
100
AcDbLine
 10
-12.5
 20
-13.78564453125
 30
0.0
 11
-12.5
 21
-3.0974121093750004
 31
0.0
  0
LINE
  5
54A
100
AcDbEntity
  8
0
  6
CONTINUOUS
 62
             200
100
AcDbLine
 10
-31.5
 20
-13.78564453125
 30
0.0
 11
-31.5
 21
-3.0974121093749996
 31
0.0
  0
LINE
  5
54B
100
AcDbEntity
  8
0
  6
CONTINUOUS
 62
               4
100
AcDbLine
 10
-40.499996185302734
 20
-11.500015258789061
 30
0.0
 11
-40.499996185302734
 21
-6.9999999999999991
 31
0.0
  0
LINE
  5
54C
100
AcDbEntity
  8
0
  6
CONTINUOUS
 62
               4
100
AcDbLine
 10
-3.5000114440917969
 20
-11.500015258789064
 30
0.0
 11
-3.5000114440917969
 21
-7.0000000000000009
 31
0.0
  0
LINE
  5
54D
100
AcDbEntity
  8
0
  6
CONTINUOUS
 62
               4
100
AcDbLine
 10
-39.999996185302734
 20
-12.000015258789061
 30
0.0
 11
-23.0
 21
-12.000015258789063
 31
0.0
  0
ENDBLK
  5
54E
100
AcDbEntity
  8
0
100
AcDbBlockEnd
  0
BLOCK
  5
54F
100
AcDbEntity
  8
0
100
AcDbBlockBegin
  2
F18MA-6
 70
               0
 10
0.0
 20
0.0
 30
0.0
  3
F18MA-6
  1

  0
LINE
  5
550
100
AcDbEntity
  8
0
  6
CONTINUOUS
 62
             200
100
AcDbLine
 10
6.5
 20
-50.460000000000001
 30
0.0
 11
6.5
 21
6.7599999999999998
 31
0.0
  0
LINE
  5
551
100
AcDbEntity
  8
0
  6
CONTINUOUS
 62
               4
100
AcDbLine
 10
-2.5
 20
4.2999999999999998
 30
0.0
 11
15.5
 21
4.2999999999999998
 31
0.0
  0
LINE
  5
552
100
AcDbEntity
  8
0
  6
CONTINUOUS
 62
               4
100
AcDbLine
 10
-2.5
 20
-48.299999999999997
 30
0.0
 11
15.5
 21
-48.299999999999997
 31
0.0
  0
LINE
  5
553
100
AcDbEntity
  8
0
  6
CONTINUOUS
 62
               4
100
AcDbLine
 10
13.0
 20
1.0
 30
0.0
 11
15.5
 21
1.0
 31
0.0
  0
LINE
  5
554
100
AcDbEntity
  8
0
  6
CONTINUOUS
 62
               4
100
AcDbLine
 10
13.0
 20
-5.0
 30
0.0
 11
15.5
 21
-5.0
 31
0.0
  0
LINE
  5
555
100
AcDbEntity
  8
0
  6
CONTINUOUS
 62
               4
100
AcDbLine
 10
-2.5
 20
-45.0
 30
0.0
 11
0.0
 21
-45.0
 31
0.0
  0
LINE
  5
556
100
AcDbEntity
  8
0
  6
CONTINUOUS
 62
               4
100
AcDbLine
 10
-2.5
 20
-39.0
 30
0.0
 11
0.0
 21
-39.0
 31
0.0
  0
LINE
  5
557
100
AcDbEntity
  8
0
  6
CONTINUOUS
 62
               4
100
AcDbLine
 10
3.0
 20
0.0
 30
0.0
 11
3.0
 21
4.2999999999999998
 31
0.0
  0
LINE
  5
558
100
AcDbEntity
  8
0
  6
CONTINUOUS
 62
               4
100
AcDbLine
 10
0.0
 20
-3.0
 30
0.0
 11
-2.5
 21
-3.0
 31
0.0
  0
LINE
  5
559
100
AcDbEntity
  8
0
  6
CONTINUOUS
 62
               4
100
AcDbLine
 10
-2.5
 20
-46.299999999999997
 30
0.0
 11
10.0
 21
-46.299999999999997
 31
0.0
  0
LINE
  5
55A
100
AcDbEntity
  8
0
  6
CONTINUOUS
 62
               4
100
AcDbLine
 10
3.0
 20
2.2999999999999998
 30
0.0
 11
15.5
 21
2.2999999999999998
 31
0.0
  0
LINE
  5
55B
100
AcDbEntity
  8
0
  6
CONTINUOUS
 62
               4
100
AcDbLine
 10
15.5
 20
-48.299999999999997
 30
0.0
 11
15.5
 21
-45.259999999999998
 31
0.0
  0
LINE
  5
55C
100
AcDbEntity
  8
0
  6
CONTINUOUS
 62
               4
100
AcDbLine
 10
-2.5
 20
-48.299999999999997
 30
0.0
 11
-2.5
 21
-45.0
 31
0.0
  0
LINE
  5
55D
100
AcDbEntity
  8
0
  6
CONTINUOUS
 62
             200
100
AcDbLine
 10
-3.5
 20
-12.5
 30
0.0
 11
16.5
 21
-12.5
 31
0.0
  0
LINE
  5
55E
100
AcDbEntity
  8
0
  6
CONTINUOUS
 62
             200
100
AcDbLine
 10
-3.5
 20
-31.5
 30
0.0
 11
16.5
 21
-31.5
 31
0.0
  0
LINE
  5
55F
100
AcDbEntity
  8
0
  6
CONTINUOUS
 62
               4
100
AcDbLine
 10
13.0
 20
-41.0
 30
0.0
 11
15.5
 21
-41.0
 31
0.0
  0
LINE
  5
560
100
AcDbEntity
  8
0
  6
CONTINUOUS
 62
               4
100
AcDbLine
 10
10.0
 20
-44.0
 30
0.0
 11
10.0
 21
-48.299999999999997
 31
0.0
  0
LINE
  5
561
100
AcDbEntity
  8
0
  6
CONTINUOUS
 62
               4
100
AcDbLine
 10
11.93
 20
-45.060000000000002
 30
0.0
 11
14.06
 21
-42.93
 31
0.0
  0
LINE
  5
562
100
AcDbEntity
  8
0
  6
CONTINUOUS
 62
               4
100
AcDbLine
 10
11.93
 20
-42.93
 30
0.0
 11
14.06
 21
-45.060000000000002
 31
0.0
  0
LINE
  5
563
100
AcDbEntity
  8
0
  6
CONTINUOUS
 62
               4
100
AcDbLine
 10
-1.0600000000000001
 20
-1.0600000000000001
 30
0.0
 11
1.0600000000000001
 21
1.0600000000000001
 31
0.0
  0
LINE
  5
564
100
AcDbEntity
  8
0
  6
CONTINUOUS
 62
               4
100
AcDbLine
 10
-1.0600000000000001
 20
1.0600000000000001
 30
0.0
 11
1.0600000000000001
 21
-1.0600000000000001
 31
0.0
  0
LINE
  5
565
100
AcDbEntity
  8
0
  6
CONTINUOUS
 62
               4
100
AcDbLine
 10
-2.5
 20
-39.0
 30
0.0
 11
-2.5
 21
-1.26
 31
0.0
  0
LINE
  5
566
100
AcDbEntity
  8
0
  6
CONTINUOUS
 62
               4
100
AcDbLine
 10
15.5
 20
1.0
 30
0.0
 11
15.5
 21
4.2999999999999998
 31
0.0
  0
LINE
  5
567
100
AcDbEntity
  8
0
  6
CONTINUOUS
 62
               4
100
AcDbLine
 10
-2.5
 20
1.26
 30
0.0
 11
-2.5
 21
4.2999999999999998
 31
0.0
  0
LINE
  5
568
100
AcDbEntity
  8
0
  6
CONTINUOUS
 62
               4
100
AcDbLine
 10
15.5
 20
-42.729999999999997
 30
0.0
 11
15.5
 21
-5.0
 31
0.0
  0
ARC
  5
569
100
AcDbEntity
  8
0
  6
CONTINUOUS
 62
               4
100
AcDbCircle
 10
13.0
 20
-2.0
 30
0.0
 40
3.0
100
AcDbArc
 50
89.999999999999815
 51
269.99999999999937
  0
ARC
  5
56A
100
AcDbEntity
  8
0
  6
CONTINUOUS
 62
               4
100
AcDbCircle
 10
0.0
 20
-42.0
 30
0.0
 40
3.0
100
AcDbArc
 50
269.99999999999937
 51
89.999999999999801
  0
ARC
  5
56B
100
AcDbEntity
  8
0
  6
CONTINUOUS
 62
               4
100
AcDbCircle
 10
-0.0000000000000002
 20
0.0000000000000002
 30
0.0
 40
3.0
100
AcDbArc
 50
269.99999999999937
 51
0.0
  0
CIRCLE
  5
56C
100
AcDbEntity
  8
0
  6
CONTINUOUS
 62
               4
100
AcDbCircle
 10
6.4949999999999992
 20
-12.5000293175999
 30
0.0
 40
8.9965920995317497
  0
CIRCLE
  5
56D
100
AcDbEntity
  8
0
  6
CONTINUOUS
 62
               4
100
AcDbCircle
 10
6.4949999999999992
 20
-31.500031716792158
 30
0.0
 40
9.005282811455281
  0
CIRCLE
  5
56E
100
AcDbEntity
  8
0
  6
CONTINUOUS
 62
               4
100
AcDbCircle
 10
6.5
 20
-12.500030517578125
 30
0.0
 40
5.6799993515014648
  0
CIRCLE
  5
56F
100
AcDbEntity
  8
0
  6
CONTINUOUS
 62
             200
100
AcDbCircle
 10
6.5
 20
-12.500030517578125
 30
0.0
 40
6.5
  0
CIRCLE
  5
570
100
AcDbEntity
  8
0
  6
CONTINUOUS
 62
             200
100
AcDbCircle
 10
6.5
 20
-31.500030517578125
 30
0.0
 40
6.5
  0
CIRCLE
  5
571
100
AcDbEntity
  8
0
  6
CONTINUOUS
 62
               4
100
AcDbCircle
 10
6.5
 20
-31.500030517578125
 30
0.0
 40
5.6799993515014648
  0
ARC
  5
572
100
AcDbEntity
  8
0
  6
CONTINUOUS
 62
               4
100
AcDbCircle
 10
13.0
 20
-44.0
 30
0.0
 40
3.0
100
AcDbArc
 50
89.999999999999815
 51
179.99999999999963
  0
CIRCLE
  5
573
100
AcDbEntity
  8
0
  6
CONTINUOUS
 62
               4
100
AcDbCircle
 10
13.0
 20
-43.999984741210938
 30
0.0
 40
2.7999992370605469
  0
CIRCLE
  5
574
100
AcDbEntity
  8
0
  6
CONTINUOUS
 62
               4
100
AcDbCircle
 10
0.0
 20
0.0
 30
0.0
 40
2.7999992370605469
  0
ENDBLK
  5
575
100
AcDbEntity
  8
0
100
AcDbBlockEnd
  0
BLOCK
  5
576
100
AcDbEntity
  8
0
100
AcDbBlockBegin
  2
F18MA-7
 70
               0
 10
0.0
 20
0.0
 30
0.0
  3
F18MA-7
  1

  0
LINE
  5
577
100
AcDbEntity
  8
0
  6
CONTINUOUS
 62
               4
100
AcDbLine
 10
26.999999999999993
 20
23.99999491373697
 30
0.0
 11
26.999999999999993
 21
-0.0000050862630303
 31
0.0
  0
LINE
  5
578
100
AcDbEntity
  8
0
  6
CONTINUOUS
 62
               4
100
AcDbLine
 10
-0.0000000000000107
 20
16.99999491373697
 30
0.0
 11
0.0
 21
0.0
 31
0.0
  0
LINE
  5
579
100
AcDbEntity
  8
0
  6
CONTINUOUS
 62
               4
100
AcDbLine
 10
1.3999999999999844
 20
16.99999491373697
 30
0.0
 11
1.3999999999999844
 21
25.499994909445434
 31
0.0
  0
LINE
  5
57A
100
AcDbEntity
  8
0
  6
CONTINUOUS
 62
               4
100
AcDbLine
 10
-10.000000000000021
 20
25.49999491373697
 30
0.0
 11
-10.000000000000021
 21
16.99999491373697
 31
0.0
  0
LINE
  5
57B
100
AcDbEntity
  8
0
  6
CONTINUOUS
 62
               4
100
AcDbLine
 10
-10.000000000000021
 20
25.49999491373697
 30
0.0
 11
1.3999999999999844
 21
25.49999491373697
 31
0.0
  0
LINE
  5
57C
100
AcDbEntity
  8
0
  6
CONTINUOUS
 62
               4
100
AcDbLine
 10
-10.000000000000021
 20
16.99999491373697
 30
0.0
 11
1.3999999999999844
 21
16.99999491373697
 31
0.0
  0
LINE
  5
57D
100
AcDbEntity
  8
0
  6
CONTINUOUS
 62
               4
100
AcDbLine
 10
26.999999999999993
 20
23.99999491373697
 30
0.0
 11
1.3999999999999844
 21
23.99999491373697
 31
0.0
  0
LINE
  5
57E
100
AcDbEntity
  8
0
  6
CONTINUOUS
 62
               4
100
AcDbLine
 10
14.295000000000002
 20
23.99999491373697
 30
0.0
 11
12.795000000000002
 21
23.99999491373697
 31
0.0
  0
LINE
  5
57F
100
AcDbEntity
  8
0
  6
CONTINUOUS
 62
               4
100
AcDbLine
 10
1.4999999999999893
 20
25.599994913736964
 30
0.0
 11
-3.0000000000000213
 21
25.599994913736964
 31
0.0
  0
ARC
  5
580
100
AcDbEntity
  8
0
  6
CONTINUOUS
 62
               4
100
AcDbCircle
 10
-2.5015404500182896
 20
32.501535363755238
 30
0.0
 40
0.4984619302958243
100
AcDbArc
 50
89.822932465397898
 51
180.17706753460195
  0
LINE
  5
581
100
AcDbEntity
  8
0
  6
CONTINUOUS
 62
               4
100
AcDbLine
 10
-3.0000000000000213
 20
32.49999491373697
 30
0.0
 11
-3.0000000000000213
 21
25.599994913736964
 31
0.0
  0
LINE
  5
582
100
AcDbEntity
  8
0
  6
CONTINUOUS
 62
               4
100
AcDbLine
 10
1.4999999999999893
 20
25.599994913736964
 30
0.0
 11
1.4999999999999893
 21
23.99999491373697
 31
0.0
  0
ARC
  5
583
100
AcDbEntity
  8
0
  6
CONTINUOUS
 62
               4
100
AcDbCircle
 10
25.501123948313886
 20
28.179389315853996
 30
0.0
 40
1.4988865337462252
100
AcDbArc
 50
0.2142776266259142
 51
24.039904443234629
  0
ARC
  5
584
100
AcDbEntity
  8
0
  6
CONTINUOUS
 62
               4
100
AcDbCircle
 10
24.675687863874497
 20
32.502666025814563
 30
0.0
 40
0.4973293636201366
100
AcDbArc
 50
24.005903588636794
 51
90.079246697133684
  0
LINE
  5
585
100
AcDbEntity
  8
0
  6
CONTINUOUS
 62
               4
100
AcDbLine
 10
25.129999999999992
 20
32.704994913736954
 30
0.0
 11
26.870000000000001
 21
28.789994913736962
 31
0.0
  0
LINE
  5
586
100
AcDbEntity
  8
0
  6
CONTINUOUS
 62
               4
100
AcDbLine
 10
24.674999999999986
 20
32.99999491373697
 30
0.0
 11
-2.5030809000333001
 21
32.99999491373697
 31
0.0
  0
LINE
  5
587
100
AcDbEntity
  8
0
  6
CONTINUOUS
 62
               4
100
AcDbLine
 10
26.999999999999996
 20
28.184994913736944
 30
0.0
 11
26.999999999999996
 21
23.99999491373697
 31
0.0
  0
LINE
  5
588
100
AcDbEntity
  8
0
  6
CONTINUOUS
 62
             200
100
AcDbLine
 10
-20.08921456599456
 20
24.164991126888395
 30
0.0
 11
-21.946103769656482
 21
17.234986332879686
 31
0.0
  0
LINE
  5
589
100
AcDbEntity
  8
0
  6
CONTINUOUS
 62
             200
100
AcDbLine
 10
-19.053935707233002
 20
24.165001172564786
 30
0.0
 11
-20.910828860160116
 21
17.23498163969785
 31
0.0
  0
LINE
  5
58A
100
AcDbEntity
  8
0
  6
CONTINUOUS
 62
               4
100
AcDbLine
 10
-20.491119384765632
 20
22.665018717447907
 30
0.0
 11
-24.50001525878907
 21
22.665018717447907
 31
0.0
  0
LINE
  5
58B
100
AcDbEntity
  8
0
  6
CONTINUOUS
 62
               4
100
AcDbLine
 10
-20.874298095703132
 20
21.235010782877595
 30
0.0
 11
-24.50001525878907
 21
21.235010782877595
 31
0.0
  0
LINE
  5
58C
100
AcDbEntity
  8
0
  6
CONTINUOUS
 62
               4
100
AcDbLine
 10
-21.160995483398445
 20
20.165018717447907
 30
0.0
 11
-24.50001525878907
 21
20.165018717447907
 31
0.0
  0
LINE
  5
58D
100
AcDbEntity
  8
0
  6
CONTINUOUS
 62
               4
100
AcDbLine
 10
-21.544174194335945
 20
18.735010782877595
 30
0.0
 11
-24.50001525878907
 21
18.735010782877595
 31
0.0
  0
LINE
  5
58E
100
AcDbEntity
  8
0
  6
CONTINUOUS
 62
               4
100
AcDbLine
 10
-24.500000000000007
 20
22.665003458658845
 30
0.0
 11
-24.500000000000007
 21
21.234995524088532
 31
0.0
  0
LINE
  5
58F
100
AcDbEntity
  8
0
  6
CONTINUOUS
 62
               4
100
AcDbLine
 10
-24.500000000000007
 20
18.734995524088532
 30
0.0
 11
-24.500000000000007
 21
20.165003458658845
 31
0.0
  0
LINE
  5
590
100
AcDbEntity
  8
0
  6
CONTINUOUS
 62
               4
100
AcDbLine
 10
-29.500000000000007
 20
22.350001017252595
 30
0.0
 11
-29.500000000000007
 21
21.549997965494782
 31
0.0
  0
LINE
  5
591
100
AcDbEntity
  8
0
  6
CONTINUOUS
 62
               4
100
AcDbLine
 10
-24.50001525878907
 20
21.549997965494782
 30
0.0
 11
-29.500000000000007
 21
21.549997965494782
 31
0.0
  0
LINE
  5
592
100
AcDbEntity
  8
0
  6
CONTINUOUS
 62
               4
100
AcDbLine
 10
-24.50001525878907
 20
22.350001017252595
 30
0.0
 11
-29.500000000000007
 21
22.350001017252595
 31
0.0
  0
LINE
  5
593
100
AcDbEntity
  8
0
  6
CONTINUOUS
 62
               4
100
AcDbLine
 10
-16.500000000000007
 20
20.165018717447907
 30
0.0
 11
-20.125717163085945
 21
20.165018717447907
 31
0.0
  0
LINE
  5
594
100
AcDbEntity
  8
0
  6
CONTINUOUS
 62
               4
100
AcDbLine
 10
-16.500000000000007
 20
18.735010782877595
 30
0.0
 11
-20.508895874023445
 21
18.735010782877595
 31
0.0
  0
LINE
  5
595
100
AcDbEntity
  8
0
  6
CONTINUOUS
 62
               4
100
AcDbLine
 10
-16.500000000000007
 20
21.235010782877595
 30
0.0
 11
-19.839019775390632
 21
21.235010782877595
 31
0.0
  0
LINE
  5
596
100
AcDbEntity
  8
0
  6
CONTINUOUS
 62
               4
100
AcDbLine
 10
-16.500000000000007
 20
22.665018717447907
 30
0.0
 11
-19.455841064453132
 21
22.665018717447907
 31
0.0
  0
LINE
  5
597
100
AcDbEntity
  8
0
  6
CONTINUOUS
 62
               4
100
AcDbLine
 10
-24.50001525878907
 20
19.049997965494782
 30
0.0
 11
-29.500000000000007
 21
19.049997965494782
 31
0.0
  0
LINE
  5
598
100
AcDbEntity
  8
0
  6
CONTINUOUS
 62
               4
100
AcDbLine
 10
-24.50001525878907
 20
19.850001017252595
 30
0.0
 11
-29.500000000000007
 21
19.850001017252595
 31
0.0
  0
LINE
  5
599
100
AcDbEntity
  8
0
  6
CONTINUOUS
 62
               4
100
AcDbLine
 10
-29.500000000000007
 20
19.049997965494782
 30
0.0
 11
-29.500000000000007
 21
19.850001017252595
 31
0.0
  0
LINE
  5
59A
100
AcDbEntity
  8
0
  6
CONTINUOUS
 62
               4
100
AcDbLine
 10
-15.000000000000007
 20
27.49999491373697
 30
0.0
 11
-16.500000000000007
 21
27.49999491373697
 31
0.0
  0
LINE
  5
59B
100
AcDbEntity
  8
0
  6
CONTINUOUS
 62
               4
100
AcDbLine
 10
-15.499999958178712
 20
25.499973352823559
 30
0.0
 11
-16.499994209762924
 21
26.077319672805658
 31
0.0
  0
LINE
  5
59C
100
AcDbEntity
  8
0
  6
CONTINUOUS
 62
               4
100
AcDbLine
 10
-10.000000000000007
 20
25.49999491373697
 30
0.0
 11
-16.500000000000007
 21
25.49999491373697
 31
0.0
  0
LINE
  5
59D
100
AcDbEntity
  8
0
  6
CONTINUOUS
 62
               4
100
AcDbLine
 10
-5.9984545794686781
 20
26.500066061293779
 30
0.0
 11
-9.556142663157523
 21
27.000065384309579
 31
0.0
  0
LINE
  5
59E
100
AcDbEntity
  8
0
  6
CONTINUOUS
 62
               4
100
AcDbLine
 10
-9.5561523437500071
 20
26.99999491373697
 30
0.0
 11
-15.000000000000007
 21
26.99999491373697
 31
0.0
  0
LINE
  5
59F
100
AcDbEntity
  8
0
  6
CONTINUOUS
 62
               4
100
AcDbLine
 10
-15.500000000000007
 20
16.49999491373697
 30
0.0
 11
-15.500000000000007
 21
16.99999491373697
 31
0.0
  0
LINE
  5
5A0
100
AcDbEntity
  8
0
  6
CONTINUOUS
 62
               4
100
AcDbLine
 10
-15.500000000000007
 20
16.49999491373697
 30
0.0
 11
-16.500000000000007
 21
16.49999491373697
 31
0.0
  0
LINE
  5
5A1
100
AcDbEntity
  8
0
  6
CONTINUOUS
 62
               4
100
AcDbLine
 10
-10.000000000000007
 20
16.99999491373697
 30
0.0
 11
-15.500000000000007
 21
16.99999491373697
 31
0.0
  0
LINE
  5
5A2
100
AcDbEntity
  8
0
  6
CONTINUOUS
 62
               4
100
AcDbLine
 10
-15.000000000000007
 20
26.99999491373697
 30
0.0
 11
-15.000000000000007
 21
27.49999491373697
 31
0.0
  0
LINE
  5
5A3
100
AcDbEntity
  8
0
  6
CONTINUOUS
 62
               4
100
AcDbLine
 10
-5.9984588623046946
 20
25.49999491373697
 30
0.0
 11
-5.9984588623046946
 21
26.49999491373697
 31
0.0
  0
LINE
  5
5A4
100
AcDbEntity
  8
0
  6
CONTINUOUS
 62
               4
100
AcDbLine
 10
-16.500000000000007
 20
26.077341715494782
 30
0.0
 11
-16.500000000000007
 21
27.49999491373697
 31
0.0
  0
LINE
  5
5A5
100
AcDbEntity
  8
0
  6
CONTINUOUS
 62
               4
100
AcDbLine
 10
-10.000000000000007
 20
25.449991861979157
 30
0.0
 11
-10.000000000000007
 21
25.49999491373697
 31
0.0
  0
LINE
  5
5A6
100
AcDbEntity
  8
0
  6
CONTINUOUS
 62
               4
100
AcDbLine
 10
-16.500000000000007
 20
16.49999491373697
 30
0.0
 11
-16.500000000000007
 21
25.49999491373697
 31
0.0
  0
ENDBLK
  5
5A7
100
AcDbEntity
  8
0
100
AcDbBlockEnd
  0
BLOCK
  5
5A8
100
AcDbEntity
  8
0
100
AcDbBlockBegin
  2
F18MA-8
 70
               0
 10
0.0
 20
0.0
 30
0.0
  3
F18MA-8
  1

  0
LINE
  5
5A9
100
AcDbEntity
  8
0
  6
CONTINUOUS
 62
               4
100
AcDbLine
 10
0.0
 20
24.0
 30
0.0
 11
10.0
 21
24.0
 31
0.0
  0
LINE
  5
5AA
100
AcDbEntity
  8
0
  6
CONTINUOUS
 62
               4
100
AcDbLine
 10
0.05
 20
24.0
 30
0.0
 11
0.05
 21
32.5
 31
0.0
  0
LINE
  5
5AB
100
AcDbEntity
  8
0
  6
CONTINUOUS
 62
               4
100
AcDbLine
 10
9.5
 20
33.0
 30
0.0
 11
0.5
 21
33.0
 31
0.0
  0
LINE
  5
5AC
100
AcDbEntity
  8
0
  6
CONTINUOUS
 62
               4
100
AcDbLine
 10
9.9499999999999993
 20
28.5
 30
0.0
 11
0.05
 21
28.5
 31
0.0
  0
LINE
  5
5AD
100
AcDbEntity
  8
0
  6
CONTINUOUS
 62
               4
100
AcDbLine
 10
9.9499999999999993
 20
24.0
 30
0.0
 11
9.9499999999999993
 21
32.5
 31
0.0
  0
LINE
  5
5AE
100
AcDbEntity
  8
0
  6
CONTINUOUS
 62
               4
100
AcDbLine
 10
0.0
 20
0.0
 30
0.0
 11
0.0
 21
24.0
 31
0.0
  0
LINE
  5
5AF
100
AcDbEntity
  8
0
  6
CONTINUOUS
 62
               4
100
AcDbLine
 10
10.0
 20
0.0
 30
0.0
 11
10.0
 21
24.0
 31
0.0
  0
ARC
  5
5B0
100
AcDbEntity
  8
0
  6
CONTINUOUS
 62
               4
100
AcDbCircle
 10
9.4499984741187646
 20
32.499998474118769
 30
0.0
 40
0.5000015258835625
100
AcDbArc
 50
0.0001748525759638
 51
89.999825147423834
  0
ARC
  5
5B1
100
AcDbEntity
  8
0
  6
CONTINUOUS
 62
               4
100
AcDbCircle
 10
0.5500015258812345
 20
32.499998474118769
 30
0.0
 40
0.5000015258835628
100
AcDbArc
 50
90.000174852575768
 51
179.99982514742368
  0
ENDBLK
  5
5B2
100
AcDbEntity
  8
0
100
AcDbBlockEnd
  0
BLOCK
  5
628
100
AcDbEntity
  8
0
  6
ByBlock
 62
               0
100
AcDbBlockBegin
  2
*D8
 70
               1
 10
0.0
 20
0.0
 30
0.0
  3
*D8
  1

  0
LINE
  5
629
100
AcDbEntity
  8
0
  6
CONTINUOUS
 62
               2
100
AcDbLine
 10
-50.000030517578125
 20
167.11868286132812
 30
0.0
 11
-45.000030517578125
 21
167.11868286132812
 31
0.0
  0
LINE
  5
62A
100
AcDbEntity
  8
0
  6
CONTINUOUS
 62
               2
100
AcDbLine
 10
-59.297470092773437
 20
167.11868286132812
 30
0.0
 11
-50.000030517578125
 21
167.11868286132812
 31
0.0
  0
LINE
  5
62B
100
AcDbEntity
  8
0
  6
CONTINUOUS
 62
               2
100
AcDbLine
 10
-45.000030517578125
 20
71.25
 30
0.0
 11
-45.000030517578125
 21
168.61868286132812
 31
0.0
  0
LINE
  5
62C
100
AcDbEntity
  8
0
  6
CONTINUOUS
 62
               2
100
AcDbLine
 10
-50.000030517578125
 20
167.11868286132812
 30
0.0
 11
-53.556030511856079
 21
167.11868286132812
 31
0.0
  0
LINE
  5
62D
100
AcDbEntity
  8
0
  6
CONTINUOUS
 62
               2
100
AcDbLine
 10
-45.000030517578125
 20
167.11868286132812
 30
0.0
 11
-41.444030523300171
 21
167.11868286132812
 31
0.0
  0
INSERT
  5
634
100
AcDbEntity
  8
0
  6
CONTINUOUS
 62
               2
100
AcDbBlockReference
  2
_OPEN30
 10
-50.000030517578125
 20
167.11868286132812
 30
0.0
 41
2.77
 42
2.77
 43
2.77
  0
INSERT
  5
635
100
AcDbEntity
  8
0
  6
CONTINUOUS
 62
               2
100
AcDbBlockReference
  2
_OPEN30
 10
-45.000030517578125
 20
167.11868286132812
 30
0.0
 41
2.77
 42
2.77
 43
2.77
 50
180.0
  0
MTEXT
  5
636
100
AcDbEntity
  8
0
  6
CONTINUOUS
 62
               2
100
AcDbMText
 10
-57.047470092773437
 20
170.36868286132812
 30
0.0
 40
4.5
 41
0.0
 71
               5
 72
               1
  1
\A1;5
  0
POINT
  5
637
100
AcDbEntity
  8
DEFPOINTS
  6
CONTINUOUS
 62
               0
100
AcDbPoint
 10
-50.000030517578125
 20
97.0
 30
0.0
  0
POINT
  5
638
100
AcDbEntity
  8
DEFPOINTS
  6
CONTINUOUS
 62
               0
100
AcDbPoint
 10
-45.000030517578125
 20
71.25
 30
0.0
  0
POINT
  5
639
100
AcDbEntity
  8
DEFPOINTS
  6
CONTINUOUS
 62
               0
100
AcDbPoint
 10
-45.000030517578125
 20
167.11868286132812
 30
0.0
  0
ENDBLK
  5
63A
100
AcDbEntity
  8
0
  6
ByBlock
 62
               0
100
AcDbBlockEnd
  0
BLOCK
  5
62F
100
AcDbEntity
  8
0
  6
ByBlock
 62
               0
100
AcDbBlockBegin
  2
_OPEN30
 70
               2
 10
0.0
 20
0.0
 30
0.0
  3
_OPEN30
  1

  0
LINE
  5
630
100
AcDbEntity
  8
0
  6
ByBlock
 62
               0
100
AcDbLine
 10
-1.0
 20
0.267949
 30
0.0
 11
0.0
 21
0.0
 31
0.0
  0
LINE
  5
631
100
AcDbEntity
  8
0
  6
ByBlock
 62
               0
100
AcDbLine
 10
0.0
 20
0.0
 30
0.0
 11
-1.0
 21
-0.267949
 31
0.0
  0
LINE
  5
632
100
AcDbEntity
  8
0
  6
ByBlock
 62
               0
100
AcDbLine
 10
0.0
 20
0.0
 30
0.0
 11
-1.0
 21
0.0
 31
0.0
  0
ENDBLK
  5
633
100
AcDbEntity
  8
0
  6
ByBlock
 62
               0
100
AcDbBlockEnd
  0
BLOCK
  5
63D
100
AcDbEntity
  8
0
  6
ByBlock
 62
               0
100
AcDbBlockBegin
  2
*D10
 70
               1
 10
0.0
 20
0.0
 30
0.0
  3
*D10
  1

  0
LINE
  5
63E
100
AcDbEntity
  8
0
  6
CONTINUOUS
 62
               2
100
AcDbLine
 10
-45.000030517578125
 20
167.11868286132812
 30
0.0
 11
39.999969482421875
 21
167.11868286132812
 31
0.0
  0
LINE
  5
63F
100
AcDbEntity
  8
0
  6
CONTINUOUS
 62
               2
100
AcDbLine
 10
39.999969482421875
 20
71.25
 30
0.0
 11
39.999969482421875
 21
168.61868286132812
 31
0.0
  0
INSERT
  5
640
100
AcDbEntity
  8
0
  6
CONTINUOUS
 62
               2
100
AcDbBlockReference
  2
_OPEN30
 10
-45.000030517578125
 20
167.11868286132812
 30
0.0
 41
2.77
 42
2.77
 43
2.77
 50
180.0
  0
INSERT
  5
641
100
AcDbEntity
  8
0
  6
CONTINUOUS
 62
               2
100
AcDbBlockReference
  2
_OPEN30
 10
39.999969482421875
 20
167.11868286132812
 30
0.0
 41
2.77
 42
2.77
 43
2.77
  0
MTEXT
  5
642
100
AcDbEntity
  8
0
  6
CONTINUOUS
 62
               2
100
AcDbMText
 10
-2.500030517578125
 20
170.36868286132812
 30
0.0
 40
4.5
 41
0.0
 71
               5
 72
               1
  1
\A1;P
  0
POINT
  5
643
100
AcDbEntity
  8
DEFPOINTS
  6
CONTINUOUS
 62
               0
100
AcDbPoint
 10
-45.000030517578125
 20
71.25
 30
0.0
  0
POINT
  5
644
100
AcDbEntity
  8
DEFPOINTS
  6
CONTINUOUS
 62
               0
100
AcDbPoint
 10
39.999969482421875
 20
71.25
 30
0.0
  0
POINT
  5
645
100
AcDbEntity
  8
DEFPOINTS
  6
CONTINUOUS
 62
               0
100
AcDbPoint
 10
39.999969482421875
 20
167.11868286132812
 30
0.0
  0
ENDBLK
  5
646
100
AcDbEntity
  8
0
  6
ByBlock
 62
               0
100
AcDbBlockEnd
  0
BLOCK
  5
649
100
AcDbEntity
  8
0
  6
ByBlock
 62
               0
100
AcDbBlockBegin
  2
*D11
 70
               1
 10
0.0
 20
0.0
 30
0.0
  3
*D11
  1

  0
LINE
  5
64A
100
AcDbEntity
  8
0
  6
CONTINUOUS
 62
               2
100
AcDbLine
 10
39.999969482421875
 20
167.11868286132812
 30
0.0
 11
44.999969482421875
 21
167.11868286132812
 31
0.0
  0
LINE
  5
64B
100
AcDbEntity
  8
0
  6
CONTINUOUS
 62
               2
100
AcDbLine
 10
44.999969482421875
 20
167.11868286132812
 30
0.0
 11
55.499252319335938
 21
167.11868286132812
 31
0.0
  0
LINE
  5
64C
100
AcDbEntity
  8
0
  6
CONTINUOUS
 62
               2
100
AcDbLine
 10
39.999969482421875
 20
167.11868286132812
 30
0.0
 11
36.443969488143921
 21
167.11868286132812
 31
0.0
  0
LINE
  5
64D
100
AcDbEntity
  8
0
  6
CONTINUOUS
 62
               2
100
AcDbLine
 10
44.999969482421875
 20
167.11868286132812
 30
0.0
 11
48.555969476699829
 21
167.11868286132812
 31
0.0
  0
INSERT
  5
64E
100
AcDbEntity
  8
0
  6
CONTINUOUS
 62
               2
100
AcDbBlockReference
  2
_OPEN30
 10
39.999969482421875
 20
167.11868286132812
 30
0.0
 41
2.77
 42
2.77
 43
2.77
  0
INSERT
  5
64F
100
AcDbEntity
  8
0
  6
CONTINUOUS
 62
               2
100
AcDbBlockReference
  2
_OPEN30
 10
44.999969482421875
 20
167.11868286132812
 30
0.0
 41
2.77
 42
2.77
 43
2.77
 50
180.0
  0
MTEXT
  5
650
100
AcDbEntity
  8
0
  6
CONTINUOUS
 62
               2
100
AcDbMText
 10
53.249252319335938
 20
170.36868286132812
 30
0.0
 40
4.5
 41
0.0
 71
               5
 72
               1
  1
\A1;5
  0
POINT
  5
651
100
AcDbEntity
  8
DEFPOINTS
  6
CONTINUOUS
 62
               0
100
AcDbPoint
 10
39.999969482421875
 20
71.25
 30
0.0
  0
POINT
  5
652
100
AcDbEntity
  8
DEFPOINTS
  6
CONTINUOUS
 62
               0
100
AcDbPoint
 10
44.999969482421875
 20
97.0
 30
0.0
  0
POINT
  5
653
100
AcDbEntity
  8
DEFPOINTS
  6
CONTINUOUS
 62
               0
100
AcDbPoint
 10
44.999969482421875
 20
167.11868286132812
 30
0.0
  0
ENDBLK
  5
654
100
AcDbEntity
  8
0
  6
ByBlock
 62
               0
100
AcDbBlockEnd
  0
BLOCK
  5
657
100
AcDbEntity
  8
0
  6
ByBlock
 62
               0
100
AcDbBlockBegin
  2
*D12
 70
               1
 10
0.0
 20
0.0
 30
0.0
  3
*D12
  1

  0
LINE
  5
658
100
AcDbEntity
  8
0
  6
CONTINUOUS
 62
               2
100
AcDbLine
 10
-50.000030517578125
 20
177.11868286132812
 30
0.0
 11
44.999969482421875
 21
177.11868286132812
 31
0.0
  0
LINE
  5
659
100
AcDbEntity
  8
0
  6
CONTINUOUS
 62
               2
100
AcDbLine
 10
-50.000030517578125
 20
98.5
 30
0.0
 11
-50.000030517578125
 21
178.61868286132812
 31
0.0
  0
LINE
  5
65A
100
AcDbEntity
  8
0
  6
CONTINUOUS
 62
               2
100
AcDbLine
 10
44.999969482421875
 20
98.5
 30
0.0
 11
44.999969482421875
 21
178.61868286132812
 31
0.0
  0
INSERT
  5
65B
100
AcDbEntity
  8
0
  6
CONTINUOUS
 62
               2
100
AcDbBlockReference
  2
_OPEN30
 10
-50.000030517578125
 20
177.11868286132812
 30
0.0
 41
2.77
 42
2.77
 43
2.77
 50
180.0
  0
INSERT
  5
65C
100
AcDbEntity
  8
0
  6
CONTINUOUS
 62
               2
100
AcDbBlockReference
  2
_OPEN30
 10
44.999969482421875
 20
177.11868286132812
 30
0.0
 41
2.77
 42
2.77
 43
2.77
  0
MTEXT
  5
65D
100
AcDbEntity
  8
0
  6
CONTINUOUS
 62
               2
100
AcDbMText
 10
-2.500030517578125
 20
180.36868286132812
 30
0.0
 40
4.5
 41
0.0
 71
               5
 72
               1
  1
\A1;L
  0
POINT
  5
65E
100
AcDbEntity
  8
DEFPOINTS
  6
CONTINUOUS
 62
               0
100
AcDbPoint
 10
-50.000030517578125
 20
97.0
 30
0.0
  0
POINT
  5
65F
100
AcDbEntity
  8
DEFPOINTS
  6
CONTINUOUS
 62
               0
100
AcDbPoint
 10
44.999969482421875
 20
97.0
 30
0.0
  0
POINT
  5
660
100
AcDbEntity
  8
DEFPOINTS
  6
CONTINUOUS
 62
               0
100
AcDbPoint
 10
44.999969482421875
 20
177.11868286132812
 30
0.0
  0
ENDBLK
  5
661
100
AcDbEntity
  8
0
  6
ByBlock
 62
               0
100
AcDbBlockEnd
  0
ENDSEC
  0
SECTION
  2
ENTITIES
  0
INSERT
  5
5B3
100
AcDbEntity
  8
0
  6
ByBlock
100
AcDbBlockReference
  2
F18MA-1
 10
-45.000030517578125
 20
68.0
 30
0.0
  0
INSERT
  5
5B4
100
AcDbEntity
  8
0
  6
ByBlock
100
AcDbBlockReference
  2
F18MA-2
 10
-203.0001220703125
 20
68.000030517578125
 30
0.0
  0
INSERT
  5
5B5
100
AcDbEntity
  8
0
  6
ByBlock
100
AcDbBlockReference
  2
F18MA-3
 10
-45.000030517578125
 20
-158.69999694824219
 30
0.0
  0
INSERT
  5
5B6
100
AcDbEntity
  8
0
  6
ByBlock
100
AcDbBlockReference
  2
F18MA-4
 10
222.25250244140625
 20
126.05557250976562
 30
0.0
  0
INSERT
  5
5B7
100
AcDbEntity
  8
0
  6
ByBlock
100
AcDbBlockReference
  2
F18MA-5
 10
163.75213623046875
 20
126.05557250976562
 30
0.0
  0
INSERT
  5
5B8
100
AcDbEntity
  8
0
  6
ByBlock
100
AcDbBlockReference
  2
F18MA-6
 10
222.25250244140625
 20
72.27008056640625
 30
0.0
  0
INSERT
  5
5B9
100
AcDbEntity
  8
0
  6
ByBlock
100
AcDbBlockReference
  2
F18MA-7
 10
139.91107177734375
 20
-106.62163806640626
 30
0.0
  0
INSERT
  5
5BA
100
AcDbEntity
  8
0
  6
ByBlock
100
AcDbBlockReference
  2
F18MA-8
 10
225.41091918945313
 20
-106.62165832519531
 30
0.0
  0
LINE
  5
5BB
100
AcDbEntity
  8
0
  6
CONTINUOUS
 62
               7
100
AcDbLine
 10
-281.25
 20
195.5
 30
0.0
 11
282.10000000000002
 21
195.5
 31
0.0
  0
LINE
  5
5BC
100
AcDbEntity
  8
0
  6
CONTINUOUS
 62
               7
100
AcDbLine
 10
282.10000000000002
 20
195.5
 30
0.0
 11
282.10000000000002
 21
-195.0
 31
0.0
  0
LINE
  5
5BD
100
AcDbEntity
  8
0
  6
CONTINUOUS
 62
               7
100
AcDbLine
 10
-281.25
 20
-195.0
 30
0.0
 11
282.10000000000002
 21
-195.0
 31
0.0
  0
LINE
  5
5BE
100
AcDbEntity
  8
0
  6
CONTINUOUS
 62
               7
100
AcDbLine
 10
162.09999999999999
 20
-175.0
 30
0.0
 11
162.09999999999999
 21
-195.0
 31
0.0
  0
LINE
  5
5BF
100
AcDbEntity
  8
0
  6
CONTINUOUS
 62
               7
100
AcDbLine
 10
162.09999999999999
 20
-175.0
 30
0.0
 11
282.10000000000002
 21
-175.0
 31
0.0
  0
LINE
  5
5C0
100
AcDbEntity
  8
0
  6
CONTINUOUS
 62
               7
100
AcDbLine
 10
162.09999999999999
 20
175.5
 30
0.0
 11
282.10000000000002
 21
175.5
 31
0.0
  0
LINE
  5
5C1
100
AcDbEntity
  8
0
  6
CONTINUOUS
 62
               7
100
AcDbLine
 10
-281.25
 20
175.5
 30
0.0
 11
-161.25
 21
175.5
 31
0.0
  0
LINE
  5
5C2
100
AcDbEntity
  8
0
  6
CONTINUOUS
 62
               7
100
AcDbLine
 10
162.09999999999999
 20
195.5
 30
0.0
 11
162.09999999999999
 21
175.5
 31
0.0
  0
LINE
  5
5C3
100
AcDbEntity
  8
0
  6
CONTINUOUS
 62
               7
100
AcDbLine
 10
-161.25
 20
195.5
 30
0.0
 11
-161.25
 21
175.5
 31
0.0
  0
LINE
  5
5C4
100
AcDbEntity
  8
0
  6
CONTINUOUS
 62
               7
100
AcDbLine
 10
-271.25
 20
-185.0
 30
0.0
 11
-171.25
 21
-185.0
 31
0.0
  0
LINE
  5
5C5
100
AcDbEntity
  8
0
  6
CONTINUOUS
 62
               7
100
AcDbLine
 10
-271.25
 20
-177.0
 30
0.0
 11
-171.25
 21
-177.0
 31
0.0
  0
LINE
  5
5C6
100
AcDbEntity
  8
0
  6
CONTINUOUS
 62
               7
100
AcDbLine
 10
-271.25
 20
-169.0
 30
0.0
 11
-171.25
 21
-169.0
 31
0.0
  0
LINE
  5
5C7
100
AcDbEntity
  8
0
  6
CONTINUOUS
 62
               7
100
AcDbLine
 10
-271.25
 20
-161.0
 30
0.0
 11
-171.25
 21
-161.0
 31
0.0
  0
LINE
  5
5C8
100
AcDbEntity
  8
0
  6
CONTINUOUS
 62
               7
100
AcDbLine
 10
-271.25
 20
-153.0
 30
0.0
 11
-171.25
 21
-153.0
 31
0.0
  0
LINE
  5
5C9
100
AcDbEntity
  8
0
  6
CONTINUOUS
 62
               7
100
AcDbLine
 10
-271.25
 20
-145.0
 30
0.0
 11
-171.25
 21
-145.0
 31
0.0
  0
LINE
  5
5CA
100
AcDbEntity
  8
0
  6
CONTINUOUS
 62
               7
100
AcDbLine
 10
-271.25
 20
-137.0
 30
0.0
 11
-171.25
 21
-137.0
 31
0.0
  0
LINE
  5
5CB
100
AcDbEntity
  8
0
  6
CONTINUOUS
 62
               7
100
AcDbLine
 10
-271.25
 20
-129.0
 30
0.0
 11
-171.25
 21
-129.0
 31
0.0
  0
LINE
  5
5CC
100
AcDbEntity
  8
0
  6
CONTINUOUS
 62
               7
100
AcDbLine
 10
-271.25
 20
-121.0
 30
0.0
 11
-171.25
 21
-121.0
 31
0.0
  0
LINE
  5
5CD
100
AcDbEntity
  8
0
  6
CONTINUOUS
 62
               7
100
AcDbLine
 10
-271.25
 20
-113.0
 30
0.0
 11
-171.25
 21
-113.0
 31
0.0
  0
LINE
  5
5CE
100
AcDbEntity
  8
0
  6
CONTINUOUS
 62
               7
100
AcDbLine
 10
-271.25
 20
-105.0
 30
0.0
 11
-171.25
 21
-105.0
 31
0.0
  0
LINE
  5
5CF
100
AcDbEntity
  8
0
  6
CONTINUOUS
 62
               7
100
AcDbLine
 10
-271.25
 20
-97.0
 30
0.0
 11
-171.25
 21
-97.0
 31
0.0
  0
LINE
  5
5D0
100
AcDbEntity
  8
0
  6
CONTINUOUS
 62
               7
100
AcDbLine
 10
-271.25
 20
-89.0
 30
0.0
 11
-171.25
 21
-89.0
 31
0.0
  0
LINE
  5
5D1
100
AcDbEntity
  8
0
  6
CONTINUOUS
 62
               7
100
AcDbLine
 10
-271.25
 20
-81.0
 30
0.0
 11
-171.25
 21
-81.0
 31
0.0
  0
LINE
  5
5D2
100
AcDbEntity
  8
0
  6
CONTINUOUS
 62
               7
100
AcDbLine
 10
-271.25
 20
-73.0
 30
0.0
 11
-171.25
 21
-73.0
 31
0.0
  0
LINE
  5
5D3
100
AcDbEntity
  8
0
  6
CONTINUOUS
 62
               7
100
AcDbLine
 10
-271.25
 20
-65.0
 30
0.0
 11
-171.25
 21
-65.0
 31
0.0
  0
LINE
  5
5D4
100
AcDbEntity
  8
0
  6
CONTINUOUS
 62
               7
100
AcDbLine
 10
-271.25
 20
-57.0
 30
0.0
 11
-171.25
 21
-57.0
 31
0.0
  0
LINE
  5
5D5
100
AcDbEntity
  8
0
  6
CONTINUOUS
 62
               7
100
AcDbLine
 10
-271.25
 20
-49.0
 30
0.0
 11
-171.25
 21
-49.0
 31
0.0
  0
LINE
  5
5D6
100
AcDbEntity
  8
0
  6
CONTINUOUS
 62
               7
100
AcDbLine
 10
-271.25
 20
-41.0
 30
0.0
 11
-171.25
 21
-41.0
 31
0.0
  0
LINE
  5
5D7
100
AcDbEntity
  8
0
  6
CONTINUOUS
 62
               7
100
AcDbLine
 10
-271.25
 20
-33.0
 30
0.0
 11
-171.25
 21
-33.0
 31
0.0
  0
LINE
  5
5D8
100
AcDbEntity
  8
0
  6
CONTINUOUS
 62
               7
100
AcDbLine
 10
-271.25
 20
-25.0
 30
0.0
 11
-171.25
 21
-25.0
 31
0.0
  0
LINE
  5
5D9
100
AcDbEntity
  8
0
  6
CONTINUOUS
 62
               7
100
AcDbLine
 10
-231.25
 20
-25.0
 30
0.0
 11
-231.25
 21
-185.0
 31
0.0
  0
LINE
  5
5DA
100
AcDbEntity
  8
0
  6
CONTINUOUS
 62
               7
100
AcDbLine
 10
-271.25
 20
-25.0
 30
0.0
 11
-271.25
 21
-185.0
 31
0.0
  0
LINE
  5
5DB
100
AcDbEntity
  8
0
  6
CONTINUOUS
 62
               7
100
AcDbLine
 10
-281.25
 20
-195.0
 30
0.0
 11
-281.25
 21
195.5
 31
0.0
  0
LINE
  5
5DC
100
AcDbEntity
  8
0
  6
CONTINUOUS
 62
               7
100
AcDbLine
 10
-201.25
 20
-25.0
 30
0.0
 11
-201.25
 21
-185.0
 31
0.0
  0
LINE
  5
5DD
100
AcDbEntity
  8
0
  6
CONTINUOUS
 62
               7
100
AcDbLine
 10
-171.25
 20
-25.0
 30
0.0
 11
-171.25
 21
-185.0
 31
0.0
  0
LINE
  5
5DE
100
AcDbEntity
  8
0
  6
CONTINUOUS
 62
               7
100
AcDbLine
 10
94.310000000000002
 20
195.5
 30
0.0
 11
94.310000000000002
 21
-195.0
 31
0.0
  0
LINE
  5
5DF
100
AcDbEntity
  8
0
  6
CONTINUOUS
 62
               7
100
AcDbLine
 10
94.310000000000002
 20
0.25
 30
0.0
 11
282.10000000000002
 21
0.25
 31
0.0
  0
LINE
  5
5E0
100
AcDbEntity
  8
0
  6
CONTINUOUS
 62
               7
100
AcDbLine
 10
139.91107177734375
 20
-106.62163806640626
 30
0.0
 11
166.91107177734375
 21
-106.62163806640626
 31
0.0
  0
LINE
  5
5E1
100
AcDbEntity
  8
0
  6
CONTINUOUS
 62
               7
100
AcDbLine
 10
225.41091918945313
 20
-106.62165832519531
 30
0.0
 11
235.41091918945313
 21
-106.62165832519531
 31
0.0
  0
LINE
  5
5E2
100
AcDbEntity
  8
0
  6
CONTINUOUS
 62
               7
100
AcDbLine
 10
115.45215225219727
 20
126.05557250976562
 30
0.0
 11
168.05212783813477
 21
126.05557250976562
 31
0.0
  0
LINE
  5
5E3
100
AcDbEntity
  8
0
  6
CONTINUOUS
 62
               7
100
AcDbLine
 10
219.75250244140625
 20
126.05557250976562
 30
0.0
 11
237.75250244140625
 21
126.05557250976562
 31
0.0
  0
MTEXT
  5
5E4
100
AcDbEntity
  8
0
  6
CONTINUOUS
 62
               7
100
AcDbMText
 10
201.30997488927844
 20
185.5
 30
0.0
 40
6.3000001907348633
 41
0.0
 71
               4
 72
               1
  1
\W1.200;\A1;Ver.3.0
  0
MTEXT
  5
5E5
100
AcDbEntity
  8
0
  6
CONTINUOUS
 62
               7
100
AcDbMText
 10
170.28099805280428
 20
-185.0
 30
0.0
 40
9.0
 41
0.0
 71
               4
 72
               1
  1
\W1.121;\A1;KOGANEI CORP.
  0
MTEXT
  5
5E6
100
AcDbEntity
  8
0
  6
CONTINUOUS
 62
               7
100
AcDbMText
 10
-251.5746278087926
 20
185.5
 30
0.0
 40
6.3000001907348633
 41
0.0
 71
               4
 72
               1
  1
\W1.119;\A1;F18 SERIES
  0
MTEXT
  5
5E7
100
AcDbEntity
  8
0
  6
CONTINUOUS
 62
               7
100
AcDbMText
 10
-268.26250007319049
 20
160.5
 30
0.0
 40
6.3000001907348633
 41
0.0
 71
               4
 72
               1
  1
\W1.083;\A1;MODEL:F18M4AJ
  0
MTEXT
  5
5E8
100
AcDbEntity
  8
0
  6
CONTINUOUS
 62
               7
100
AcDbMText
 10
-259.5
 20
-29.0
 30
0.0
 40
4.5
 41
0.0
 71
               4
 72
               1
  1
\A1;TYPE
  0
MTEXT
  5
5E9
100
AcDbEntity
  8
0
  6
CONTINUOUS
 62
               7
100
AcDbMText
 10
-251.91666665578606
 20
-21.0
 30
0.0
 40
4.5
 41
0.0
 71
               4
 72
               1
  1
\W1.111;\A1;DIMENSION LIST
  0
MTEXT
  5
5EA
100
AcDbEntity
  8
0
  6
CONTINUOUS
 62
               7
100
AcDbMText
 10
-217.75
 20
-29.0
 30
0.0
 40
4.5
 41
0.0
 71
               4
 72
               1
  1
\A1;L
  0
MTEXT
  5
5EB
100
AcDbEntity
  8
0
  6
CONTINUOUS
 62
               7
100
AcDbMText
 10
-187.75
 20
-29.0
 30
0.0
 40
4.5
 41
0.0
 71
               4
 72
               1
  1
\A1;P
  0
MTEXT
  5
5EC
100
AcDbEntity
  8
0
  6
CONTINUOUS
 62
               7
100
AcDbMText
 10
107.32717668646974
 20
160.5
 30
0.0
 40
6.3000001907348633
 41
0.0
 71
               4
 72
               1
  1
\W1.105;\A1;MODEL:M
  0
MTEXT
  5
5ED
100
AcDbEntity
  8
0
  6
CONTINUOUS
 62
               7
100
AcDbMText
 10
107.30065028182506
 20
-14.75
 30
0.0
 40
6.3000001907348633
 41
0.0
 71
               4
 72
               1
  1
\W1.080;\A1;MODEL:-PL
  0
MTEXT
  5
5EE
100
AcDbEntity
  8
0
  6
CONTINUOUS
 62
               7
100
AcDbMText
 10
-263.96249996893107
 20
-93.0
 30
0.0
 40
4.5
 41
0.0
 71
               4
 72
               1
  1
\W1.050;\A1;F18M9AJ
  0
MTEXT
  5
5EF
100
AcDbEntity
  8
0
  6
CONTINUOUS
 62
               7
100
AcDbMText
 10
-263.96249996893107
 20
-37.0
 30
0.0
 40
4.5
 41
0.0
 71
               4
 72
               1
  1
\W1.050;\A1;F18M2AJ
  0
MTEXT
  5
5F0
100
AcDbEntity
  8
0
  6
CONTINUOUS
 62
               7
100
AcDbMText
 10
-263.96249996893107
 20
-45.0
 30
0.0
 40
4.5
 41
0.0
 71
               4
 72
               1
  1
\W1.050;\A1;F18M3AJ
  0
MTEXT
  5
5F1
100
AcDbEntity
  8
0
  6
CONTINUOUS
 62
               7
100
AcDbMText
 10
-263.96249996893107
 20
-53.0
 30
0.0
 40
4.5
 41
0.0
 71
               4
 72
               1
  1
\W1.050;\A1;F18M4AJ
  0
MTEXT
  5
5F2
100
AcDbEntity
  8
0
  6
CONTINUOUS
 62
               7
100
AcDbMText
 10
-263.96249996893107
 20
-61.0
 30
0.0
 40
4.5
 41
0.0
 71
               4
 72
               1
  1
\W1.050;\A1;F18M5AJ
  0
MTEXT
  5
5F3
100
AcDbEntity
  8
0
  6
CONTINUOUS
 62
               7
100
AcDbMText
 10
-263.96249996893107
 20
-69.0
 30
0.0
 40
4.5
 41
0.0
 71
               4
 72
               1
  1
\W1.050;\A1;F18M6AJ
  0
MTEXT
  5
5F4
100
AcDbEntity
  8
0
  6
CONTINUOUS
 62
               7
100
AcDbMText
 10
-263.96249996893107
 20
-77.0
 30
0.0
 40
4.5
 41
0.0
 71
               4
 72
               1
  1
\W1.050;\A1;F18M7AJ
  0
MTEXT
  5
5F5
100
AcDbEntity
  8
0
  6
CONTINUOUS
 62
               7
100
AcDbMText
 10
-263.96249996893107
 20
-85.0
 30
0.0
 40
4.5
 41
0.0
 71
               4
 72
               1
  1
\W1.050;\A1;F18M8AJ
  0
MTEXT
  5
5F6
100
AcDbEntity
  8
0
  6
CONTINUOUS
 62
               7
100
AcDbMText
 10
-268.43181819881323
 20
-173.0
 30
0.0
 40
4.5
 41
0.0
 71
               4
 72
               1
  1
\W1.091;\A1;F18M19AJ
  0
MTEXT
  5
5F7
100
AcDbEntity
  8
0
  6
CONTINUOUS
 62
               7
100
AcDbMText
 10
-268.41279080697052
 20
-101.0
 30
0.0
 40
4.5
 41
0.0
 71
               4
 72
               1
  1
\W1.116;\A1;F18M10AJ
  0
MTEXT
  5
5F8
100
AcDbEntity
  8
0
  6
CONTINUOUS
 62
               7
100
AcDbMText
 10
-268.39285713049111
 20
-109.0
 30
0.0
 40
4.5
 41
0.0
 71
               4
 72
               1
  1
\W1.143;\A1;F18M11AJ
  0
MTEXT
  5
5F9
100
AcDbEntity
  8
0
  6
CONTINUOUS
 62
               7
100
AcDbMText
 10
-268.43181819881323
 20
-117.0
 30
0.0
 40
4.5
 41
0.0
 71
               4
 72
               1
  1
\W1.091;\A1;F18M12AJ
  0
MTEXT
  5
5FA
100
AcDbEntity
  8
0
  6
CONTINUOUS
 62
               7
100
AcDbMText
 10
-268.43181819881323
 20
-125.0
 30
0.0
 40
4.5
 41
0.0
 71
               4
 72
               1
  1
\W1.091;\A1;F18M13AJ
  0
MTEXT
  5
5FB
100
AcDbEntity
  8
0
  6
CONTINUOUS
 62
               7
100
AcDbMText
 10
-268.43181819881323
 20
-133.0
 30
0.0
 40
4.5
 41
0.0
 71
               4
 72
               1
  1
\W1.091;\A1;F18M14AJ
  0
MTEXT
  5
5FC
100
AcDbEntity
  8
0
  6
CONTINUOUS
 62
               7
100
AcDbMText
 10
-268.43181819881323
 20
-141.0
 30
0.0
 40
4.5
 41
0.0
 71
               4
 72
               1
  1
\W1.091;\A1;F18M15AJ
  0
MTEXT
  5
5FD
100
AcDbEntity
  8
0
  6
CONTINUOUS
 62
               7
100
AcDbMText
 10
-268.43181819881323
 20
-149.0
 30
0.0
 40
4.5
 41
0.0
 71
               4
 72
               1
  1
\W1.091;\A1;F18M16AJ
  0
MTEXT
  5
5FE
100
AcDbEntity
  8
0
  6
CONTINUOUS
 62
               7
100
AcDbMText
 10
-268.43181819881323
 20
-157.0
 30
0.0
 40
4.5
 41
0.0
 71
               4
 72
               1
  1
\W1.091;\A1;F18M17AJ
  0
MTEXT
  5
5FF
100
AcDbEntity
  8
0
  6
CONTINUOUS
 62
               7
100
AcDbMText
 10
-268.43181819881323
 20
-165.0
 30
0.0
 40
4.5
 41
0.0
 71
               4
 72
               1
  1
\W1.091;\A1;F18M18AJ
  0
MTEXT
  5
600
100
AcDbEntity
  8
0
  6
CONTINUOUS
 62
               7
100
AcDbMText
 10
-268.45000003377595
 20
-181.0
 30
0.0
 40
4.5
 41
0.0
 71
               4
 72
               1
  1
\W1.067;\A1;F18M20AJ
  0
MTEXT
  5
601
100
AcDbEntity
  8
0
  6
CONTINUOUS
 62
               7
100
AcDbMText
 10
-221.58333333333334
 20
-181.0
 30
0.0
 40
4.0
 41
0.0
 71
               4
 72
               1
  1
\A1;399
  0
MTEXT
  5
602
100
AcDbEntity
  8
0
  6
CONTINUOUS
 62
               7
100
AcDbMText
 10
-191.58333333333334
 20
-181.0
 30
0.0
 40
4.0
 41
0.0
 71
               4
 72
               1
  1
\A1;389
  0
MTEXT
  5
603
100
AcDbEntity
  8
0
  6
CONTINUOUS
 62
               7
100
AcDbMText
 10
-221.54411765585775
 20
-173.0
 30
0.0
 40
4.0
 41
0.0
 71
               4
 72
               1
  1
\W1.059;\A1;380
  0
MTEXT
  5
604
100
AcDbEntity
  8
0
  6
CONTINUOUS
 62
               7
100
AcDbMText
 10
-221.50000001117587
 20
-165.0
 30
0.0
 40
4.0
 41
0.0
 71
               4
 72
               1
  1
\W1.125;\A1;361
  0
MTEXT
  5
605
100
AcDbEntity
  8
0
  6
CONTINUOUS
 62
               7
100
AcDbMText
 10
-221.58333333333334
 20
-157.0
 30
0.0
 40
4.0
 41
0.0
 71
               4
 72
               1
  1
\A1;342
  0
MTEXT
  5
606
100
AcDbEntity
  8
0
  6
CONTINUOUS
 62
               7
100
AcDbMText
 10
-221.58333333333334
 20
-149.0
 30
0.0
 40
4.0
 41
0.0
 71
               4
 72
               1
  1
\A1;323
  0
MTEXT
  5
607
100
AcDbEntity
  8
0
  6
CONTINUOUS
 62
               7
100
AcDbMText
 10
-221.54411765585775
 20
-141.0
 30
0.0
 40
4.0
 41
0.0
 71
               4
 72
               1
  1
\W1.059;\A1;304
  0
MTEXT
  5
608
100
AcDbEntity
  8
0
  6
CONTINUOUS
 62
               7
100
AcDbMText
 10
-221.58333333333334
 20
-133.0
 30
0.0
 40
4.0
 41
0.0
 71
               4
 72
               1
  1
\A1;285
  0
MTEXT
  5
609
100
AcDbEntity
  8
0
  6
CONTINUOUS
 62
               7
100
AcDbMText
 10
-221.58333333333334
 20
-125.0
 30
0.0
 40
4.0
 41
0.0
 71
               4
 72
               1
  1
\A1;266
  0
MTEXT
  5
60A
100
AcDbEntity
  8
0
  6
CONTINUOUS
 62
               7
100
AcDbMText
 10
-221.58333333333334
 20
-117.0
 30
0.0
 40
4.0
 41
0.0
 71
               4
 72
               1
  1
\A1;247
  0
MTEXT
  5
60B
100
AcDbEntity
  8
0
  6
CONTINUOUS
 62
               7
100
AcDbMText
 10
-221.58333333333334
 20
-109.0
 30
0.0
 40
4.0
 41
0.0
 71
               4
 72
               1
  1
\A1;228
  0
MTEXT
  5
60C
100
AcDbEntity
  8
0
  6
CONTINUOUS
 62
               7
100
AcDbMText
 10
-221.54411765585775
 20
-101.0
 30
0.0
 40
4.0
 41
0.0
 71
               4
 72
               1
  1
\W1.059;\A1;209
  0
MTEXT
  5
60D
100
AcDbEntity
  8
0
  6
CONTINUOUS
 62
               7
100
AcDbMText
 10
-221.45000003178913
 20
-93.0
 30
0.0
 40
4.0
 41
0.0
 71
               4
 72
               1
  1
\W1.200;\A1;190
  0
MTEXT
  5
60E
100
AcDbEntity
  8
0
  6
CONTINUOUS
 62
               7
100
AcDbMText
 10
-221.39285719476101
 20
-85.0
 30
0.0
 40
4.0
 41
0.0
 71
               4
 72
               1
  1
\W1.286;\A1;171
  0
MTEXT
  5
60F
100
AcDbEntity
  8
0
  6
CONTINUOUS
 62
               7
100
AcDbMText
 10
-221.50000001117587
 20
-77.0
 30
0.0
 40
4.0
 41
0.0
 71
               4
 72
               1
  1
\W1.125;\A1;152
  0
MTEXT
  5
610
100
AcDbEntity
  8
0
  6
CONTINUOUS
 62
               7
100
AcDbMText
 10
-221.50000001117587
 20
-69.0
 30
0.0
 40
4.0
 41
0.0
 71
               4
 72
               1
  1
\W1.125;\A1;133
  0
MTEXT
  5
611
100
AcDbEntity
  8
0
  6
CONTINUOUS
 62
               7
100
AcDbMText
 10
-221.39285719476101
 20
-61.0
 30
0.0
 40
4.0
 41
0.0
 71
               4
 72
               1
  1
\W1.286;\A1;114
  0
MTEXT
  5
612
100
AcDbEntity
  8
0
  6
CONTINUOUS
 62
               7
100
AcDbMText
 10
-217.33333333333334
 20
-53.0
 30
0.0
 40
4.0
 41
0.0
 71
               4
 72
               1
  1
\A1;95
  0
MTEXT
  5
613
100
AcDbEntity
  8
0
  6
CONTINUOUS
 62
               7
100
AcDbMText
 10
-217.33333333333334
 20
-45.0
 30
0.0
 40
4.0
 41
0.0
 71
               4
 72
               1
  1
\A1;76
  0
MTEXT
  5
614
100
AcDbEntity
  8
0
  6
CONTINUOUS
 62
               7
100
AcDbMText
 10
-217.33333333333334
 20
-37.0
 30
0.0
 40
4.0
 41
0.0
 71
               4
 72
               1
  1
\A1;57
  0
MTEXT
  5
615
100
AcDbEntity
  8
0
  6
CONTINUOUS
 62
               7
100
AcDbMText
 10
-191.54411765585775
 20
-173.0
 30
0.0
 40
4.0
 41
0.0
 71
               4
 72
               1
  1
\W1.059;\A1;370
  0
MTEXT
  5
616
100
AcDbEntity
  8
0
  6
CONTINUOUS
 62
               7
100
AcDbMText
 10
-191.50000001117587
 20
-165.0
 30
0.0
 40
4.0
 41
0.0
 71
               4
 72
               1
  1
\W1.125;\A1;351
  0
MTEXT
  5
617
100
AcDbEntity
  8
0
  6
CONTINUOUS
 62
               7
100
AcDbMText
 10
-191.58333333333334
 20
-157.0
 30
0.0
 40
4.0
 41
0.0
 71
               4
 72
               1
  1
\A1;332
  0
MTEXT
  5
618
100
AcDbEntity
  8
0
  6
CONTINUOUS
 62
               7
100
AcDbMText
 10
-191.50000001117587
 20
-149.0
 30
0.0
 40
4.0
 41
0.0
 71
               4
 72
               1
  1
\W1.125;\A1;313
  0
MTEXT
  5
619
100
AcDbEntity
  8
0
  6
CONTINUOUS
 62
               7
100
AcDbMText
 10
-191.58333333333334
 20
-141.0
 30
0.0
 40
4.0
 41
0.0
 71
               4
 72
               1
  1
\A1;294
  0
MTEXT
  5
61A
100
AcDbEntity
  8
0
  6
CONTINUOUS
 62
               7
100
AcDbMText
 10
-191.58333333333334
 20
-133.0
 30
0.0
 40
4.0
 41
0.0
 71
               4
 72
               1
  1
\A1;275
  0
MTEXT
  5
61B
100
AcDbEntity
  8
0
  6
CONTINUOUS
 62
               7
100
AcDbMText
 10
-191.58333333333334
 20
-125.0
 30
0.0
 40
4.0
 41
0.0
 71
               4
 72
               1
  1
\A1;256
  0
MTEXT
  5
61C
100
AcDbEntity
  8
0
  6
CONTINUOUS
 62
               7
100
AcDbMText
 10
-191.58333333333334
 20
-117.0
 30
0.0
 40
4.0
 41
0.0
 71
               4
 72
               1
  1
\A1;237
  0
MTEXT
  5
61D
100
AcDbEntity
  8
0
  6
CONTINUOUS
 62
               7
100
AcDbMText
 10
-191.50000001117587
 20
-109.0
 30
0.0
 40
4.0
 41
0.0
 71
               4
 72
               1
  1
\W1.125;\A1;218
  0
MTEXT
  5
61E
100
AcDbEntity
  8
0
  6
CONTINUOUS
 62
               7
100
AcDbMText
 10
-191.50000001117587
 20
-101.0
 30
0.0
 40
4.0
 41
0.0
 71
               4
 72
               1
  1
\W1.125;\A1;199
  0
MTEXT
  5
61F
100
AcDbEntity
  8
0
  6
CONTINUOUS
 62
               7
100
AcDbMText
 10
-191.45000003178913
 20
-93.0
 30
0.0
 40
4.0
 41
0.0
 71
               4
 72
               1
  1
\W1.200;\A1;180
  0
MTEXT
  5
620
100
AcDbEntity
  8
0
  6
CONTINUOUS
 62
               7
100
AcDbMText
 10
-191.39285719476101
 20
-85.0
 30
0.0
 40
4.0
 41
0.0
 71
               4
 72
               1
  1
\W1.286;\A1;161
  0
MTEXT
  5
621
100
AcDbEntity
  8
0
  6
CONTINUOUS
 62
               7
100
AcDbMText
 10
-191.50000001117587
 20
-77.0
 30
0.0
 40
4.0
 41
0.0
 71
               4
 72
               1
  1
\W1.125;\A1;142
  0
MTEXT
  5
622
100
AcDbEntity
  8
0
  6
CONTINUOUS
 62
               7
100
AcDbMText
 10
-191.50000001117587
 20
-69.0
 30
0.0
 40
4.0
 41
0.0
 71
               4
 72
               1
  1
\W1.125;\A1;123
  0
MTEXT
  5
623
100
AcDbEntity
  8
0
  6
CONTINUOUS
 62
               7
100
AcDbMText
 10
-191.45000003178913
 20
-61.0
 30
0.0
 40
4.0
 41
0.0
 71
               4
 72
               1
  1
\W1.200;\A1;104
  0
MTEXT
  5
624
100
AcDbEntity
  8
0
  6
CONTINUOUS
 62
               7
100
AcDbMText
 10
-187.33333333333334
 20
-53.0
 30
0.0
 40
4.0
 41
0.0
 71
               4
 72
               1
  1
\A1;85
  0
MTEXT
  5
625
100
AcDbEntity
  8
0
  6
CONTINUOUS
 62
               7
100
AcDbMText
 10
-187.33333333333334
 20
-45.0
 30
0.0
 40
4.0
 41
0.0
 71
               4
 72
               1
  1
\A1;66
  0
MTEXT
  5
626
100
AcDbEntity
  8
0
  6
CONTINUOUS
 62
               7
100
AcDbMText
 10
-187.33333333333334
 20
-37.0
 30
0.0
 40
4.0
 41
0.0
 71
               4
 72
               1
  1
\A1;47
  0
DIMENSION
  5
63B
100
AcDbEntity
  8
0
  6
CONTINUOUS
 62
               2
100
AcDbDimension
  2
*D8
 10
-45.000030517578125
 20
167.11868286132812
 30
0.0
 11
-57.047470092773437
 21
167.11868286132812
 31
0.0
 70
             128
  1
<>
  3
MXDIMSTYLE
100
AcDbAlignedDimension
 13
-50.000030517578125
 23
97.0
 33
0.0
 14
-45.000030517578125
 24
71.25
 34
0.0
100
AcDbRotatedDimension
1001
ACAD
1000
DSTYLE
1002
{
1070
               6
1000
_OPEN30
1070
               7
1000
_OPEN30
1070
              41
1040
2.77
1070
              42
1040
0.0
1070
              75
1070
               1
1070
             140
1040
4.5
1070
             173
1070
               1
1070
             271
1070
               0
1070
             284
1070
               8
1070
             341
1005
62E
1002
}
  0
DIMENSION
  5
647
100
AcDbEntity
  8
0
  6
CONTINUOUS
 62
               2
100
AcDbDimension
  2
*D10
 10
39.999969482421875
 20
167.11868286132812
 30
0.0
 11
-2.500030517578125
 21
167.11868286132812
 31
0.0
 70
             128
  1
P
  3
MXDIMSTYLE
100
AcDbAlignedDimension
 13
-45.000030517578125
 23
71.25
 33
0.0
 14
39.999969482421875
 24
71.25
 34
0.0
100
AcDbRotatedDimension
1001
ACAD
1000
DSTYLE
1002
{
1070
               6
1000
_OPEN30
1070
               7
1000
_OPEN30
1070
              41
1040
2.77
1070
              42
1040
0.0
1070
              75
1070
               1
1070
              78
1070
               0
1070
             140
1040
4.5
1070
             173
1070
               1
1070
             271
1070
               0
1070
             341
1005
62E
1002
}
  0
DIMENSION
  5
655
100
AcDbEntity
  8
0
  6
CONTINUOUS
 62
               2
100
AcDbDimension
  2
*D11
 10
44.999969482421875
 20
167.11868286132812
 30
0.0
 11
53.249252319335938
 21
167.11868286132812
 31
0.0
 70
             128
  1
<>
  3
MXDIMSTYLE
100
AcDbAlignedDimension
 13
39.999969482421875
 23
71.25
 33
0.0
 14
44.999969482421875
 24
97.0
 34
0.0
100
AcDbRotatedDimension
1001
ACAD
1000
DSTYLE
1002
{
1070
               6
1000
_OPEN30
1070
               7
1000
_OPEN30
1070
              41
1040
2.77
1070
              75
1070
               1
1070
              76
1070
               1
1070
             140
1040
4.5
1070
             173
1070
               1
1070
             271
1070
               0
1070
             284
1070
               8
1070
             341
1005
62E
1002
}
  0
DIMENSION
  5
662
100
AcDbEntity
  8
0
  6
CONTINUOUS
 62
               2
100
AcDbDimension
  2
*D12
 10
44.999969482421875
 20
177.11868286132812
 30
0.0
 11
-2.500030517578125
 21
177.11868286132812
 31
0.0
 70
             128
  1
L
  3
MXDIMSTYLE
100
AcDbAlignedDimension
 13
-50.000030517578125
 23
97.0
 33
0.0
 14
44.999969482421875
 24
97.0
 34
0.0
100
AcDbRotatedDimension
1001
ACAD
1000
DSTYLE
1002
{
1070
               6
1000
_OPEN30
1070
               7
1000
_OPEN30
1070
              41
1040
2.77
1070
              78
1070
               0
1070
             140
1040
4.5
1070
             173
1070
               1
1070
             271
1070
               0
1070
             341
1005
62E
1002
}
  0
MTEXT
  5
663
100
AcDbEntity
  8
0
  6
CONTINUOUS
 62
               2
100
AcDbMText
 10
-90.97441103354096
 20
-46.213747425079347
 30
0.0
 40
4.5
 41
0.0
 71
               4
 72
               1
  1
\W1.100;\A1;F18T1-A1-PS
  0
LEADER
  5
664
100
AcDbEntity
  8
0
  6
CONTINUOUS
 62
               2
100
AcDbLeader
  3
MXDIMSTYLE
 73
               3
 74
               0
 75
               0
 40
0.0
 76
               3
 10
-31.000030517578125
 20
-68.199996948242188
 30
0.0
 10
-41.000045776367188
 20
-50.869996948242189
 30
0.0
 10
-90.974411010742188
 20
-50.869996948242189
 30
0.0
 77
               2
1001
ACAD
1000
DSTYLE
1002
{
1070
               6
1000
_OPEN30
1070
               7
1000
_OPEN30
1070
              41
1040
2.77
1070
             173
1070
               1
1070
             341
1005
62E
1002
}
  0
MTEXT
  5
665
100
AcDbEntity
  8
0
  6
CONTINUOUS
 62
               2
100
AcDbMText
 10
-1.5290985253501324
 20
-46.213747425079347
 30
0.0
 40
4.5
 41
0.0
 71
               4
 72
               1
  1
\W1.065;\A1;F18T2-A1-PS
  0
LEADER
  5
666
100
AcDbEntity
  8
0
  6
CONTINUOUS
 62
               2
100
AcDbLeader
  3
MXDIMSTYLE
 73
               3
 74
               0
 75
               0
 40
0.0
 76
               3
 10
-12.000015258789063
 20
-68.199996948242188
 30
0.0
 10
-2.0000457763671875
 20
-50.869996948242189
 30
0.0
 10
47.970901489257813
 20
-50.869996948242189
 30
0.0
 77
               2
1001
ACAD
1000
DSTYLE
1002
{
1070
               6
1000
_OPEN30
1070
               7
1000
_OPEN30
1070
              41
1040
2.77
1070
             173
1070
               1
1070
             341
1005
62E
1002
}
  0
MTEXT
  5
667
100
AcDbEntity
  8
0
  6
CONTINUOUS
 62
               2
100
AcDbMText
 10
12.58578489750143
 20
-54.883484363555908
 30
0.0
 40
4.5
 41
0.0
 71
               4
 72
               1
  1
\W1.065;\A1;F18T3-A1-PS
  0
LEADER
  5
668
100
AcDbEntity
  8
0
  6
CONTINUOUS
 62
               2
100
AcDbLeader
  3
MXDIMSTYLE
 73
               3
 74
               0
 75
               0
 40
0.0
 76
               3
 10
7.0
 20
-68.199996948242188
 30
0.0
 10
12.585784912109375
 20
-59.53973388671875
 30
0.0
 10
62.085784912109375
 20
-59.53973388671875
 30
0.0
 77
               2
1001
ACAD
1000
DSTYLE
1002
{
1070
               6
1000
_OPEN30
1070
               7
1000
_OPEN30
1070
              41
1040
2.77
1070
             173
1070
               1
1070
             341
1005
62E
1002
}
  0
MTEXT
  5
669
100
AcDbEntity
  8
0
  6
CONTINUOUS
 62
               2
100
AcDbMText
 10
31.710189820155861
 20
-88.683472004298437
 30
0.0
 40
4.5
 41
0.0
 71
               4
 72
               1
  1
\W1.071;\A1;F18BP
  0
LEADER
  5
66A
100
AcDbEntity
  8
0
  6
CONTINUOUS
 62
               2
100
AcDbLeader
  3
MXDIMSTYLE
 73
               3
 74
               0
 75
               0
 40
0.0
 76
               3
 10
26.000030517578125
 20
-102.0
 30
0.0
 10
31.000034213048366
 20
-93.339721527461279
 30
0.0
 10
54.210189819318202
 20
-93.339721527461279
 30
0.0
 77
               2
1001
ACAD
1000
DSTYLE
1002
{
1070
               6
1000
_OPEN30
1070
               7
1000
_OPEN30
1070
              41
1040
2.77
1070
             173
1070
               1
1070
             341
1005
62E
1002
}
  0
ENDSEC
  0
SECTION
  2
OBJECTS
  0
DICTIONARY
  5
19
100
AcDbDictionary
  3
ACAD_GROUP
350
1A
  3
ACAD_MLINESTYLE
350
1B
  0
DICTIONARY
  5
1A
102
{ACAD_REACTORS
330
19
102
}
100
AcDbDictionary
  0
DICTIONARY
  5
1B
102
{ACAD_REACTORS
330
19
102
}
100
AcDbDictionary
  3
STANDARD
350
1C
  0
MLINESTYLE
  5
1C
102
{ACAD_REACTORS
330
1B
102
}
100
AcDbMlineStyle
  2
Standard
 70
               0
  3

 62
               0
 51
90.0
 52
90.0
 71
               2
 49
0.5
 62
             256
  6
ByLayer
 49
-0.5
 62
             256
  6
ByLayer
  0
ENDSEC
  0
EOF
